#VERSION:0.83;
#TITLE:Monsters;
#SUBTITLE:;
#ARTIST:Saara Aalto;
#TITLETRANSLIT:;
#SUBTITLETRANSLIT:;
#ARTISTTRANSLIT:;
#GENRE:Pop;
#ORIGIN:;
#CREDIT:;
#BANNER:Monsters-bn.png;
#BACKGROUND:Monsters-bg.png;
#PREVIEWVID:;
#JACKET:Monsters-jacket.png;
#CDIMAGE:;
#DISCIMAGE:;
#LYRICSPATH:;
#CDTITLE:cdtitle.png;
#MUSIC:Monsters.ogg;
#OFFSET:-0.004000;
#SAMPLESTART:25.086000;
#SAMPLELENGTH:31.500000;
#SELECTABLE:YES;
#BPMS:0.000=122.000;
#STOPS:;
#DELAYS:;
#WARPS:;
#TIMESIGNATURES:0.000=4=4;
#TICKCOUNTS:0.000=4;
#COMBOS:0.000=1;
#SPEEDS:0.000=1.000=0.000=0;
#SCROLLS:0.000=1.000;
#FAKES:;
#LABELS:0.000=Song Start;
#BGCHANGES:0.000=Monsters.mp4=1.000=1=0=1===CrossFade==,
99999=-nosongbg-=1.000=0=0=0 // don't automatically add -songbackground-
;
#KEYSOUNDS:;
#ATTACKS:
;

//---------------dance-single - ----------------
#NOTEDATA:;
#CHARTNAME:X-Scale 11;
#STEPSTYPE:dance-single;
#DESCRIPTION:;
#CHARTSTYLE:;
#DIFFICULTY:Hard;
#METER:8;
#RADARVALUES:0.459904,0.639831,0.161370,0.201712,0.375185,399.000000,379.000000,20.000000,25.000000,0.000000,0.000000,0.000000,0.000000,0.000000,0.459904,0.639831,0.161370,0.201712,0.375185,399.000000,379.000000,20.000000,25.000000,0.000000,0.000000,0.000000,0.000000,0.000000;
#CREDIT:iamthek3n;
#NOTES:
0000
0000
0000
0000
,
0000
0000
0000
0000
,
0000
0000
0000
0000
,
0000
0000
0000
0000
,
0000
0000
0000
2000
,
3002
0000
0023
0000
0130
0000
1000
0100
,
0001
0100
0010
0001
1000
0002
0000
0203
,
0000
0300
0010
0100
1000
0100
0010
0000
,
1000
0000
0001
0010
0100
1000
2100
0000
,
0001
0100
0001
3002
,
0100
0100
0000
1000
0000
0100
0103
0001
,
0100
0101
0000
0001
1000
0000
1100
0000
,
1000
0000
0100
0000
0001
0000
1000
0000
0010
0000
0100
0000
1100
0000
0000
0100
,
0000
0000
1000
0000
0000
0000
1000
0000
0000
0000
0000
0000
0001
0000
0000
0010
,
0000
0000
0100
0000
0000
0000
1000
0000
0000
0100
0000
0000
1000
0000
0000
0001
,
0000
0000
0100
0000
0000
0000
0100
0000
0000
0000
0000
0000
0001
0000
0000
0010
,
0000
0000
0001
0000
0000
0000
1000
0000
0000
1000
0001
0010
0001
0000
0000
1000
,
0000
0000
0100
0000
0000
0000
0100
0000
0000
0000
0000
0000
1001
0000
0000
0001
,
0000
0000
0010
0000
0000
0000
0101
0000
0000
1000
0000
0000
1001
0000
0000
0010
,
0000
0000
1000
0000
0000
0000
1000
0000
0000
0000
0000
0000
1100
0000
0000
1000
,
0000
0000
0010
0000
0100
0000
1000
0000
0100
0000
0001
0000
0101
0000
0000
0100
,
0010
0000
1000
0000
0000
0100
0000
0000
2000
0000
0000
0000
3001
0000
0000
0100
,
0010
0000
1000
0000
0000
0001
0000
0020
0000
0000
0000
0000
0230
0000
0000
0000
,
0001
0000
1300
0100
0010
0002
1000
0000
,
0010
0000
1003
0001
0100
0001
1000
0010
,
0100
0000
0001
0000
0010
0100
1000
0000
0100
0000
0001
0000
1000
0000
0100
0000
,
0010
0000
1000
0000
0001
0010
0100
0000
0010
0000
0001
0000
1000
0001
1000
0001
,
1000
0001
1000
0001
0010
0100
0010
0100
0010
0100
0010
0100
2000
0000
0000
0001
,
0000
0000
0000
0000
0000
0000
0100
0000
0000
0000
0000
0000
3100
0000
0000
0000
0000
0000
1000
0000
0001
0000
1000
0000
0001
0000
0000
0000
0000
0000
0000
0000
0000
0000
0000
0000
1001
0000
0000
0000
0000
0000
0000
0000
0000
1000
0000
0000
,
0001
0000
1000
0000
0100
0000
1000
0010
1000
0001
0000
0000
1000
0000
0000
0010
,
0100
0000
0001
0000
0010
0000
0100
1000
0001
0100
0000
0000
0001
0000
0000
0010
,
0100
0000
1000
0000
0001
0000
0100
0010
0100
0001
0000
0000
0010
0000
0000
0010
,
0100
0000
1000
0000
0010
0000
1010
0000
0000
1001
0000
0000
1000
0000
0000
0100
,
0000
0000
1000
0000
0002
0000
0000
0000
0023
0000
0000
0000
0031
0000
0000
0100
,
0000
0000
0001
0000
0000
0000
0010
0000
0000
0001
0000
0000
1000
0000
0000
0010
,
0000
0000
1000
0000
0100
0000
0001
0000
1000
0000
0010
0000
0001
0000
0000
0100
,
0000
0000
0001
0000
0010
0100
0000
0010
0000
0100
1000
0000
1100
0000
0000
1000
,
0000
0000
0001
0000
2000
0000
0000
0000
3200
0000
0000
0000
0310
0000
0000
0001
,
0000
0100
0000
0001
0010
0100
0000
0001
,
0010
0100
0000
1000
0100
0010
0000
1000
,
0100
0000
0020
0000
0000
0000
0001
0000
0000
0100
0030
0000
0110
0000
0000
1001
,
0000
0000
1100
0000
0000
0000
1000
0000
1001
0000
0000
0000
0011
0000
0000
0100
,
0001
0000
1000
0000
0001
0000
0010
0000
0100
1000
0000
0000
1000
0000
0000
0010
,
0100
0000
0001
0000
1000
0000
0100
0000
0010
0001
0000
0000
1000
0000
0001
0000
,
0200
0000
0000
0000
1300
0000
0100
0000
0010
0000
0100
0000
0001
0000
0000
0001
,
1000
0000
0001
0000
0100
0000
0010
0000
1000
0100
0000
0000
1000
0000
0000
0001
,
0100
0000
0001
0000
1000
0000
0010
0000
0100
0001
0100
0000
0010
0000
0000
0010
,
1000
0000
0100
0000
0010
0000
0001
0100
0000
0100
0000
0000
0001
0000
1000
0000
,
0002
0000
0000
0000
1003
0000
0100
0000
0001
0000
0100
0000
1000
0000
0000
0001
,
0010
0000
0100
0000
1000
0001
0000
0000
2001
0000
0000
0000
3010
0000
0000
0100
,
0010
0000
1000
0000
0001
0100
0000
0000
0021
0000
0000
0000
0130
0000
0000
0010
,
0001
0000
1000
0000
0001
0000
0100
0000
1000
0000
0100
0000
0001
0000
0000
1000
,
0001
0000
1000
0000
0100
0000
0010
0000
0100
0000
1000
0000
0001
0000
0000
0100
,
0001
0000
0100
0000
0010
0000
1000
0010
0000
0010
0000
0000
1000
0000
0000
0100
,
1000
0000
0001
0000
0100
0000
0001
1000
0000
1000
0000
0000
0010
0000
0000
1000
,
0001
0000
1000
0000
0100
1000
0000
0000
0001
0000
1000
0000
0100
1000
0000
0000
,
0001
0000
1000
0000
0100
1000
0000
0010
0000
0100
0002
0000
0010
0000
0000
0100
,
0000
0000
1000
0000
0000
0000
1000
0000
0000
0100
0000
0000
0010
0000
0000
1000
,
0000
0000
1000
0000
0000
0000
0100
0000
0203
0000
0000
0000
0320
0000
0000
0001
,
0000
0000
0100
0000
0000
0000
0030
1000
0000
0010
0000
0000
1000
0001
0000
0000
,
1000
0000
0100
0000
0001
0100
0000
0010
0000
0001
0000
0020
0000
0000
0000
0000
,
0030
0000
0000
0000
;

//---------------dance-single - ----------------
#NOTEDATA:;
#CHARTNAME:X-Scale 8;
#STEPSTYPE:dance-single;
#DESCRIPTION:;
#CHARTSTYLE:;
#DIFFICULTY:Medium;
#METER:6;
#RADARVALUES:0.384982,0.467569,0.185575,0.459904,0.213815,334.000000,311.000000,23.000000,57.000000,0.000000,0.000000,0.000000,0.000000,0.000000,0.384982,0.467569,0.185575,0.459904,0.213815,334.000000,311.000000,23.000000,57.000000,0.000000,0.000000,0.000000,0.000000,0.000000;
#CREDIT:iamthek3n;
#NOTES:
// measure 0
0000
0000
0000
0000
,  // measure 1
0000
0000
0000
0000
,  // measure 2
0000
0000
0000
0000
,  // measure 3
0000
0000
0000
0000
,  // measure 4
0000
0000
0000
2000
,  // measure 5
3002
2003
3000
0100
,  // measure 6
1000
0000
0001
0000
0010
0200
0000
2300
,  // measure 7
0000
3000
0001
0000
1000
0010
1000
0000
,  // measure 8
0001
0000
0010
0000
0100
1000
1100
0000
,  // measure 9
0100
0010
0001
1000
,  // measure 10
0001
0100
0000
0100
0001
0000
1000
0100
,  // measure 11
0020
0001
0000
0000
0130
0000
1100
0000
,  // measure 12
0100
1000
0000
1000
0001
0000
0102
0000
,  // measure 13
2003
3200
0302
2003
,  // measure 14
3020
0000
0000
0000
0230
0000
0000
0000
1300
0000
0002
0000
0010
0000
0000
0010
,  // measure 15
0000
0000
1000
0000
0000
0000
1000
0000
0000
0000
0003
0000
0010
0000
0000
0010
,  // measure 16
0000
0000
0001
0000
0000
0000
0001
0000
0000
1000
0000
0000
2100
0000
0000
0000
,  // measure 17
3020
0032
0023
2030
,  // measure 18
3002
0000
0000
0000
0203
0000
0000
0000
0310
0000
0200
0000
1000
0000
0000
0010
,  // measure 19
0000
0000
0001
0000
0000
0000
0001
0000
0000
0000
0300
0000
0110
0000
0000
0010
,  // measure 20
0000
0000
1000
0000
0100
0000
0001
0000
0100
0000
1000
0000
1100
0000
0000
1000
,  // measure 21
0000
0000
0100
0000
0000
0010
0000
0000
0002
0000
0000
0000
0103
0000
0000
0010
,  // measure 22
0000
0000
0100
0000
0000
0001
0000
0000
2000
0000
0000
0000
3002
0000
0000
0100
,  // measure 23
0000
0000
1000
0000
1003
0000
0001
0000
0100
0000
0020
0000
0001
0000
0000
0100
,  // measure 24
0000
1000
1030
0010
0100
0001
2001
0000
,  // measure 25
3200
0302
0023
2030
,  // measure 26
3020
0000
0230
0000
0301
0200
1000
0000
,  // measure 27
0010
0000
0000
0000
1000
0000
0000
0000
0001
0000
0300
0000
0101
0000
0000
1000
,  // measure 28
0100
0000
1000
0000
0001
0010
0000
0001
0000
1000
0001
0000
1001
0000
0000
0100
,  // measure 29
0000
0000
1000
0000
0001
0000
0010
0000
0000
0001
0000
0000
0100
0000
0000
0010
,  // measure 30
0000
0000
1000
0000
0001
0000
1000
0000
0000
0100
0000
0000
0010
0000
0000
0001
,  // measure 31
0000
0000
0100
0000
0001
0000
0100
0000
0000
0010
0000
0000
0001
0000
0000
0010
,  // measure 32
0000
0000
1000
0000
0010
0000
1000
0000
0000
0001
0000
0000
2000
0000
0000
0000
,  // measure 33
0000
0000
0000
0000
3200
0000
0000
0000
0320
0000
0000
0000
0032
0000
0000
1000
,  // measure 34
0000
0010
0000
0000
0013
0200
0000
0000
,  // measure 35
0000
0000
0310
0000
0100
0000
1000
0000
0001
0000
0200
0000
0001
0000
0000
0010
,  // measure 36
0000
0000
1000
0000
0000
0000
1000
0000
0000
0010
0300
0000
2001
0000
0000
0000
,  // measure 37
0000
0000
0000
0000
3002
0000
0000
0000
2003
0000
0000
0000
3020
0000
0000
0001
,  // measure 38
0000
0100
0000
0130
0010
0100
0000
0001
,  // measure 39
0010
0001
0000
1000
0010
1000
0000
1000
,  // measure 40
0010
0000
2000
0000
0000
0000
0001
0000
0000
0001
0000
0000
0001
0000
0000
0100
,  // measure 41
0000
0001
0000
3000
1001
0000
1100
0000
,  // measure 42
0101
0000
0001
0000
1000
0010
0100
0001
,  // measure 43
0010
0200
0001
0000
1000
0300
0100
0010
,  // measure 44
0002
0000
1000
0000
0013
0001
0010
0000
,  // measure 45
1001
0000
1000
0000
0010
0000
1000
0000
0001
1000
0000
0000
1100
0000
0000
0000
,  // measure 46
1001
0000
0101
0000
0100
0010
0001
0010
,  // measure 47
1000
0002
0010
0000
1000
0000
0103
0010
,  // measure 48
2000
0000
0000
0000
0010
0000
3010
1000
0001
0000
0010
0000
0100
0000
0000
0100
,  // measure 49
1000
0000
0002
0000
0000
0023
0000
0000
2030
0000
0000
0000
3001
0000
0000
0100
,  // measure 50
0010
0000
0002
0000
0000
2003
0000
0000
3020
0000
0000
0000
1030
0000
0000
0000
,  // measure 51
0010
0000
1000
0000
0001
0000
1000
0000
0010
0000
1000
0000
0100
0000
0000
0010
,  // measure 52
0000
0001
1000
0010
1000
0001
0010
0000
,  // measure 53
0100
0000
0000
0000
0010
0000
0001
0000
0000
0010
0000
0000
0011
0000
0000
0000
,  // measure 54
1001
0000
1010
0000
1000
0200
0001
0000
,  // measure 55
0010
0000
0000
0000
1300
0000
0100
0000
0000
1100
0000
0000
0100
0000
0000
0010
,  // measure 56
0001
0000
0001
0000
1000
0000
0010
0000
0000
1010
0000
0000
1001
0000
0000
0100
,  // measure 57
0001
0000
1000
0000
0100
1000
0000
0000
0100
0000
0010
0000
0001
0100
0000
0000
,  // measure 58
0010
0000
0100
0000
0001
1000
0000
0010
0000
1000
0100
0000
0010
0000
0000
0010
,  // measure 59
0001
0000
1000
0000
0100
1000
0000
0000
0001
0000
0100
0000
0001
1000
0000
0000
,  // measure 60
0001
0000
0100
0000
0100
0001
0000
1000
0000
0001
0000
0200
0000
0000
0000
0000
,  // measure 61
0300
0000
0000
0000
;

//---------------dance-single - ----------------
#NOTEDATA:;
#CHARTNAME:X-Scale 5;
#STEPSTYPE:dance-single;
#DESCRIPTION:;
#CHARTSTYLE:;
#DIFFICULTY:Easy;
#METER:3;
#RADARVALUES:0.255886,0.318604,0.088753,0.185575,0.000000,222.000000,211.000000,11.000000,23.000000,0.000000,0.000000,0.000000,0.000000,0.000000,0.255886,0.318604,0.088753,0.185575,0.000000,222.000000,211.000000,11.000000,23.000000,0.000000,0.000000,0.000000,0.000000,0.000000;
#CREDIT:iamthek3n;
#NOTES:
0000
0000
0000
0000
,
0000
0000
0000
0000
,
0000
0000
0000
0000
,
0000
0000
0000
0000
,
0000
0000
0000
0001
,
0000
0100
0000
0001
,
0000
0100
0000
0001
,
0000
1000
0000
0010
,
0000
1000
0000
0010
,
0000
1000
0000
0100
,
0000
1000
0000
1000
0000
0000
0001
0000
,
0000
0010
0000
0010
0000
0000
0100
0000
,
0000
2000
0000
0000
0000
0000
3002
0000
,
0023
0230
2300
3020
,
0230
0000
0302
0000
1003
0200
0010
0000
,
0000
0010
0000
0010
0000
0300
1000
0000
,
0000
1000
0000
1000
0000
0000
2001
0000
,
3200
0320
0032
0203
,
0320
0000
2030
0000
3001
0020
0100
0000
,
0000
0001
0000
0001
0030
0000
0010
0000
,
0000
0100
0000
0100
0000
0000
1001
0000
,
1000
0010
0100
0001
,
0010
0100
0010
0001
,
1000
0000
0001
0010
0100
2000
0001
0000
,
0010
3001
1000
1001
,
0001
0100
0010
0110
,
0100
0001
0010
0011
,
0010
0100
1000
1200
,
0000
0310
0000
1001
,
1000
0010
1000
0001
,
0010
0001
1000
0010
,
1000
0001
0010
0100
,
0010
0002
0000
0013
,
0000
0100
0000
1000
,
0000
0000
0000
0000
0001
1000
0001
0000
,
0000
0010
0100
0010
,
0000
0001
0000
1001
,
0000
1000
0000
0010
,
0000
0000
0000
1000
0100
1000
0000
0001
,
0100
0001
0000
0010
0100
0010
0000
0001
,
0100
0002
0000
1000
0000
0000
0100
0000
,
0000
1000
0000
0000
0013
0000
1001
0000
,
1000
0000
0010
0000
1000
0001
0010
0000
,
0100
0000
0010
0000
0001
0000
1000
0010
,
1000
0100
0010
0001
,
1000
0010
1000
0001
,
0010
0000
0100
0000
1000
0001
0100
0000
,
0010
0000
0100
0000
0001
0000
0010
0100
,
1000
0001
1000
1010
,
1000
0001
0010
0000
0001
0000
1000
0000
,
0010
0100
0001
0000
1000
0000
0010
0000
,
0100
0001
1000
0000
0100
0000
1000
0000
,
0001
0010
0100
0000
0010
0000
0001
0000
,
1000
0001
0100
0000
0010
0000
0100
0000
,
0001
0010
0100
0000
1000
0000
0010
0000
,
1000
0001
0100
0000
0001
0000
1000
0000
,
0100
0010
0001
0000
1000
0000
1001
0000
,
0001
0010
0100
1000
,
0010
0100
0010
1000
,
0001
1000
0100
0010
,
0002
2000
0000
3003
;

//---------------dance-single - ----------------
#NOTEDATA:;
#CHARTNAME:X-Scale 1;
#STEPSTYPE:dance-single;
#DESCRIPTION:;
#CHARTSTYLE:;
#DIFFICULTY:Beginner;
#METER:1;
#RADARVALUES:0.093364,0.145838,0.016137,0.000000,0.000000,81.000000,79.000000,2.000000,0.000000,0.000000,0.000000,0.000000,0.000000,0.000000,0.093364,0.145838,0.016137,0.000000,0.000000,81.000000,79.000000,2.000000,0.000000,0.000000,0.000000,0.000000,0.000000,0.000000;
#CREDIT:iamthek3n;
#NOTES:
0000
0000
0000
0000
,
0000
0000
0000
0000
,
0000
0000
0000
0000
,
0000
0000
0000
0000
,
0000
0000
0000
1000
,
0000
0000
0000
0001
,
0000
0000
0000
1000
,
0000
0000
0000
0001
,
0000
0000
0000
0010
,
0000
0000
0000
0100
,
0000
0000
0000
0010
,
0000
0000
0000
0100
,
0000
0000
0000
1000
,
0000
0000
0000
0010
,
0000
0000
0000
1000
,
0000
0000
0000
0001
,
0000
0000
0000
0100
,
0000
0000
0000
0001
,
0000
0000
0000
0010
,
0000
0000
0000
0100
,
0000
0000
0000
1000
,
0000
0000
0000
0100
,
0000
0000
0000
0010
,
0000
0000
0000
0001
,
0000
0000
0000
1000
,
0000
0000
0000
0001
,
0000
0000
0000
0100
,
0000
0000
0000
0010
,
0000
0000
0000
1001
,
0000
1000
0000
0010
,
0000
1000
0000
0001
,
0000
1000
0000
0010
,
0000
1000
0000
0100
,
0000
0000
0000
1000
,
0000
0000
0000
0001
,
0000
0000
0000
0100
,
0000
0000
0000
0001
,
0000
0000
0000
0010
,
0000
0000
0000
0100
,
0000
0000
0000
1000
,
0000
0000
0000
0001
,
0000
0000
0000
1001
,
0000
1000
0000
0010
,
0000
1000
0000
0001
,
0000
0010
0000
0100
,
0000
1000
0000
0001
,
0000
1000
0000
0100
,
0000
0010
0000
0001
,
0000
0100
0000
0001
,
0000
1000
0000
0001
,
0000
0100
0000
0001
,
0000
0010
0000
0100
,
0000
1000
0000
0001
,
0000
1000
0000
0010
,
0000
1000
0000
0001
,
0000
0010
0000
0001
,
0000
1000
0000
0010
,
0000
1000
0000
0100
,
0000
0010
0000
0001
,
0000
0010
0000
0100
,
0000
1000
0000
0000
;
