#VERSION:0.83;
#TITLE:Monophobia feat. Rob Swire;
#SUBTITLE:;
#ARTIST:deadmau5;
#TITLETRANSLIT:;
#SUBTITLETRANSLIT:;
#ARTISTTRANSLIT:;
#GENRE:Progressive House;
#ORIGIN:;
#CREDIT:;
#BANNER:monophobia-bn.png;
#BACKGROUND:monophobia-bg.png;
#PREVIEWVID:;
#JACKET:monophobia-jacket.png;
#CDIMAGE:;
#DISCIMAGE:;
#LYRICSPATH:;
#CDTITLE:cdtitle.png;
#MUSIC:Monophobia feat. Rob Swire.ogg;
#OFFSET:-0.009000;
#SAMPLESTART:45.008999;
#SAMPLELENGTH:15.000000;
#SELECTABLE:YES;
#BPMS:0.000=128.000;
#STOPS:;
#DELAYS:;
#WARPS:;
#TIMESIGNATURES:0.000=4=4;
#TICKCOUNTS:0.000=4;
#COMBOS:0.000=1;
#SPEEDS:0.000=1.000=0.000=0;
#SCROLLS:0.000=1.000;
#FAKES:;
#LABELS:0.000=Song Start;
#BGCHANGES:;
#KEYSOUNDS:;
#ATTACKS:
;

//---------------dance-single - ----------------
#NOTEDATA:;
#CHARTNAME:X-Scale 10;
#STEPSTYPE:dance-single;
#DESCRIPTION:;
#CHARTSTYLE:;
#DIFFICULTY:Hard;
#METER:7;
#RADARVALUES:0.378524,0.477999,0.023518,0.297892,0.101910,338.000000,335.000000,3.000000,38.000000,0.000000,0.000000,0.000000,0.000000,0.000000,0.378524,0.477999,0.023518,0.297892,0.101910,338.000000,335.000000,3.000000,38.000000,0.000000,0.000000,0.000000,0.000000,0.000000;
#CREDIT:;
#NOTES:
// measure 0
0000
0000
0000
0000
,  // measure 1
0000
0000
0000
0000
,  // measure 2
0000
0000
0000
0000
,  // measure 3
0000
0000
0000
0000
0000
0000
1000
0010
,  // measure 4
1000
0100
0010
0002
0000
0000
0000
0000
,  // measure 5
0000
0000
0000
0000
0000
0000
1003
0010
,  // measure 6
0200
0000
0000
0000
0000
0000
0310
2000
,  // measure 7
0000
0000
0000
0000
0000
0000
3001
1000
,  // measure 8
1001
0000
0001
0000
0010
0000
1000
0010
,  // measure 9
0001
0100
0002
0000
0023
0000
0230
0000
,  // measure 10
2300
0000
0000
0020
0000
0000
0000
0000
,  // measure 11
3000
0000
0000
0030
1000
0010
0001
0010
,  // measure 12
2000
0000
0000
0002
0000
0000
0000
0000
,  // measure 13
3000
0000
0000
0003
1000
0010
0001
0010
,  // measure 14
1000
0200
0000
0000
0000
0000
0320
0000
,  // measure 15
0000
0000
0000
0000
0030
0000
0001
0010
,  // measure 16
0001
0000
0100
0000
0001
0000
0010
0100
,  // measure 17
1000
0001
1000
0100
0020
0000
0032
0000
,  // measure 18
2003
0000
0000
0002
0000
0000
0000
0000
,  // measure 19
3000
0000
0000
0003
1000
0010
0001
0010
,  // measure 20
2000
0000
0000
0020
0000
0000
0000
0000
,  // measure 21
3000
0000
0000
0030
1000
0010
0100
0002
,  // measure 22
0000
0000
0000
0203
0000
0301
0200
0000
,  // measure 23
0310
2000
0000
3000
0000
0000
0001
0010
,  // measure 24
0011
0010
0001
0200
0010
0000
1000
0000
,  // measure 25
0010
1000
0010
1000
,  // measure 26
0310
0100
0001
2000
0100
0000
0001
0000
,  // measure 27
0100
0000
0001
0000
0100
0000
3001
1000
,  // measure 28
0010
0100
0001
0200
1000
0000
0001
0000
,  // measure 29
1000
0000
0001
0000
1000
0000
0301
0100
,  // measure 30
0001
0010
0100
2000
0001
0000
0100
0000
,  // measure 31
0001
0000
0100
0000
0001
0000
3100
1000
,  // measure 32
0001
0100
0001
0020
0100
0000
1000
0000
,  // measure 33
0100
0001
0100
1000
,  // measure 34
0031
0010
0100
2000
0010
0000
0001
0000
,  // measure 35
0010
0000
0100
0000
0010
0000
3001
1000
,  // measure 36
0100
0010
0001
0200
1000
0000
0001
0000
,  // measure 37
1000
0000
0001
0000
1000
0000
0301
0100
,  // measure 38
0020
0000
0001
0000
0100
0000
1030
0002
,  // measure 39
0010
0000
0000
0000
0100
0000
0000
0000
0010
0000
0000
0000
0103
0000
0001
1000
,  // measure 40
0001
0000
0010
0000
0100
0000
1000
0000
0010
0000
0010
0000
0100
0010
0000
0000
,  // measure 41
1000
0000
1000
0000
0001
1000
0000
0000
0100
0000
0100
0000
0010
0000
0010
0100
,  // measure 42
0010
0001
1000
0001
0010
0000
0100
1000
,  // measure 43
0010
0000
0010
0000
1000
0010
0000
0000
1000
0000
1000
0000
0001
1000
0000
0000
,  // measure 44
0010
0100
0001
1000
0100
0000
0100
0010
,  // measure 45
0001
0000
0001
0000
0010
0001
0000
0000
1000
0000
1000
0000
0100
0000
1000
0000
,  // measure 46
0010
0001
0010
1000
0001
0000
0010
0100
,  // measure 47
1000
0000
1000
0000
0001
1000
0000
0000
0100
0000
0100
0000
0010
0100
0010
0000
,  // measure 48
0001
0000
0100
0000
0001
0000
0010
0000
0100
0000
0100
0000
0010
0100
0000
0000
,  // measure 49
1000
0000
1000
0000
0010
1000
0000
0000
0001
0000
0001
0000
0010
0001
0000
0000
,  // measure 50
1000
0100
0010
0001
0100
0000
0001
0010
,  // measure 51
0100
0000
0100
0000
1000
0100
0000
0000
1000
0000
1000
0000
0010
0000
1000
0000
,  // measure 52
0100
0000
0010
0000
0001
0000
0100
0000
0001
0000
0001
0000
0100
0001
0000
0000
,  // measure 53
0010
0000
0010
0000
0100
0010
0000
0000
0002
0000
0000
0000
2003
0000
0000
0000
,  // measure 54
3001
0000
0100
0002
1000
0003
2000
0000
,  // measure 55
0010
0000
0100
0000
0001
0000
0100
3000
,  // measure 56
1010
0000
1000
0000
0001
0000
1000
0000
0100
0000
0100
0000
0010
0100
0000
0000
,  // measure 57
1000
0000
1000
0000
0001
1000
0000
0000
0100
0000
0100
0000
0010
0100
0000
0000
,  // measure 58
0010
0000
0010
0000
0001
0010
0000
0000
0001
0000
0001
0000
1000
0001
0000
0000
,  // measure 59
0100
0000
0100
0000
0001
0100
0000
0000
0010
0000
0010
0000
1000
0010
0000
0000
,  // measure 60
1000
0000
1000
0000
0100
1000
0000
0000
0001
0000
0001
0000
1000
0001
0000
0000
,  // measure 61
0010
0000
0010
0000
0001
0010
0000
0000
0100
0000
0100
0000
1000
0100
0000
0000
,  // measure 62
0020
0000
0001
0000
1000
0000
0031
2000
,  // measure 63
0100
0000
0001
0000
0100
0000
3001
0010
,  // measure 64
1000
0010
0001
0200
0000
0000
0000
0000
,  // measure 65
0000
0000
0000
0000
,  // measure 66
0000
0000
0000
0000
,  // measure 67
0000
0000
0000
0300
;

//---------------dance-single - ----------------
#NOTEDATA:;
#CHARTNAME:X-Scale 7;
#STEPSTYPE:dance-single;
#DESCRIPTION:;
#CHARTSTYLE:;
#DIFFICULTY:Medium;
#METER:5;
#RADARVALUES:0.305731,0.371777,0.007839,0.203821,0.000000,273.000000,272.000000,1.000000,26.000000,0.000000,0.000000,0.000000,0.000000,0.000000,0.305731,0.371777,0.007839,0.203821,0.000000,273.000000,272.000000,1.000000,26.000000,0.000000,0.000000,0.000000,0.000000,0.000000;
#CREDIT:;
#NOTES:
0000
0000
0000
0000
,
0000
0000
0000
0000
,
0000
0000
0000
0000
,
0000
0000
0000
0000
,
1000
0010
1000
0020
0000
0000
0000
0000
,
0000
0000
0000
0000
0000
0000
0031
0010
,
0200
0000
0000
0000
0000
0000
0301
0200
,
0000
0000
0000
0301
,
1000
0000
0001
0000
1000
0000
0100
0010
,
0001
1000
0001
0000
0100
0000
0010
0000
,
1000
0010
0100
0002
0000
0000
0000
0000
,
0000
0000
0000
0003
1000
0100
0010
0002
,
0000
0000
0000
2000
0000
0000
0000
0000
,
0003
0000
0000
3000
1000
0100
0010
0002
,
0000
0000
0000
2000
0000
0000
0000
0000
,
0000
0000
0000
3000
0000
0000
0003
1000
,
0001
0000
0010
0000
0001
0000
1000
0010
,
0100
0001
1000
0100
0010
0000
0001
0000
,
0200
0000
0000
0002
0000
0000
0000
0000
,
0300
0000
0000
0003
1000
0100
0010
0002
,
0000
0000
0000
2000
0000
0000
0000
0003
,
0000
0000
0000
3000
0001
1000
0001
0010
,
0100
0000
0000
0000
0000
0000
1000
0010
,
0000
0000
0000
0000
0000
0000
1000
0010
,
1010
0000
1000
0002
0010
0000
1000
0000
,
0010
1000
0010
1003
,
0001
0100
0010
0200
1000
0000
0010
0000
,
1000
0000
0010
0000
1000
0000
0310
0100
,
0010
1000
0001
2000
0100
0000
0001
0000
,
0100
0000
0001
0000
0100
0000
3001
1000
,
0001
0100
0010
0200
1000
0000
0010
0000
,
1000
0000
0010
0000
1000
0000
0310
0100
,
0001
0000
1000
0002
0100
0000
1000
0000
,
0100
1000
0100
1003
,
0001
0000
0100
0020
0001
0000
1000
0000
,
0001
0000
1000
0000
0001
0000
1030
0010
,
1000
0000
0100
0020
0001
0000
0100
0000
,
0001
0000
0100
0000
0001
0000
0130
0010
,
0001
1000
0001
0000
1000
0010
1000
0000
,
0001
0010
0001
0000
1000
0010
1000
0000
,
1000
0100
0010
0001
1000
0000
0001
0000
,
1000
0001
1000
0001
,
1000
0010
0100
0001
0100
0000
0010
1000
,
0001
1000
0001
1000
,
0001
0100
0010
1000
0001
0000
1000
0000
,
0001
1000
0001
1000
,
0001
0010
0100
1000
0001
0000
1000
0010
,
1000
0001
1000
0001
,
1000
0100
0010
0001
1000
0000
0001
0000
,
1000
0001
1000
0001
,
1000
0010
0100
0001
1000
0000
0001
0100
,
0001
1000
0001
1000
,
0001
0100
0010
1000
0001
0000
1000
0000
,
0001
0000
1000
0100
0020
0000
1000
0000
,
0032
0000
1003
0002
0000
0003
0020
0000
,
1000
0001
1000
0001
,
0031
0010
0100
1000
0001
0000
1000
0000
,
0010
0100
0010
0000
1000
0000
0001
0000
,
1000
0100
1000
0000
0001
0000
0100
0000
,
0001
0010
0001
0000
1000
0000
0100
0000
,
1000
0001
1000
0000
0010
0000
0100
0000
,
0001
0100
0001
0000
1000
0000
0010
0000
,
2000
0000
0100
0000
0010
0000
3001
2000
,
0010
0000
0100
0000
0010
0000
3001
1000
,
0001
0100
0010
2000
0000
0000
0000
0000
,
0000
0000
0000
0000
,
0000
0000
0000
0000
,
0000
0000
0000
3000
;

//---------------dance-single - ----------------
#NOTEDATA:;
#CHARTNAME:X-Scale 2;
#STEPSTYPE:dance-single;
#DESCRIPTION:;
#CHARTSTYLE:;
#DIFFICULTY:Easy;
#METER:2;
#RADARVALUES:0.162385,0.201861,0.007839,0.227339,0.000000,145.000000,144.000000,1.000000,29.000000,0.000000,0.000000,0.000000,0.000000,0.000000,0.162385,0.201861,0.007839,0.227339,0.000000,145.000000,144.000000,1.000000,29.000000,0.000000,0.000000,0.000000,0.000000,0.000000;
#CREDIT:;
#NOTES:
0000
0000
0000
0000
,
0000
0000
0000
0000
,
0000
0000
0000
0000
,
0000
0000
0000
0000
,
2000
0000
3000
0020
0000
0000
0000
0000
,
0000
0000
0000
0000
0000
0000
0000
0030
,
0200
0000
0000
0000
0000
0000
0300
0002
,
0000
0000
0000
0000
0000
0000
0000
0003
,
1000
0010
1000
0000
,
0001
0010
0001
1000
,
0200
0000
0000
0000
,
0300
0000
0000
0000
0010
0000
0000
0002
,
0000
0000
0000
0000
,
0003
0000
0000
0000
1000
0000
0000
0200
,
0000
0000
0000
0010
0000
0000
2000
0000
,
0000
0000
3300
0000
,
0001
0010
0001
0000
,
1000
0010
1000
0100
,
0020
0000
0000
0000
,
0030
0000
0000
0000
0001
0000
0000
0200
,
0000
0000
0000
0000
0000
0000
0000
0300
,
0000
0000
0000
0000
0001
0000
0000
2000
,
0000
0000
3000
0200
0300
1000
0200
0300
,
0010
0002
0003
0000
0000
0000
0000
0000
,
0011
0000
1000
0010
,
1000
0000
0001
0010
,
0001
0000
0010
0100
,
1000
0000
0001
0100
,
0010
0000
1000
0001
,
0010
0000
0100
1000
,
0001
0000
1000
0010
,
1000
0000
0001
0010
,
0001
0000
1000
0100
,
0010
0000
0001
1000
,
0010
0000
0100
0010
,
1000
0000
0001
0010
,
0100
0000
0010
0100
,
1000
0000
0001
0100
,
0010
0000
1000
0010
,
0100
0000
0001
0010
,
0001
0000
0000
2000
0000
0000
0001
0000
,
0000
0001
3000
1000
,
0010
0000
0000
0200
0000
0300
0002
0000
,
0000
1003
0001
0000
,
1000
0000
0000
0200
0000
0300
2000
0000
,
0000
3000
1000
0000
0001
0000
0000
0000
,
1000
0000
0000
0020
0000
0030
1000
0020
,
0000
1000
0030
1000
,
0001
0000
0000
0020
0000
0000
0100
0000
,
0000
0130
0000
0010
,
0001
0000
0000
2000
0000
3000
0020
0000
,
0000
0100
0030
1000
,
0001
0000
0000
0020
0000
0000
0100
0000
,
0030
0100
2000
0001
,
3002
0003
0100
0002
0000
0003
2000
0000
,
0000
0010
0000
0010
,
3010
0000
1000
0000
,
0001
0000
1000
0000
,
0100
0000
0010
0000
,
0100
0000
1000
0000
,
0001
0000
0100
0000
,
0001
0000
1000
0000
,
0010
0000
0100
0000
,
0001
0000
0010
0000
,
0100
0000
0000
0100
0000
0000
0000
0000
;

//---------------dance-single - ----------------
#NOTEDATA:;
#CHARTNAME:X-Scale 1;
#STEPSTYPE:dance-single;
#DESCRIPTION:;
#CHARTSTYLE:;
#DIFFICULTY:Beginner;
#METER:1;
#RADARVALUES:0.072793,0.124938,0.000000,0.000000,0.000000,65.000000,65.000000,0.000000,0.000000,0.000000,0.000000,0.000000,0.000000,0.000000,0.072793,0.124938,0.000000,0.000000,0.000000,65.000000,65.000000,0.000000,0.000000,0.000000,0.000000,0.000000,0.000000,0.000000;
#CREDIT:;
#NOTES:
0000
0000
0000
0000
,
0000
0000
0000
0000
,
0000
0000
0000
0000
,
0000
0000
0000
0000
,
0000
0000
0000
0000
,
0000
0000
0000
0000
,
0000
0000
0000
0000
,
0000
0000
0000
0000
,
0001
0000
0000
0000
,
0000
0000
0000
0000
,
0010
0000
0000
0000
,
0000
0000
0000
0000
,
0100
0000
0000
0000
,
0000
0000
0000
0000
,
1000
0000
0000
0000
,
0000
0000
0000
0000
,
0001
0000
0000
0000
,
0000
0000
0000
0000
,
0100
0000
0000
0000
,
0000
0000
0000
0000
,
0010
0000
0000
0000
,
0000
0000
0000
0000
,
1000
0000
0000
0000
,
0000
0000
0000
0000
,
0001
0000
0000
0000
,
1000
0000
0000
0000
,
0010
0000
0000
0000
,
1000
0000
0000
0000
,
0001
0000
0000
0000
,
0010
0000
0000
0000
,
0100
0000
0000
0000
,
0010
0000
0000
0000
,
0001
0000
0000
0000
,
1000
0000
0000
0000
,
0010
0000
0000
0000
,
1000
0000
0000
0000
,
0001
0000
0000
0000
,
1000
0000
0000
0000
,
0010
0000
0000
0000
,
1000
0000
0000
0000
,
0001
0000
0010
0000
,
0100
0000
1000
0000
,
0001
0000
0100
0000
,
0010
0000
1000
0000
,
0001
0000
0100
0000
,
0001
0000
1000
0000
,
0100
0000
0010
0000
,
0100
0000
1000
0000
,
0001
0000
0010
0000
,
0001
0000
1000
0000
,
0010
0000
1000
0000
,
0100
0000
0010
0000
,
0001
0000
1000
0000
,
0010
0000
1000
0000
,
0001
0000
0100
0000
,
0010
0000
1000
0000
,
0001
0000
0000
0000
,
0010
0000
0000
0000
,
0100
0000
0000
0000
,
1000
0000
0000
0000
,
0001
0000
0000
0000
,
0100
0000
0000
0000
,
0010
0000
0000
0000
,
1000
0000
0000
0001
;
