#TITLE:Monday A.M.;
#SUBTITLE:(Airbase Mix);
#ARTIST:Loken;
#TITLETRANSLIT:;
#SUBTITLETRANSLIT:;
#ARTISTTRANSLIT:;
#GENRE:Trance;
#CREDIT:;
#BANNER:MondayAM_Airbase-bn.png;
#BACKGROUND:MondayAM_Airbase-bg.png;
#LYRICSPATH:;
#CDTITLE:cdtitle.png;
#MUSIC:Monday A.M. (Airbase Mix).ogg;
#OFFSET:-0.002000;
#SAMPLESTART:49.779999;
#SAMPLELENGTH:14.212000;
#SELECTABLE:YES;
#BPMS:0.000000=135.000000
;
#STOPS:
;
#BGCHANGES:;
#KEYSOUNDS:;
#ATTACKS:;

//---------------dance-single - ----------------
#NOTES:
     dance-single:
     X-Scale 12:
     Hard:
     9:
     0.525115,0.670068,0.095724,0.028717,0.516910,384.000000,374.000000,10.000000,3.000000,0.000000,0.000000,0.525115,0.670068,0.095724,0.028717,0.516910,384.000000,374.000000,10.000000,3.000000,0.000000,0.000000:
// measure 0
0000
0000
0000
0000
,  // measure 1
0000
0000
0000
0000
,  // measure 2
0000
0000
0000
0000
,  // measure 3
0000
0000
0000
0000
,  // measure 4
0001
0010
1000
0010
,  // measure 5
0100
1000
0001
0010
,  // measure 6
0001
2000
0100
3000
1000
0020
0100
0030
,  // measure 7
0010
0200
0001
1000
,  // measure 8
0301
0100
0001
0000
0001
0010
0100
0000
,  // measure 9
1000
0100
0010
0000
0001
0100
0010
0000
,  // measure 10
1000
0000
0010
0000
1000
0000
0000
0000
0010
0000
0000
0100
0000
0010
0000
0000
,  // measure 11
1000
0001
1000
0000
0010
0100
1000
0000
,  // measure 12
1000
0000
0100
0000
0001
0000
0000
0000
1000
0000
0000
0100
0000
1000
0000
0000
,  // measure 13
0001
0010
0100
0000
1000
0010
0100
0000
,  // measure 14
0001
0000
0100
0000
0001
0000
0000
0000
1000
0000
0000
0001
0000
0100
0000
0001
,  // measure 15
0100
0000
0001
0000
1000
0000
0000
0000
0100
0000
0000
0010
0000
0000
0001
0000
,  // measure 16
0011
0001
1000
0001
0010
0000
0100
1000
,  // measure 17
0100
0000
0010
0000
0001
0000
0000
0000
1000
0000
0000
0001
0000
0000
0100
0001
,  // measure 18
0100
0010
1000
0001
0100
0000
0001
0100
,  // measure 19
0001
0000
0010
0000
0100
0000
0000
0000
1000
0000
0000
0001
0000
0000
1000
0100
,  // measure 20
1000
0000
0001
0000
1001
0000
0000
0000
1000
0000
0000
0100
0000
0010
0000
0000
,  // measure 21
0001
0000
0100
0000
0101
0000
0000
0000
0001
0000
0000
1000
0000
0000
0001
0100
,  // measure 22
0001
0000
1000
0000
1001
0000
0000
0000
0100
0000
0000
1000
0000
0001
0000
0000
,  // measure 23
0010
0000
0001
0000
0011
0000
0000
0000
1000
0000
0000
0001
0000
0000
1000
0100
,  // measure 24
1000
0100
1000
0100
0001
0100
0001
0100
,  // measure 25
0010
0001
0010
0001
1000
0010
1000
0010
,  // measure 26
0100
0010
0100
0010
0100
0010
0100
0010
1000
0001
1000
0001
1000
0001
1000
0001
,  // measure 27
1000
1000
0001
0001
,  // measure 28
1001
0000
1000
0000
0001
0000
1000
0000
0100
0000
0000
0010
0000
0001
0000
0010
,  // measure 29
0001
0000
0010
0000
1000
0000
0010
0000
0001
0000
0000
1000
0000
0000
0010
0100
,  // measure 30
0010
0000
1000
0000
0001
0000
0010
0000
0100
0000
0000
1000
0000
0010
0000
1000
,  // measure 31
0100
0000
1000
0000
0001
0000
1000
0000
0010
0000
0000
0100
0000
0000
0001
0010
,  // measure 32
0001
0000
0010
0000
0001
1000
0000
1000
0010
0000
0000
0100
0000
0010
0000
0100
,  // measure 33
0010
0000
1000
0000
0001
0000
0010
0000
0100
0000
0000
1000
0000
0000
0001
0100
,  // measure 34
0001
0000
0100
0000
0001
0000
0010
0000
0100
0000
0000
1000
0000
0100
0000
1000
,  // measure 35
0001
1000
0100
0010
0001
0000
1000
1000
,  // measure 36
1100
0000
0001
0000
1000
0001
0000
1000
0001
0000
0000
0100
0000
0001
0000
1000
,  // measure 37
0001
0000
0010
0000
0100
1000
0000
0100
1000
0000
0000
0001
0000
0000
0100
0010
,  // measure 38
0100
0000
0001
0000
1000
0010
0000
1000
0010
0000
0000
1000
0000
0001
0000
1000
,  // measure 39
0100
0000
0010
0000
0001
1000
0000
0001
0100
0000
0000
0010
0000
0000
1000
0010
,  // measure 40
1000
0000
0001
0000
1000
0100
0000
0100
0010
0000
0000
0001
0000
1000
0000
0001
,  // measure 41
1000
0000
0010
0000
1000
0001
0000
1000
0100
0000
0000
1000
0000
0000
0001
1000
,  // measure 42
0001
0000
0010
0000
0100
1000
0000
0001
1000
0000
0000
0010
0000
0100
0000
0010
,  // measure 43
0100
0000
0001
0000
1000
0010
0000
1000
0001
0000
0000
0100
0000
0000
0001
0000
,  // measure 44
0101
0000
0100
0000
0000
0001
0000
0000
1000
0000
0000
0010
0000
0100
0000
0000
,  // measure 45
0001
0000
0010
0000
0000
0001
0000
0000
1000
0000
0000
0010
0000
0000
0100
0010
,  // measure 46
0100
0000
0010
0000
0000
1000
0000
0000
0001
0000
0000
0010
0000
0001
0000
0000
,  // measure 47
1000
0000
0010
0000
0000
0100
0000
0000
0001
0000
0000
0010
0000
0000
0001
0010
,  // measure 48
0001
0000
1000
0000
0000
0001
0000
0000
1000
0000
0000
0100
0000
1000
0000
0000
,  // measure 49
0010
0000
1000
0000
0000
0001
0000
0000
1000
0000
0000
0100
0000
0000
0010
0100
,  // measure 50
0010
0000
0001
0000
0000
0100
0000
0000
0001
0000
0000
0010
0000
0001
0000
0000
,  // measure 51
0010
0001
0010
0001
1000
0010
1000
0010
,  // measure 52
1010
0000
0000
0000
1000
0000
0001
0000
1000
0000
0000
0100
0010
0000
0100
0000
,  // measure 53
1000
0000
0000
0000
0001
0000
0100
0000
0001
0000
0000
0100
0010
0000
0100
0000
,  // measure 54
0001
0000
0000
0000
1000
0000
0100
0000
1000
0000
0000
0001
0010
0000
0001
0000
,  // measure 55
1000
0000
0000
0000
0010
0000
1000
0000
0001
0000
0000
1000
0100
0000
0100
0000
,  // measure 56
1100
0000
0000
0000
;

//---------------dance-single - ----------------
#NOTES:
     dance-single:
     X-Scale 10:
     Medium:
     7:
     0.441698,0.509252,0.143586,0.086152,0.263241,323.000000,308.000000,15.000000,9.000000,0.000000,0.000000,0.441698,0.509252,0.143586,0.086152,0.263241,323.000000,308.000000,15.000000,9.000000,0.000000,0.000000:
// measure 0
0000
0000
0000
0000
,  // measure 1
0000
0000
0000
0000
,  // measure 2
0000
0000
0000
0000
,  // measure 3
0000
0000
0000
0000
,  // measure 4
2000
0001
0100
3001
,  // measure 5
0002
0010
1000
0013
,  // measure 6
0020
0001
1000
0130
,  // measure 7
0200
0001
0010
1300
,  // measure 8
1100
0000
0001
1000
0100
0000
0010
0000
,  // measure 9
0001
0000
1000
0010
0100
0000
0001
0000
,  // measure 10
1000
0000
0100
0000
0000
1000
0000
0000
0001
0000
0000
0100
0000
0001
0000
0000
,  // measure 11
1000
0000
0010
0100
0010
0000
1000
0000
,  // measure 12
0100
0000
0010
0000
0000
0001
0000
0000
1000
0000
0000
0001
0000
1000
0000
0000
,  // measure 13
0010
0000
0100
0001
0100
0000
0010
0000
,  // measure 14
1000
0000
0010
0000
0000
1000
0000
0000
0001
0000
0000
0010
0000
0001
0000
0000
,  // measure 15
0010
0000
0100
0000
1000
0000
0000
0000
0001
0000
0000
1000
0000
0000
0001
0000
,  // measure 16
1001
0000
1000
0000
0100
0000
0010
0000
0001
0000
0000
0010
0000
0001
0000
0000
,  // measure 17
0100
0000
0010
0000
1000
0000
0001
0000
0100
0000
0000
0001
0000
0000
1000
0000
,  // measure 18
0001
0000
1000
0000
0100
0000
0000
0000
0010
0000
0000
0001
0000
1000
0000
0000
,  // measure 19
0010
0000
0100
0000
0001
0000
0100
0000
0010
0000
0000
1000
0000
0000
0001
0000
,  // measure 20
1000
0100
1100
0000
0001
1000
1001
0000
,  // measure 21
0100
0001
0101
0000
1000
0100
1100
0000
,  // measure 22
0001
0100
0101
0000
0010
0100
0110
0000
,  // measure 23
0001
0000
1000
0000
1001
0000
0000
0000
0100
0000
0000
0001
0000
0000
1000
0000
,  // measure 24
0001
0000
1000
0000
0100
1000
0000
0000
0001
0000
0000
0100
0000
0010
0000
0100
,  // measure 25
0010
0000
1000
0000
0100
1000
0000
0000
0001
0000
0000
0010
0000
0000
0100
1000
,  // measure 26
0100
0000
1000
0000
0010
1000
0000
1000
0001
0000
0010
0000
0001
0100
0000
0100
,  // measure 27
0010
0100
0010
0100
,  // measure 28
0110
0100
0001
0000
1000
0100
0001
0000
,  // measure 29
0100
0000
0010
0000
0001
0000
0000
0000
1000
0000
0000
0001
0000
0000
1000
0000
,  // measure 30
0100
0010
0001
0000
1000
0010
0100
0000
,  // measure 31
0001
0000
0010
0000
0100
0000
0000
0000
1000
0000
0000
0001
0000
0000
1000
0000
,  // measure 32
0001
1000
0100
0000
0010
0001
1000
0000
,  // measure 33
0010
0000
0100
0000
0001
0000
0000
0000
1000
0000
0000
0001
0000
0000
1000
0000
,  // measure 34
0010
0100
1000
0000
1000
0100
0001
0000
,  // measure 35
0010
0100
1000
0000
0100
0000
1000
0100
,  // measure 36
1100
0000
0100
0000
0010
0100
0000
0000
1000
0000
0000
0001
0000
1000
0000
0001
,  // measure 37
1000
0000
0010
0000
0100
0010
0000
0000
1000
0000
0000
0001
0000
0000
2000
0000
,  // measure 38
3100
0000
1000
0000
0001
1000
0000
0000
0100
0000
0000
0010
0000
0001
0000
0010
,  // measure 39
0001
0000
1000
0000
0001
0010
0000
0000
0100
0000
0000
1000
0000
0000
0002
0000
,  // measure 40
0103
0000
0001
0000
1000
0100
0000
1000
0100
0000
0000
0010
0000
0001
0000
0010
,  // measure 41
0001
0000
1000
0000
0010
1000
0000
0000
0001
0000
0000
0100
0000
0000
0020
0000
,  // measure 42
0130
0000
0010
0000
0000
1000
0000
0000
0001
0000
0000
0100
0000
0001
0000
0000
,  // measure 43
1000
0000
0010
0000
0000
1000
0000
0000
0001
0000
0000
0010
0000
0000
0001
0000
,  // measure 44
0011
0001
1000
0001
,  // measure 45
1000
0100
0010
0100
,  // measure 46
0010
0001
0100
0001
,  // measure 47
0100
0010
1000
0010
,  // measure 48
1010
1000
0001
1000
,  // measure 49
0100
0010
0001
0100
,  // measure 50
0010
2000
3001
1000
,  // measure 51
1100
1000
0100
0010
0100
0010
0001
0010
,  // measure 52
0011
0000
0100
0001
0100
0000
0010
1000
,  // measure 53
0010
0000
1000
0100
1000
0000
0001
0100
,  // measure 54
0001
0000
0100
0010
0100
0000
0001
0010
,  // measure 55
0001
0000
1000
0010
2000
0000
0001
0001
,  // measure 56
3001
0000
0000
0000
;

//---------------dance-single - ----------------
#NOTES:
     dance-single:
     X-Scale 6:
     Easy:
     4:
     0.310419,0.321633,0.047862,0.067007,0.000000,227.000000,222.000000,5.000000,7.000000,0.000000,0.000000,0.310419,0.321633,0.047862,0.067007,0.000000,227.000000,222.000000,5.000000,7.000000,0.000000,0.000000:
// measure 0
0000
0000
0000
0000
,  // measure 1
0000
0000
0000
0000
,  // measure 2
0000
0000
0000
0000
,  // measure 3
0000
0000
0000
0000
,  // measure 4
0002
0000
0100
0000
,  // measure 5
0203
0000
0010
0000
,  // measure 6
0320
0000
1000
0000
,  // measure 7
2030
0000
0001
0000
,  // measure 8
3001
1000
0001
1000
,  // measure 9
0100
0010
0100
0010
,  // measure 10
0001
0100
0010
1000
,  // measure 11
0001
0100
0010
1000
,  // measure 12
0100
1000
0001
0010
,  // measure 13
0100
1000
0001
0010
,  // measure 14
0100
0010
0001
1000
,  // measure 15
0001
0100
0020
0000
,  // measure 16
0130
0010
1000
0000
0001
0000
0010
0000
,  // measure 17
0001
1000
0100
0000
1000
0000
0001
0000
,  // measure 18
0100
0010
1000
0000
0001
0000
1000
0000
,  // measure 19
0001
1000
0100
0000
0010
0000
0001
0000
,  // measure 20
1000
0010
1000
0000
0100
0000
1000
0000
,  // measure 21
0001
0010
0001
0000
0100
0000
0010
0000
,  // measure 22
1000
0010
1000
0000
0100
0000
0010
0000
,  // measure 23
0001
0010
0001
0000
0100
0000
0010
0000
,  // measure 24
1010
1000
0001
1000
,  // measure 25
0001
0010
0100
0010
,  // measure 26
0200
0000
0000
0000
,  // measure 27
1300
0000
0100
0000
,  // measure 28
1100
0100
1000
0000
0001
0000
1000
0000
,  // measure 29
0100
0010
0001
0000
0100
0000
0001
0000
,  // measure 30
1000
0001
0100
0000
0010
0000
1000
0000
,  // measure 31
0001
0010
0001
0000
1000
0000
0010
0000
,  // measure 32
1000
0100
0010
0000
0100
0000
1000
0000
,  // measure 33
0001
0100
0010
0000
1000
0000
0001
0000
,  // measure 34
0100
0010
1000
0000
0100
0000
0010
0000
,  // measure 35
0001
1000
0100
0000
1000
0000
0001
1000
,  // measure 36
0100
1000
0001
0000
0100
0000
0010
0000
,  // measure 37
1000
0010
1000
0000
0001
0000
0100
0001
,  // measure 38
1000
0001
0100
0000
0010
0000
1000
0000
,  // measure 39
0100
0010
0001
0000
1000
0000
0010
0100
,  // measure 40
0001
0100
0010
0000
1000
0000
0010
0000
,  // measure 41
1000
0100
0010
0000
0001
0000
0100
0010
,  // measure 42
1000
0001
0000
1000
0000
0001
0000
0100
,  // measure 43
0000
0010
0000
1000
0000
0100
0000
1000
,  // measure 44
1100
0100
1000
0001
,  // measure 45
1000
0100
0010
0001
,  // measure 46
1000
0001
0100
0010
,  // measure 47
0100
0001
0010
0100
,  // measure 48
1100
1000
0001
1000
,  // measure 49
0100
0010
0001
1000
,  // measure 50
0001
0100
0010
1000
,  // measure 51
0100
0100
0010
0010
,  // measure 52
0011
0001
0100
0001
,  // measure 53
0010
0100
1000
0001
,  // measure 54
1000
0010
1000
0001
,  // measure 55
0100
0010
2000
0100
,  // measure 56
3100
0000
0000
0000
;

//---------------dance-single - ----------------
#NOTES:
     dance-single:
     X-Scale 2:
     Beginner:
     2:
     0.121706,0.134014,0.000000,0.000000,0.000000,89.000000,89.000000,0.000000,0.000000,0.000000,0.000000,0.121706,0.134014,0.000000,0.000000,0.000000,89.000000,89.000000,0.000000,0.000000,0.000000,0.000000:
// measure 0
0000
0000
0000
0000
,  // measure 1
0000
0000
0000
0000
,  // measure 2
0000
0000
0000
0000
,  // measure 3
0000
0000
0000
0000
,  // measure 4
1000
0000
0000
0000
,  // measure 5
0100
0000
0000
0000
,  // measure 6
0010
0000
0000
0000
,  // measure 7
0001
0000
0000
0000
,  // measure 8
1000
0000
0000
0000
,  // measure 9
0100
0000
0000
0000
,  // measure 10
0010
0000
0001
0000
,  // measure 11
0010
0000
0000
0000
,  // measure 12
0001
0000
1000
0000
,  // measure 13
0001
0000
0000
0000
,  // measure 14
0100
0000
0010
0000
,  // measure 15
0100
0000
0010
0000
,  // measure 16
1000
0000
0100
0000
,  // measure 17
1000
0000
0001
0000
,  // measure 18
0100
0000
0001
0000
,  // measure 19
0010
0000
0100
0000
,  // measure 20
0010
0000
0001
0000
,  // measure 21
1000
0000
0001
0000
,  // measure 22
1000
0000
0100
0000
,  // measure 23
0010
0000
0001
0000
,  // measure 24
1000
0000
0000
0000
,  // measure 25
0001
0000
0000
0000
,  // measure 26
1000
0000
0100
0000
,  // measure 27
1000
0000
0000
0000
,  // measure 28
0001
0000
0100
0000
,  // measure 29
0001
0000
0010
0000
,  // measure 30
0100
0000
1000
0000
,  // measure 31
0001
0000
1000
0000
,  // measure 32
0010
0000
0100
0000
,  // measure 33
0010
0000
1000
0000
,  // measure 34
0001
0000
1000
0000
,  // measure 35
0100
0000
0010
0000
,  // measure 36
0001
0000
1000
0000
,  // measure 37
0001
0000
0010
0000
,  // measure 38
0001
0000
0100
0000
,  // measure 39
0010
0000
0100
0000
,  // measure 40
0001
0000
1000
0000
,  // measure 41
0010
0000
1000
0000
,  // measure 42
0001
0000
0010
0000
,  // measure 43
0100
0000
1000
0000
,  // measure 44
0001
0000
0000
0000
,  // measure 45
0010
0000
0000
0000
,  // measure 46
0100
0000
0000
0000
,  // measure 47
1000
0000
0000
0000
,  // measure 48
0001
0000
0100
0000
,  // measure 49
0001
0000
1000
0000
,  // measure 50
0100
0000
1000
0000
,  // measure 51
0001
0000
0000
0000
,  // measure 52
1000
0000
0100
0000
,  // measure 53
0010
0000
0001
0000
,  // measure 54
1000
0000
0010
0000
,  // measure 55
0100
0000
0001
0000
,  // measure 56
1000
0000
0000
0000
;

//---------------dance-single - ----------------
#NOTES:
     dance-single:
     X-Scale 15:
     Challenge:
     10:
     0.678273,0.804082,0.086152,0.000000,0.741861,496.000000,487.000000,9.000000,0.000000,0.000000,0.000000,0.678273,0.804082,0.086152,0.000000,0.741861,496.000000,487.000000,9.000000,0.000000,0.000000,0.000000:
// measure 0
0000
0000
0000
0000
,  // measure 1
0000
0000
0000
0000
,  // measure 2
0000
0000
0000
0000
,  // measure 3
0000
0000
0000
0000
,  // measure 4
0001
0000
0010
0001
0010
0000
0100
0000
1000
0000
0010
0100
0010
0000
1000
0000
,  // measure 5
0001
0000
0010
0001
0010
0000
0100
0000
1000
0000
0010
0100
0010
0000
1000
0000
,  // measure 6
0001
0000
0100
0001
0100
0000
0010
0000
1000
0000
0100
0010
0100
0000
1000
0000
,  // measure 7
0001
0000
0100
0001
0100
0000
0010
0000
1000
0000
0100
0010
0100
0000
1000
0000
,  // measure 8
1100
0100
1000
0001
1000
0100
0010
0001
,  // measure 9
0100
0001
0010
0100
1000
0001
1000
0010
,  // measure 10
0100
0000
0010
0000
0100
0010
0000
1000
0001
0000
1000
0100
0000
1000
0000
0100
,  // measure 11
1000
0001
0100
0001
1000
0010
0100
0010
,  // measure 12
1000
0000
0100
0000
0010
0001
0000
1000
0001
0000
0100
0010
0000
0100
0000
0010
,  // measure 13
0100
0001
1000
0010
0100
0001
0010
0001
,  // measure 14
1000
0000
0010
0000
0100
0010
0000
0100
0001
0000
1000
0100
0000
1000
0000
0100
,  // measure 15
1000
0000
0001
0000
0100
0001
0000
1000
0001
0000
0000
0100
0000
0000
0010
0100
,  // measure 16
0010
0000
0100
0000
0001
0000
0100
0000
0010
0000
1000
0001
0000
0100
0000
0001
,  // measure 17
1000
0000
0100
0000
0010
0001
0000
0001
1000
0000
0001
1000
0000
0000
0001
0100
,  // measure 18
0001
0000
0100
0000
0010
0000
1000
0000
0001
0000
0100
0010
0000
0100
0000
0010
,  // measure 19
0100
0000
0001
0000
1000
0000
0001
0000
0010
0000
0100
1000
0000
0000
0100
1000
,  // measure 20
0100
1000
1001
0001
0100
0010
0110
0100
,  // measure 21
0001
0000
1000
0000
1100
0000
0000
1000
0010
0000
0010
1000
0000
0000
0001
1000
,  // measure 22
0001
0000
0010
0000
0100
1000
0000
1000
0001
0000
0000
0010
0000
0001
0000
1000
,  // measure 23
0001
0000
0010
0000
0100
1000
0000
1000
0001
0000
0000
0100
0000
0000
0100
0010
,  // measure 24
0100
0100
0010
0010
1000
1000
0001
0001
,  // measure 25
0010
0000
0010
0000
0100
0000
0100
0000
1000
0000
1000
0000
0001
0000
0001
1000
,  // measure 26
0001
1000
0001
1000
0001
0010
0100
0010
0100
1000
0010
1000
0010
0100
0001
0100
,  // measure 27
0001
0010
0100
0010
0100
1000
0001
1000
0001
0000
0000
0010
0000
0000
0001
0010
,  // measure 28
0011
0000
0010
0000
0001
1000
0000
1000
0001
0000
0000
0010
0000
0001
0000
0100
,  // measure 29
0001
0000
0001
0000
1000
0001
0000
0001
0100
0000
0010
0100
0000
0000
0010
0100
,  // measure 30
0010
0000
1000
0000
0001
0010
0000
0010
0100
0000
0000
1000
0000
0010
0000
1000
,  // measure 31
0001
0000
0010
0000
0100
1000
0000
0001
1000
0000
0010
0100
0000
0000
0001
0100
,  // measure 32
0010
0000
1000
0000
0100
0010
0000
0010
0001
0000
1000
0001
0000
1000
0000
0100
,  // measure 33
1000
0000
0010
0000
0100
0010
0000
0010
0001
0000
1000
0001
0000
0000
0100
0010
,  // measure 34
1000
0000
0001
0000
0010
0001
0000
1000
0001
0000
0010
0100
0000
0010
0000
0100
,  // measure 35
1000
0000
0001
0000
1000
0100
0000
0010
0001
0000
0000
1000
0100
0000
1000
0000
,  // measure 36
0011
0000
0010
0000
0001
0100
0000
0100
1000
0000
0001
0100
0000
0010
0000
0100
,  // measure 37
0001
0000
0010
0000
0100
1000
0000
0001
1000
0000
0010
0100
0000
0000
0001
0100
,  // measure 38
0001
0000
1000
0000
0100
0010
0000
0010
0001
0000
1000
0001
0000
1000
0000
0100
,  // measure 39
0010
0000
0001
0000
1000
0010
0000
0100
0001
0000
1000
0100
0000
0000
0010
0100
,  // measure 40
1000
0000
0001
0000
0100
0010
0000
1000
0001
0000
0100
0010
0000
1000
0000
0001
,  // measure 41
0010
0000
0100
0000
1000
0010
0000
0010
0001
0000
1000
0010
0000
0000
1000
0100
,  // measure 42
0010
0000
0001
0000
1000
0001
0000
0001
0100
0000
0010
0100
0000
0001
0000
1000
,  // measure 43
0001
0000
0010
0000
0100
1000
0000
0001
1000
0000
0000
0010
0000
0000
1000
0000
,  // measure 44
1001
0000
0001
0000
0010
0000
1000
0000
0010
0000
0100
0000
1000
0001
0000
1000
,  // measure 45
0001
0000
0100
0000
1000
0000
0100
0000
0010
0000
0100
0000
0001
0000
1000
0001
,  // measure 46
1000
0000
0100
0000
0001
0000
1000
0000
0010
0000
0001
0000
0100
0010
0000
0100
,  // measure 47
0010
0000
1000
0000
0010
0000
0001
0000
0010
0000
0100
0000
0010
0000
1000
0001
,  // measure 48
1000
0000
0100
0000
0001
0000
0100
0000
1000
0000
0010
0000
0100
0010
0000
0100
,  // measure 49
0001
0000
0010
0000
1000
0000
0010
0000
0100
0000
1000
0000
0001
0000
1000
0001
,  // measure 50
1000
0000
0100
0000
0010
0000
0001
0000
1000
0000
0010
0000
0100
0010
0000
0100
,  // measure 51
0001
1000
0001
1000
0100
0010
0100
0010
,  // measure 52
0011
0000
0000
1000
0010
0000
1000
0000
0001
0000
0000
0010
0100
0000
0010
0000
,  // measure 53
0001
0000
0000
1000
0100
0000
1000
0000
0001
0000
0000
0010
0100
0000
0010
0000
,  // measure 54
0001
0000
0000
1000
0010
0000
1000
0000
0001
0000
0000
0010
0100
0000
1000
0000
,  // measure 55
0001
0000
0000
0100
0010
0000
1000
0000
0001
0000
0000
0010
0001
0000
0001
0000
,  // measure 56
1001
0000
0000
0000
;
