#VERSION:0.83;
#TITLE:Mobbin' Out;
#SUBTITLE:;
#ARTIST:I See Stars;
#TITLETRANSLIT:;
#SUBTITLETRANSLIT:;
#ARTISTTRANSLIT:;
#GENRE:Electronicore;
#ORIGIN:;
#CREDIT:;
#BANNER:Mobbin' Out-bn.png;
#BACKGROUND:Mobbin' Out-bg.png;
#PREVIEWVID:;
#JACKET:Mobbin' Out-jacket.png;
#CDIMAGE:;
#DISCIMAGE:;
#LYRICSPATH:;
#CDTITLE:cdtitle.png;
#MUSIC:Mobbin' Out.ogg;
#OFFSET:-0.469000;
#SAMPLESTART:105.480003;
#SAMPLELENGTH:15.928000;
#SELECTABLE:YES;
#DISPLAYBPM:64.000000:128.000000;
#BPMS:0.000=64.000,
32.000=128.000,
96.000=64.000,
104.000=128.000,
119.000=256.000,
119.500=128.000,
119.750=64.000,
120.000=128.000,
150.000=64.000,
151.000=128.000,
183.000=64.000,
185.000=128.000,
248.000=256.000,
248.500=128.000,
248.750=64.000;
#STOPS:;
#DELAYS:;
#WARPS:;
#TIMESIGNATURES:0.000=4=4;
#TICKCOUNTS:0.000=4;
#COMBOS:0.000=1;
#SPEEDS:0.000=1.000=0.000=0;
#SCROLLS:0.000=1.000;
#FAKES:;
#LABELS:0.000=Song Start;
#BGCHANGES:0.000=Mobbin' Out.avi=1.000=1=0=0=StretchNoLoop==CrossFade==,
265.750=Mobbin' Out-bg.png=1.000=1=0=1===CrossFade==,
99999=-nosongbg-=1.000=0=0=0 // don't automatically add -songbackground-
;
#KEYSOUNDS:;
#ATTACKS:
;

//---------------dance-single - ----------------
#NOTEDATA:;
#CHARTNAME:X-Scale 15;
#STEPSTYPE:dance-single;
#DESCRIPTION:;
#CHARTSTYLE:;
#DIFFICULTY:Hard;
#METER:10;
#RADARVALUES:0.654438,0.904023,0.317499,0.123112,0.790509,707.000000,658.000000,49.000000,19.000000,0.000000,0.000000,0.000000,0.000000,0.000000,0.654438,0.904023,0.317499,0.123112,0.790509,707.000000,658.000000,49.000000,19.000000,0.000000,0.000000,0.000000,0.000000,0.000000;
#CREDIT:iamthek3n;
#DISPLAYBPM:64.000000:128.000000;
#NOTES:
// measure 0
0000
0000
0000
0000
,  // measure 1
0000
0000
0000
0000
,  // measure 2
1000
0100
0001
0100
1000
0000
0001
0100
1000
0000
0001
0010
1000
0010
0100
0010
,  // measure 3
1000
0000
0100
0010
0001
0000
1000
0001
0200
0000
0000
0300
0000
0000
0000
0000
,  // measure 4
0001
0000
0000
0010
0000
0000
0100
0000
0000
0010
0000
0000
0001
0000
0000
0000
1000
0000
0020
0000
0000
0000
0030
0000
2000
0000
0000
0000
3002
0000
0100
0000
,  // measure 5
0103
0000
0000
0001
0000
0000
1000
0000
0000
0010
0000
0000
1000
0000
0000
0000
0001
0000
0200
0000
0000
0000
0300
0000
0002
0000
0000
0000
0013
0000
0100
0000
,  // measure 6
1000
0000
0000
0100
0000
0000
0001
0000
0000
0100
0000
0000
1000
0000
0010
0000
1000
0000
0000
0000
0010
0000
0000
0000
0100
0000
0010
0000
0001
0000
0010
0000
,  // measure 7
1000
0000
0000
0100
0000
0000
0001
0000
0000
0100
0000
0000
1000
0000
0000
0000
0001
0000
2000
0000
0000
0000
3000
0000
0001
0000
0010
0000
0100
0000
1000
0000
,  // measure 8
1100
0100
0010
0100
1000
0000
0001
0100
,  // measure 9
0010
0000
0100
0010
0000
0000
1000
1000
0000
0100
0100
0000
1000
0000
0001
0000
,  // measure 10
0100
0001
1000
0100
0001
0000
0001
0100
,  // measure 11
1000
0000
1000
0000
0001
0100
0001
0000
1000
0000
0000
0100
0010
0000
0010
0000
,  // measure 12
0010
0001
1000
0010
0001
0000
0001
0010
,  // measure 13
1000
0000
1000
0000
0100
0000
1000
1000
0000
0001
0001
0000
0100
0000
0010
0000
,  // measure 14
1000
0010
0100
0010
0001
0000
0001
0010
,  // measure 15
0100
0000
0010
0000
1000
0000
0001
0000
0010
0100
0010
0100
0020
0000
0000
0000
,  // measure 16
0031
0001
1000
0010
0000
1010
1000
0001
,  // measure 17
0011
0000
0010
0000
0100
0000
0100
0000
1000
0000
0000
0100
1000
0000
1000
0000
,  // measure 18
1001
0000
0100
0000
0001
0000
0010
0000
0100
0000
0000
1000
0100
0000
1000
0000
,  // measure 19
1001
0000
0100
0000
0001
0000
1000
0000
0020
0030
0000
0020
0030
0000
0020
0030
,  // measure 20
0101
0000
0100
0000
0001
0000
1000
0000
0100
0000
0000
1000
0001
1000
0001
0000
,  // measure 21
1001
0010
1000
0001
0100
0010
1000
0001
,  // measure 22
0011
0000
0010
0000
0100
0000
1000
0000
0001
0000
0100
0001
1000
0000
0100
0000
,  // measure 23
0110
0100
0010
0001
0100
0001
1000
0001
,  // measure 24
1001
0000
0000
1000
0100
0000
1000
0010
0000
1000
0100
0000
1000
0010
0000
0100
0001
0000
0010
0001
0000
0100
0001
0000
0010
0001
0000
1000
0000
0000
0100
0000
,  // measure 25
0100
0000
0000
1000
0001
0000
0010
0001
0000
0100
0001
0000
1000
0010
0000
0100
0001
0000
0010
0100
0000
1000
0100
0000
1000
0001
0000
0010
0000
0000
0001
0000
,  // measure 26
0011
0000
0000
0010
0100
0000
0010
0000
0001
1000
0000
0100
1000
0000
0010
0000
,  // measure 27
0100
0000
0001
0000
0100
0000
0001
0000
1000
0000
0000
0100
1000
0000
0001
0000
,  // measure 28
0101
0000
0000
0010
0100
0000
0001
0000
1000
0000
0000
0100
0010
0000
0001
0000
,  // measure 29
1000
0010
1000
0010
0100
0001
0200
0000
,  // measure 30
0310
0100
0010
0000
1000
0100
1000
0100
1000
0000
1000
0000
0001
0000
1000
0000
,  // measure 31
0100
0010
0000
0010
0001
1000
0001
0100
0010
0000
1000
0010
0000
0000
1000
0000
,  // measure 32
1001
0000
0000
0011
0000
0010
0001
0010
0011
0000
0000
1010
0000
1000
0010
1000
,  // measure 33
1010
0000
0000
0101
0000
0001
0100
0001
0101
0000
0000
0110
0000
0010
0100
0010
,  // measure 34
0100
0010
0100
0000
0001
0010
0001
0010
0001
0000
0000
0010
0000
0000
0100
0000
,  // measure 35
1000
0000
0000
0000
0010
0000
0000
0000
0100
0000
0000
0000
0001
0000
0000
0000
0010
0000
0000
0000
0100
0000
0000
0000
1000
0000
0100
0000
1000
0000
0100
0000
0000
0010
0000
0000
0001
0000
0000
1000
0000
0000
0001
0000
0000
0010
0000
0000
,  // measure 36
0011
0000
0000
1100
0000
1000
0100
1000
1100
0000
0000
0101
0000
0001
0100
0001
,  // measure 37
0101
0000
0000
0000
0000
0000
1001
0000
0000
0000
0001
0000
1000
0000
0001
0000
2000
0000
0000
3000
0020
0000
0000
0030
1000
0000
0010
0000
0100
0000
0000
0000
,  // measure 38
0010
0100
0001
1000
0001
0000
0010
0000
1000
0000
0001
0000
0100
0000
1000
0000
,  // measure 39
0000
0000
1000
0001
1000
0000
0010
1000
0000
0000
0010
0000
0110
0000
0100
0000
,  // measure 40
1000
0000
0100
0000
0001
0000
0000
0010
0000
0001
0010
0100
1000
0000
0000
0100
,  // measure 41
0000
1000
0100
0010
0001
0000
0000
1000
0010
0000
1000
0000
0001
1000
0001
0000
,  // measure 42
0010
0000
0000
0100
0000
0000
0010
0000
0000
0001
0000
0000
0010
0000
0000
0000
0000
0000
0000
0000
0000
0100
0000
0000
1000
0000
0000
0000
0000
0000
0001
0000
0000
0000
0000
0000
1000
0000
0000
0000
0001
0000
0000
0000
0100
0000
0000
0000
,  // measure 43
0010
0000
0000
0000
1000
0000
0000
0000
0001
0000
0010
0000
0001
0000
0000
0010
0000
0000
0100
0000
0000
0010
0000
0000
0001
0000
0000
1000
0000
0000
0010
0000
0000
1000
0000
0000
0001
0000
0000
0000
0000
0000
0000
0000
0000
0100
0000
0000
,  // measure 44
0001
0000
1000
0100
0010
0000
0000
0001
0100
0000
0010
0100
0001
0000
0000
1000
,  // measure 45
0100
0000
1000
0001
0100
0000
0000
0010
0100
0000
0001
0100
0001
0100
1000
0001
,  // measure 46
0010
1000
0100
0010
1002
0000
1000
0000
0203
0001
0000
0000
0310
0000
1000
0000
,  // measure 47
0001
0000
1000
0000
0001
1000
0000
0000
0100
0000
0000
0000
0010
0000
0010
0000
,  // measure 48
0001
0100
0010
0100
0001
0000
0001
0000
1000
0100
1000
0000
0100
0000
0010
0000
,  // measure 49
0001
0000
1000
0000
0010
0100
0001
0000
0100
0000
0010
0000
0100
0001
0010
0100
,  // measure 50
1000
0001
1000
0100
0010
0000
0001
0010
0001
0000
1000
0000
1000
0000
0010
0000
,  // measure 51
0100
0000
0001
0100
0001
0000
0000
0010
0100
0000
0010
0000
0010
0000
0001
0000
,  // measure 52
0001
1000
0000
0000
1001
0000
0001
1000
0000
0000
0100
0000
0100
0000
0010
0000
,  // measure 53
0001
1000
0100
1000
0001
0000
0000
1000
0010
0000
1000
0000
0001
0100
0010
1000
,  // measure 54
0100
0010
0100
1000
0001
0000
0001
0000
1000
0100
1000
0000
0001
0000
0000
0000
,  // measure 55
0011
0000
0011
0000
0001
0010
0000
0000
0001
0000
0000
0000
1001
0000
1000
0000
,  // measure 56
0001
0000
0100
0001
0100
0000
0100
0000
0010
0100
0001
0000
2000
0000
0000
3000
,  // measure 57
1100
0000
0000
0000
0000
0000
0100
0000
0000
0000
0000
0000
0010
0000
0000
0001
0000
0000
1000
0000
0000
0000
0000
0000
0200
0000
0000
0000
0000
0000
0000
0000
0000
0300
0000
0000
0010
0000
0100
0000
0010
0000
0100
0000
0010
0000
0100
0000
,  // measure 58
0010
0000
0001
0000
0010
0000
0001
0000
0010
0000
0001
0000
0010
0000
0000
0000
0000
0000
0000
0000
0000
0001
0000
0000
1000
0000
0000
0000
0000
0000
0010
0000
0000
0000
0000
0000
0010
0000
0000
0000
0000
0000
1000
0000
0000
0000
0000
0000
,  // measure 59
0100
1000
0001
0100
0010
0000
0000
0100
0001
0000
1000
0000
0100
0000
0100
0000
,  // measure 60
1000
0010
0000
0000
1000
0000
0000
0010
0100
0000
0001
0000
0001
0000
1000
0000
,  // measure 61
1000
0100
0010
0100
1000
0000
0010
1000
0001
1000
0010
0000
0100
0010
1000
0001
,  // measure 62
1001
0000
0000
0000
0000
0000
0000
0000
1001
0000
0001
0000
0001
0000
0001
0000
0011
0000
0000
0010
0000
0000
0100
0010
0100
0000
1000
0000
1000
0000
1000
0000
,  // measure 63
1001
0000
0110
0000
0000
1100
0000
0000
1001
0000
0001
0000
0001
0000
0001
0000
0101
0000
0000
0100
0000
0000
0100
0001
1000
0000
1000
0000
1000
0000
1000
0000
,  // measure 64
1100
0000
0011
0000
0000
0101
0000
0000
0110
0000
0010
0000
1000
0000
0001
0000
1001
0000
0000
0000
0000
0000
1000
0001
1000
0000
0100
0000
0000
0000
0010
0000
,  // measure 65
0011
0000
0001
0000
0000
0100
0000
0000
0001
0100
0010
1000
0100
0010
0001
1000
1001
0000
0000
0000
0001
0000
0010
0100
0010
0000
0001
0000
1000
0000
0010
0000
,  // measure 66
0110
0000
0010
2000
0000
0100
0000
0000
0000
0000
0000
0000
0000
0000
3000
0000
0000
0000
0000
0000
0000
0000
0000
0000
0000
0000
0000
0000
0000
0000
0000
0000
;

//---------------dance-single - ----------------
#NOTEDATA:;
#CHARTNAME:X-Scale 11;
#STEPSTYPE:dance-single;
#DESCRIPTION:;
#CHARTSTYLE:;
#DIFFICULTY:Medium;
#METER:8;
#RADARVALUES:0.473935,0.624206,0.323979,0.252704,0.421173,512.000000,462.000000,50.000000,39.000000,0.000000,0.000000,0.000000,0.000000,0.000000,0.473935,0.624206,0.323979,0.252704,0.421173,512.000000,462.000000,50.000000,39.000000,0.000000,0.000000,0.000000,0.000000,0.000000;
#CREDIT:iamthek3n;
#DISPLAYBPM:64.000000:128.000000;
#NOTES:
// measure 0
0000
0000
0000
0000
,  // measure 1
0000
0000
0000
0000
,  // measure 2
0001
0010
0100
0010
0001
1000
0001
0010
,  // measure 3
0200
0000
0000
0000
0000
0300
2000
0000
0000
0000
0000
3000
0020
0000
0000
0000
0200
0000
0000
0000
0000
0000
0000
0000
0300
0000
0000
0000
0000
0000
0000
0000
,  // measure 4
0130
0000
0000
0010
0000
0000
1000
0000
0000
0001
0000
0000
0010
0000
0000
0000
0000
0000
0100
0000
0000
0000
0000
0000
0010
0000
0000
0000
0001
0000
0000
0000
,  // measure 5
1000
0000
0000
0100
0000
0000
0010
0000
0000
0100
0000
0000
1000
0000
0000
0000
0001
0000
1000
0000
0000
0000
0000
0000
0010
0000
0000
0000
1000
0000
0000
0000
,  // measure 6
0001
0000
0000
0100
0000
0000
0010
0000
0000
0100
0000
0000
0001
0000
0000
0000
0000
0000
0000
0000
0010
0000
0000
0000
0100
0000
0000
0000
1000
0000
0001
0000
,  // measure 7
0010
0000
0000
1000
0000
0000
0001
0000
0000
0100
0000
0000
1000
0000
0000
0000
1100
0000
0100
0000
0000
0000
0000
0000
0010
0000
0000
0000
0100
0000
0010
0000
,  // measure 8
0100
0000
0000
1000
0000
0000
0001
0000
0000
0010
0000
0000
0100
0000
0000
0000
,  // measure 9
1000
0000
1000
0000
0001
0000
0010
0001
0000
0010
0100
0000
1000
0000
0001
0000
,  // measure 10
0100
0000
0000
0010
0000
0000
0100
0000
0000
0001
0000
0000
0010
0000
0001
0000
,  // measure 11
0100
0000
0000
0010
0000
0000
0100
0000
0000
0001
0000
0000
0010
0000
0010
0000
,  // measure 12
0010
0000
0000
0100
0000
0000
0010
0000
0000
0001
0000
0000
1000
0000
0000
0000
,  // measure 13
0100
0000
0100
0000
0010
0000
0100
1000
0000
0001
1000
0000
0100
0000
0010
0000
,  // measure 14
0001
0000
0000
0100
0000
0000
1000
0000
0000
0100
0000
0000
0001
0000
1000
0000
,  // measure 15
0001
0000
0100
0000
0100
0000
0010
0000
1000
0010
1000
0010
2000
0000
0000
0000
,  // measure 16
3100
0000
0000
0010
0000
0000
0100
0000
1000
0000
0000
0001
0000
0000
1000
0000
,  // measure 17
1100
0000
0100
0000
0010
0000
0001
0000
1000
0000
0000
0010
0000
0000
1000
0000
,  // measure 18
1010
0000
0000
0010
0000
0000
0100
0000
0010
0000
0000
1000
0000
0000
0001
0000
,  // measure 19
0011
0000
0000
0010
0000
0000
0100
0000
2000
0000
3000
2000
0000
3000
2000
3000
,  // measure 20
1000
0000
0000
0100
0000
0000
0010
0000
0000
0001
0000
0000
1000
0000
0001
0000
,  // measure 21
1001
1000
0001
0100
0010
0100
0001
0010
,  // measure 22
0110
0000
0000
0100
0000
0000
1000
0000
0000
0001
0000
0000
0200
0000
0000
0000
,  // measure 23
0010
0010
0300
0000
0100
0000
0001
1000
,  // measure 24
1001
0000
0000
0000
1000
0000
0100
0000
1000
0000
0000
0001
0000
0000
0000
0000
0001
0000
0000
0000
0100
0000
0010
0000
0100
0000
0000
0001
0000
0000
0000
0000
,  // measure 25
0001
0000
0010
0000
0010
0000
0010
0000
0100
0000
0000
1000
0000
0000
1000
0000
0001
0000
0010
0000
0010
0000
0010
0000
0100
0000
0000
1000
0000
0000
1000
0000
,  // measure 26
1100
0000
0000
1001
0000
0000
0101
0000
0001
0000
0000
0100
0000
0000
0010
0000
,  // measure 27
1000
0000
0100
0000
0100
0000
0100
0000
0010
0000
0000
0001
0000
0000
1000
0000
,  // measure 28
1001
0000
0000
0110
0000
0000
1010
0000
1000
0000
0000
0001
0000
0000
0010
0000
,  // measure 29
0100
1000
1000
1000
0020
0000
2030
0000
,  // measure 30
3001
1000
0100
1000
0001
0010
0010
0010
,  // measure 31
0100
1000
0000
0100
0010
0000
0001
0010
0001
0000
0000
0010
0000
0000
0100
0000
,  // measure 32
1100
0000
0000
1010
0000
0000
1000
0000
1001
0000
0000
0011
0000
0000
0010
0000
,  // measure 33
0101
0000
0000
1001
0000
0000
1000
0000
1100
0000
0000
1010
0000
0000
0001
0000
,  // measure 34
1001
0000
1000
0000
0010
0000
1000
0000
0001
0000
0000
0100
0000
0000
0001
0000
,  // measure 35
0010
0000
0000
0000
0100
0000
0000
0000
1000
0000
0000
0000
0001
0000
0000
0000
1000
0000
0000
0000
0010
0000
0000
0000
1000
0000
0000
0000
0000
0000
0100
0000
0000
0000
0000
0000
0010
0000
0000
0100
0000
0000
0010
0000
0000
0100
0000
0000
,  // measure 36
0010
0000
0000
0101
0000
0000
0001
1000
0001
0000
0000
1001
0000
0000
1000
0100
,  // measure 37
1000
0000
0000
1100
0000
0000
0100
0010
0001
0000
1000
0000
2001
0000
0000
0000
,  // measure 38
0100
3100
1100
0100
0001
0100
1000
0002
,  // measure 39
0000
0000
0023
0000
0000
0000
0230
0000
0000
0000
0000
0000
1300
0000
0000
1100
,  // measure 40
0000
0000
0100
0010
0001
0000
0000
0101
0000
0000
0001
1000
0010
0000
0000
1010
,  // measure 41
0000
0000
0001
0010
0100
0000
0000
0110
0000
0000
0010
0001
1000
0000
0100
0000
,  // measure 42
0001
0100
2000
0000
3001
0100
0001
2000
,  // measure 43
0000
0000
3200
0000
0000
0000
0310
0000
0002
0000
0000
0000
1003
0000
0000
1001
,  // measure 44
0000
0000
0001
1000
0010
0000
0000
1010
0000
0000
0001
1000
0100
0000
0000
1010
,  // measure 45
0000
0000
1000
0001
0100
0000
0000
0101
0000
0000
0001
0010
0200
0000
0000
0000
,  // measure 46
0000
0300
1100
0000
1000
0000
0001
0010
,  // measure 47
0200
0310
0002
2003
,  // measure 48
3100
0000
1000
0100
1000
0000
1000
0000
0100
0000
0000
0000
0010
0000
0000
0000
,  // measure 49
0001
1000
1000
0000
0010
1000
0001
1000
,  // measure 50
0100
0000
0010
0002
0000
2003
0000
3020
,  // measure 51
0000
0000
2030
0000
0001
0000
0000
0001
3000
0000
1000
0000
0010
0000
0100
0000
,  // measure 52
0001
0000
0010
0200
0000
2300
0000
3002
,  // measure 53
0000
0000
0203
0000
0010
0000
0000
0010
0300
0000
0100
0000
0001
0000
0010
0000
,  // measure 54
0100
1000
0100
0010
0001
1000
0010
0000
,  // measure 55
1000
0200
0010
0000
1300
0000
0001
0100
,  // measure 56
0010
0000
0100
0010
0100
0000
0001
0000
0010
0000
0001
0000
2000
0000
0000
0000
,  // measure 57
3100
1000
0001
0100
0002
0000
0023
0000
,  // measure 58
0230
0000
0000
0000
1300
0000
0000
1100
0000
0000
1000
0000
0100
0000
1000
0000
,  // measure 59
0100
0000
0000
0000
0101
0000
0000
0110
0000
0000
0010
0000
0100
0000
0001
0000
,  // measure 60
0010
0001
0000
0000
0011
0000
0000
1001
0000
0000
1000
0000
0001
0000
0010
0000
,  // measure 61
0100
0000
0000
0000
1100
0000
1000
0001
0100
0000
0001
0000
1000
0100
0010
0000
,  // measure 62
0110
0000
0000
0000
0000
0000
0000
0000
1001
0000
0000
0000
1000
0000
0000
0000
1100
0000
0000
0100
0000
0000
1000
0000
0001
0000
0000
0000
0100
0000
0000
0000
,  // measure 63
0101
0000
0001
0000
0000
0010
0000
0000
0011
0000
0000
0000
0001
0000
0000
0000
1001
0000
0000
1000
0000
0000
0100
0000
1000
0000
0000
0000
0001
0000
0000
0000
,  // measure 64
0101
0000
0001
0000
0000
1000
0000
0000
1001
0000
0001
0000
0100
0000
0001
0000
2000
0000
0000
0000
3000
0000
0100
0000
0010
0000
0001
0000
0000
0000
1000
0000
,  // measure 65
0000
0010
1000
0000
0001
0100
0010
0100
0002
0000
0003
0010
0100
1000
0001
1000
,  // measure 66
0000
0200
0000
1000
0000
0000
0000
0300
0000
0000
0000
0000
0000
0000
0000
0000
;

//---------------dance-single - ----------------
#NOTEDATA:;
#CHARTNAME:X-Scale 6;
#STEPSTYPE:dance-single;
#DESCRIPTION:;
#CHARTSTYLE:;
#DIFFICULTY:Easy;
#METER:4;
#RADARVALUES:0.303615,0.408963,0.116632,0.362856,0.032398,328.000000,310.000000,18.000000,56.000000,0.000000,0.000000,0.000000,0.000000,0.000000,0.303615,0.408963,0.116632,0.362856,0.032398,328.000000,310.000000,18.000000,56.000000,0.000000,0.000000,0.000000,0.000000,0.000000;
#CREDIT:iamthek3n;
#DISPLAYBPM:64.000000:128.000000;
#NOTES:
0000
0000
0000
0000
,
0000
0000
0000
0000
,
1000
0100
0010
0001
,
0100
0010
2000
0000
,
3001
0000
0000
0100
0000
0000
0001
0000
0000
1000
0000
0000
0010
0000
1000
0000
,
0001
0000
0000
0100
0000
0000
0010
0000
0000
1000
0000
0000
0001
0000
0010
0000
,
0001
0000
0000
1000
0000
0000
0100
0000
0000
0000
1000
0000
0001
0000
1000
0000
,
0001
0000
0000
0010
0000
0000
0001
0000
0000
1000
0000
0000
0010
0000
1000
0000
,
0001
0000
1000
0001
0000
0000
0010
0000
,
0100
1000
0000
0000
0001
0000
0100
0000
,
0001
0000
0010
0100
0000
0000
1000
0000
,
0001
0100
0000
0000
0001
0000
1000
0001
,
1000
0000
0100
0010
0000
0000
0001
0000
,
0100
0001
0000
0000
0010
0000
0100
0000
,
1000
0000
0001
1000
0000
0000
0010
0000
,
0100
0010
0000
0000
2000
0000
0010
0000
,
3001
1000
0001
1000
0000
0000
0100
0010
,
0100
0010
0000
0000
0001
0010
0001
0010
,
0100
1000
0100
1000
0000
0000
0001
0100
,
0001
0100
0000
0000
0020
0000
0001
0000
,
1030
0010
0100
0010
0000
0000
1000
0001
,
0010
0001
0000
0000
0001
0010
0100
1000
,
0010
0100
0001
1000
0000
0000
0100
0010
,
0001
1000
0000
0000
0010
0000
1000
0001
,
1001
1000
0100
1000
0001
0100
0001
0010
,
0100
0010
0001
1000
0010
1000
0001
0010
,
0110
0100
1000
0001
,
1000
0010
0100
0001
,
0010
0001
0100
0001
0010
0000
0100
0000
,
1000
0001
0100
0001
1000
0000
0020
0000
,
1030
0000
1000
0000
1001
1000
0010
1000
,
0002
0100
2003
0100
,
3001
0000
1001
0000
,
0010
0000
0110
0000
,
0101
0001
1001
0100
,
1000
0000
0010
0000
1000
0001
0100
0001
,
1000
0000
1010
0000
,
0001
0000
0000
0000
0012
0023
0230
0000
,
1000
0300
1100
1000
0010
0100
0010
2000
,
0000
3002
0000
0023
0000
0000
0130
0010
,
0001
1000
0020
0000
0030
0100
0001
1000
,
0100
2000
0000
3002
0000
0000
0103
0001
,
0010
0001
0200
0000
0300
0010
1000
0002
,
0000
0023
0000
0130
2000
0000
3001
1000
,
0010
1000
0002
0000
0003
0100
0001
1000
,
0100
0020
0000
0032
0000
0003
0000
0000
,
0000
0000
0110
0000
0100
0000
0010
0100
,
0002
0000
0100
0003
0001
0000
0010
0000
,
0100
2000
0000
3100
0200
0000
0320
0000
,
0032
0000
0100
0000
1003
0001
0100
0001
,
1000
0000
0001
0200
0300
0020
0000
2030
,
0000
3200
0000
0000
0300
0010
0002
0000
,
2003
0000
3001
0200
0300
0020
0000
2030
,
0000
3002
0000
0000
0003
0100
0100
0001
,
1000
0001
0010
1000
0010
0100
2000
0000
,
3001
2000
0000
0000
3000
0000
1001
0000
,
0010
0002
1000
0000
0203
0000
0310
0000
,
0120
0001
2030
3200
,
0320
0000
0031
0200
0300
0020
0000
2030
,
0000
3200
0000
0000
0300
0010
0002
0000
,
2003
0000
3001
0200
0300
0020
0000
2030
,
0000
3002
0010
0000
0100
0000
0010
0000
,
0103
1001
1100
1000
,
1001
0001
0101
0100
,
0110
0000
0000
0000
0010
0000
0100
0000
0001
0000
0000
0000
1000
0000
0000
0010
,
0000
0000
1000
0000
0001
0000
0010
0000
0100
0000
0000
0000
1000
0000
0000
0001
,
0000
0002
0000
0000
0000
0000
0000
0003
0000
0000
0000
0000
0000
0000
0000
0000
;
