#VERSION:0.83;
#TITLE:Mm-ma-ma;
#SUBTITLE:;
#ARTIST:Crazy Loop;
#TITLETRANSLIT:;
#SUBTITLETRANSLIT:;
#ARTISTTRANSLIT:;
#GENRE:Electropop;
#ORIGIN:;
#CREDIT:;
#BANNER:Mm-ma-ma-bn.png;
#BACKGROUND:Mm-ma-ma-bg.png;
#PREVIEWVID:;
#JACKET:Mm-ma-ma-jacket.png;
#CDIMAGE:;
#DISCIMAGE:;
#LYRICSPATH:;
#CDTITLE:cdtitle.png;
#MUSIC:Mm-ma-ma.ogg;
#OFFSET:-0.230000;
#SAMPLESTART:99.477997;
#SAMPLELENGTH:14.436000;
#SELECTABLE:YES;
#BPMS:0.000=133.000;
#STOPS:;
#DELAYS:;
#WARPS:;
#TIMESIGNATURES:0.000=4=4;
#TICKCOUNTS:0.000=4;
#COMBOS:0.000=1;
#SPEEDS:0.000=1.000=0.000=0;
#SCROLLS:0.000=1.000;
#FAKES:;
#LABELS:0.000=Song Start;
#BGCHANGES:33.000=Mm-ma-ma.avi=1.000=1=0=0=StretchNoLoop==CrossFade==,
99999=-nosongbg-=1.000=0=0=0 // don't automatically add -songbackground-
;
#KEYSOUNDS:;
#ATTACKS:
;

//---------------dance-single - ----------------
#NOTEDATA:;
#CHARTNAME:X-Scale 12;
#STEPSTYPE:dance-single;
#DESCRIPTION:;
#CHARTSTYLE:;
#DIFFICULTY:Hard;
#METER:8;
#RADARVALUES:0.488943,0.672984,0.223046,0.192281,0.176899,445.000000,416.000000,29.000000,25.000000,0.000000,0.000000,0.000000,0.000000,0.000000,0.488943,0.672984,0.223046,0.192281,0.176899,445.000000,416.000000,29.000000,25.000000,0.000000,0.000000,0.000000,0.000000,0.000000;
#CREDIT:;
#NOTES:
// measure 0
0000
0000
0000
0000
,  // measure 1
0000
0000
0000
0000
,  // measure 2
0000
0000
0000
0000
,  // measure 3
0000
0000
0000
0000
,  // measure 4
0000
0000
0000
0000
,  // measure 5
0000
0000
0000
0000
,  // measure 6
0000
0000
0000
0000
,  // measure 7
0000
0000
0000
0000
,  // measure 8
0000
1100
0101
0011
,  // measure 9
1010
1000
0000
0001
0000
0001
0010
0100
,  // measure 10
0000
1000
0000
0001
0000
0001
1000
0010
,  // measure 11
1000
0000
0100
0010
0100
0000
1000
0001
,  // measure 12
0000
0100
0010
0200
1000
0000
0302
0000
,  // measure 13
0013
0100
0000
1000
0000
1000
0001
0010
,  // measure 14
0000
0001
0000
1000
0100
0001
0100
0010
,  // measure 15
0001
0000
1000
0001
0010
1000
0010
0001
,  // measure 16
1000
0000
0000
0000
0100
0000
0010
0000
0001
0000
0000
1000
0000
0000
0001
0000
,  // measure 17
1001
0000
0000
0000
1000
0000
0100
0000
1000
0000
0000
1000
0000
1000
0001
0000
,  // measure 18
0100
0000
0000
0000
0010
0000
0100
0000
0001
0000
0000
0010
0000
0000
0100
0000
,  // measure 19
1000
0000
0000
0000
0001
0000
0100
0000
0001
0000
0000
0001
0000
0001
1000
0000
,  // measure 20
0010
1000
0001
1000
0010
1000
0001
1000
,  // measure 21
0000
0001
0000
0100
0010
0001
0010
2000
,  // measure 22
0000
3002
0000
0023
0000
0230
0000
0300
,  // measure 23
1100
0000
0000
0000
0010
0000
0100
0000
1100
0000
0000
0001
0000
0000
1000
0000
,  // measure 24
1001
0000
0000
0000
1000
0000
0001
0000
0010
0000
0000
0010
0000
0010
0100
0000
,  // measure 25
1000
0001
1000
0100
1000
0100
0010
0001
,  // measure 26
0000
1000
0001
1000
0010
0100
1000
0100
,  // measure 27
0001
0000
1000
0010
1000
0001
0010
0100
,  // measure 28
0000
0010
0000
0001
1000
0010
1000
0002
,  // measure 29
0000
0023
0000
0230
0000
2300
0000
3000
,  // measure 30
0001
0000
1000
0000
0100
0000
1000
0000
0001
0000
0010
0000
0100
0010
0000
0010
,  // measure 31
0001
0000
1001
1000
0100
0001
0100
0010
,  // measure 32
0001
0000
1001
1000
0100
0001
0100
0010
,  // measure 33
0001
0000
1100
2000
0001
3000
1000
0001
,  // measure 34
0100
0020
0030
2000
0100
0000
3002
0000
,  // measure 35
0013
0000
0000
0100
0010
0000
0100
0000
1000
0000
0001
0000
0100
0000
0001
0000
,  // measure 36
1000
0000
1001
0100
1000
0001
0100
0001
,  // measure 37
1001
0000
0000
0110
0000
1001
0000
0110
,  // measure 38
0000
0000
0000
0000
0000
0000
1000
0000
0000
0000
0000
0000
0100
0000
0000
1000
0100
1000
0100
0000
0000
1000
0000
0000
,  // measure 39
1001
0000
0001
0010
1000
0100
0001
0010
,  // measure 40
0100
0000
0110
0010
0001
1000
0001
0000
,  // measure 41
0010
0000
0001
1000
0100
0001
0010
1000
,  // measure 42
0001
0000
0100
0010
0100
0001
0010
0100
,  // measure 43
1000
0000
0000
0000
0001
0000
1000
0000
0001
0000
0000
0010
0000
0000
0100
0000
,  // measure 44
1000
0000
0001
0010
1000
0010
0100
2000
,  // measure 45
0010
0000
3001
0020
0000
0032
0000
2003
,  // measure 46
3100
0000
1000
0001
0000
0100
0001
0000
0010
0000
0100
1000
0000
0001
0100
0000
,  // measure 47
1001
0000
1000
0100
0001
0010
1000
0001
,  // measure 48
1000
0000
0010
0100
1000
0100
0001
0010
,  // measure 49
0001
0000
1000
0010
0001
0100
1000
0001
,  // measure 50
0100
0000
0010
1000
0001
0010
0100
0010
,  // measure 51
0001
0000
0000
0000
1000
0000
0010
0000
1000
0000
0000
0100
0000
0000
0001
0000
,  // measure 52
0100
0000
1000
0001
0100
0001
1000
0001
,  // measure 53
0010
0000
0100
2000
0000
3002
0000
2003
,  // measure 54
3100
1010
0011
0101
,  // measure 55
1100
1000
0001
0100
0000
0010
0100
0001
,  // measure 56
0000
0010
0100
1000
0000
0001
1000
0100
,  // measure 57
2000
0000
3100
0010
0001
0000
1000
0001
,  // measure 58
0100
1000
0100
0001
1000
0000
1001
0000
,  // measure 59
0001
0010
0001
1000
0000
0100
1000
0001
,  // measure 60
0000
0010
0001
1000
0000
0010
1000
0001
,  // measure 61
0010
0000
0011
0001
0000
1000
0000
0001
,  // measure 62
0011
0000
1010
0000
1100
0100
1000
0100
,  // measure 63
1100
0000
0001
0000
1000
0000
0001
0100
0001
0000
0010
0100
0000
0010
0001
0000
,  // measure 64
1000
0000
0001
0000
0100
0000
0001
1000
0001
0000
0100
0010
0000
0100
0001
0000
,  // measure 65
0010
0000
0100
0000
1000
0000
0001
0100
0001
0000
0010
0100
0000
1000
0100
0000
,  // measure 66
0001
0100
1000
0200
0010
0000
2300
0000
,  // measure 67
3001
0000
1000
0100
0000
1000
0001
0100
0001
0000
0010
0100
0000
0010
0001
1000
,  // measure 68
0001
0000
0010
0100
0000
1000
0001
0100
0001
0000
0010
0100
0000
0010
0001
1000
,  // measure 69
0100
0000
1000
0001
0000
0010
0001
0100
0001
0000
0010
0100
0000
1000
0002
0000
,  // measure 70
0003
0000
0000
0000
;

//---------------dance-single - ----------------
#NOTEDATA:;
#CHARTNAME:X-Scale 9;
#STEPSTYPE:dance-single;
#DESCRIPTION:;
#CHARTSTYLE:;
#DIFFICULTY:Medium;
#METER:6;
#RADARVALUES:0.375772,0.429940,0.161516,0.176899,0.007691,342.000000,321.000000,21.000000,23.000000,0.000000,0.000000,0.000000,0.000000,0.000000,0.375772,0.429940,0.161516,0.176899,0.007691,342.000000,321.000000,21.000000,23.000000,0.000000,0.000000,0.000000,0.000000,0.000000;
#CREDIT:;
#NOTES:
0000
0000
0000
0000
,
0000
0000
0000
0000
,
0000
0000
0000
0000
,
0000
0000
0000
0000
,
0000
0000
0000
0000
,
0000
0000
0000
0000
,
0000
0000
0000
0000
,
0000
0000
0000
0000
,
0000
0000
0002
0003
0020
0000
0001
0030
,
0011
0001
0000
1000
0000
0001
0010
0001
,
0000
1000
0000
0001
0000
0100
0010
1000
,
0001
0000
0010
0100
0000
0000
1000
0200
,
0000
2300
0000
3002
0000
0000
0010
0003
,
0001
1000
0000
0100
0000
1000
0001
1000
,
0000
0200
0000
0320
0000
0032
0000
2003
,
0000
3000
0001
0200
0000
0320
0000
2030
,
0000
3000
0000
0000
0000
0000
0110
0000
,
1001
0000
1000
0001
0100
0000
0010
0100
,
0001
0010
0001
1000
,
0010
0000
1000
0001
0100
0000
0010
0100
,
0001
0000
1000
0100
0001
0100
1000
0001
,
0000
0100
0010
0100
0001
0010
0100
1000
,
0000
0001
0000
1000
0000
0010
0000
0000
,
1010
0000
1001
0000
,
0011
0000
0001
0010
0100
0000
0010
0001
,
1000
0000
0010
0000
1000
0000
0001
0010
,
0100
0000
1000
0010
0001
0010
1000
0010
,
0100
0000
0001
0000
1000
0100
0010
0001
,
0000
1000
0000
0001
0010
0100
1000
0000
,
0001
1000
0100
0010
,
0001
0010
1000
0010
0100
1000
0100
0010
,
0001
0000
1000
0100
0001
0100
0010
0001
,
1000
0000
0010
0100
1000
0100
0001
1000
,
0001
0000
1001
0000
0100
0000
1010
1000
,
0001
0020
0000
0230
0001
0000
0010
0000
,
1300
0000
0100
1000
0001
0010
0100
0010
,
0001
0000
0011
0000
0001
0010
0001
0000
,
1001
0000
0000
1100
0000
0101
0000
1100
,
0000
2000
0000
3000
,
1001
0000
0000
0001
0010
1000
0010
0100
,
1000
0000
0001
0000
1000
0000
0100
0010
,
0000
0100
0000
1000
0100
0001
0100
0010
,
0001
0000
1000
0000
0001
0100
0001
0000
,
0010
0000
0000
0000
0110
0000
0000
0000
0100
0000
0000
1000
0000
0000
0001
0000
,
1000
0000
0001
0100
0010
0000
0100
0010
,
1000
0000
0001
0010
0000
0010
0000
0010
,
0100
0000
0010
0000
0001
0000
1000
0010
,
1000
0001
0000
1000
0100
0001
0100
0010
,
0001
0000
0100
0000
0001
0000
0010
0100
,
0000
1000
0000
1000
0100
0001
0100
0010
,
0001
0000
1000
0000
0001
0100
0001
0000
,
0010
0000
0000
0000
0101
0000
0000
0000
0001
0000
0000
0010
0000
0000
0100
0000
,
1000
0000
0010
1000
0001
0000
0100
0001
,
1000
0000
0100
0010
0000
0010
0000
0010
,
0000
0000
0001
0000
0020
0000
0100
0030
,
1001
1000
0000
0100
1000
0001
1000
0010
,
0000
0100
0000
0001
0000
0010
0100
1000
,
0001
0000
1000
0100
1000
0000
0001
0010
,
0000
0001
0000
2000
0010
0000
3002
0000
,
0013
0001
0000
1000
0000
0010
1000
0001
,
0000
0010
0000
1000
0000
0010
0000
0001
,
1000
0000
1000
0001
0000
0010
0000
0100
,
0000
1100
0101
1100
,
1001
0001
0100
0000
0010
0100
0001
0000
,
0010
0100
1000
0000
0001
1000
0010
0000
,
0200
0000
1300
0100
0001
0000
1000
0020
,
0000
0230
0000
0320
0001
0000
2030
0000
,
3100
0000
0010
0100
1000
0000
0001
1000
,
0010
0000
0100
0010
1000
0001
0100
0010
,
1000
0000
0100
0010
0001
1000
0001
0100
;

//---------------dance-single - ----------------
#NOTEDATA:;
#CHARTNAME:X-Scale 5;
#STEPSTYPE:dance-single;
#DESCRIPTION:;
#CHARTSTYLE:;
#DIFFICULTY:Easy;
#METER:3;
#RADARVALUES:0.242824,0.294959,0.046147,0.199972,0.000000,221.000000,215.000000,6.000000,26.000000,0.000000,0.000000,0.000000,0.000000,0.000000,0.242824,0.294959,0.046147,0.199972,0.000000,221.000000,215.000000,6.000000,26.000000,0.000000,0.000000,0.000000,0.000000,0.000000;
#CREDIT:;
#NOTES:
0000
0000
0000
0000
,
0000
0000
0000
0000
,
0000
0000
0000
0000
,
0000
0000
0000
0000
,
0000
0000
0000
0000
,
0000
0000
0000
0000
,
0000
0000
0000
0000
,
0000
0000
0000
0000
,
0000
0000
0000
0000
,
1001
1000
0100
1000
,
0001
0100
0001
1000
,
0100
0000
0010
0000
0100
0000
1000
0002
,
0003
0002
0003
0002
0000
0000
1000
0000
,
0013
0100
0010
0001
,
1000
0000
0010
0200
0300
0200
0300
0200
,
0000
0300
0001
0200
0300
0200
0300
0200
,
0000
0300
0000
0000
0000
0000
0000
0000
,
1001
1000
0100
1000
,
0001
0010
0100
0010
,
0001
1000
0010
1000
,
0001
0000
0010
0000
0100
1000
0001
1000
,
0000
0100
0000
0000
0010
0100
1000
0001
,
0000
0100
0000
0001
0000
0010
0000
0000
,
0011
0000
0000
0000
,
1001
1000
0001
1000
,
0010
0100
0001
0010
,
0100
0000
1000
0000
0001
0010
0001
0010
,
0001
0000
1000
0000
0010
0000
1000
0100
,
0000
1000
0000
0000
0001
0000
0100
0010
,
0000
1000
0000
0001
0000
0010
0000
0000
,
0100
0000
1000
0000
0001
0000
1000
0001
,
1000
0000
0010
0000
1000
0000
0001
0100
,
0001
0000
0010
0000
0100
0000
1000
0100
,
1000
0000
0001
0010
0000
0000
0001
1000
,
0010
1000
0000
0200
0000
0000
0010
0000
,
1300
0000
0100
0000
0010
0000
0001
0010
,
0001
0000
1000
0000
0001
0000
0100
0010
,
0200
0000
0300
0200
0300
0200
0300
0200
,
0000
0300
0000
0000
0000
0000
0000
0000
,
1001
0000
1000
0000
0010
0000
1000
0100
,
0010
0001
0100
0001
,
0010
0000
0100
0000
1000
0000
0100
0010
,
0001
0000
1000
0000
0010
0000
1000
0001
,
0010
0000
0100
0000
1000
0000
0001
0100
,
0010
0000
1000
0001
1000
0001
0010
0200
,
0000
0000
0310
0200
0300
0200
0300
0200
,
0000
0300
1000
0000
0001
0000
1000
0000
,
1001
0000
0001
0000
0100
0000
0010
0100
,
0001
1000
0100
1000
,
0001
0000
0010
0000
0001
0000
1000
0001
,
0100
0000
0010
0000
0100
0000
1000
0001
,
0100
0000
0010
0000
0100
0000
0001
0010
,
0100
0000
1000
0010
1000
0010
0100
0002
,
0000
0003
0010
0002
0003
0002
0003
0002
,
0000
0003
1000
0000
0200
0000
0001
0000
,
1300
0100
0010
0001
,
1000
0100
0010
0001
,
1000
0000
0001
0100
0001
0000
0010
0200
,
0300
0200
0300
0200
1000
0000
0010
0000
,
1300
0000
0000
0000
;

//---------------dance-single - ----------------
#NOTEDATA:;
#CHARTNAME:X-Scale 1;
#STEPSTYPE:dance-single;
#DESCRIPTION:;
#CHARTSTYLE:;
#DIFFICULTY:Beginner;
#METER:1;
#RADARVALUES:0.127455,0.160939,0.030765,0.000000,0.000000,116.000000,112.000000,4.000000,0.000000,0.000000,0.000000,0.000000,0.000000,0.000000,0.127455,0.160939,0.030765,0.000000,0.000000,116.000000,112.000000,4.000000,0.000000,0.000000,0.000000,0.000000,0.000000,0.000000;
#CREDIT:;
#NOTES:
0000
0000
0000
0000
,
0000
0000
0000
0000
,
0000
0000
0000
0000
,
0000
0000
0000
0000
,
0000
0000
0000
0000
,
0000
0000
0000
0000
,
0000
0000
0000
0000
,
0000
0000
0000
0000
,
0000
0000
0000
0000
,
0001
0000
0010
0000
,
0100
0000
1000
0000
,
0001
0000
0100
0000
,
0010
0000
1000
0000
,
0001
0000
0010
0000
,
0100
0000
1000
0000
,
0001
0000
0100
0000
,
0010
0000
0000
0000
,
1001
0000
1000
0000
,
0100
0000
1000
0000
,
0001
0000
0100
0000
,
0001
0000
0010
0000
,
0100
0000
1000
0000
,
0010
0000
0100
0000
,
0001
0000
0000
0000
,
1001
0000
1000
0000
,
0001
0000
0100
0000
,
0010
0000
0100
0000
,
0001
0000
0010
0000
,
0100
0000
1000
0000
,
0001
0000
1000
0000
,
0100
0000
1000
0000
,
0000
0001
0000
0010
,
0000
0001
0000
0100
,
0000
0001
0000
1000
,
0000
0100
0000
0010
,
0000
0001
0000
1000
,
0000
0001
0000
0010
,
0000
0000
0000
0000
,
0000
0000
0000
0000
,
1001
0000
1000
0000
,
0001
0000
1000
0000
,
0100
0000
1000
0000
,
0001
0000
0010
0000
,
0100
0000
0010
0000
,
0001
0000
1000
0000
,
0010
0000
1000
0000
,
0001
0000
0000
0000
,
1001
0000
0001
0000
,
0010
0000
0001
0000
,
1000
0000
0100
0000
,
1000
0000
0001
0000
,
0010
0000
0100
0000
,
0010
0000
0001
0000
,
1000
0000
0010
0000
,
1000
0000
0000
0000
,
0000
0001
0000
0010
,
0000
0001
0000
0100
,
0000
0001
0000
0010
,
0000
0001
0000
0100
,
0000
0001
0000
1000
,
0000
0100
0000
1000
,
0000
0001
0000
1000
,
0000
0000
0000
0000
,
0000
0100
0000
0010
,
0000
0001
0000
1000
,
0000
0001
0000
0100
,
0000
0001
0000
0010
,
0000
0100
0000
1000
,
0000
0001
0000
1000
,
0000
0100
0000
1000
;
