#VERSION:0.83;
#TITLE:Miss You;
#SUBTITLE:;
#ARTIST:RiraN;
#TITLETRANSLIT:;
#SUBTITLETRANSLIT:;
#ARTISTTRANSLIT:;
#GENRE:Future Hardstyle;
#ORIGIN:;
#CREDIT:;
#BANNER:Miss You-bn.png;
#BACKGROUND:Miss You-bg.png;
#PREVIEWVID:;
#JACKET:Miss You-jacket.png;
#CDIMAGE:;
#DISCIMAGE:;
#LYRICSPATH:;
#CDTITLE:cdtitle.png;
#MUSIC:Miss You.ogg;
#OFFSET:-0.003000;
#SAMPLESTART:27.202999;
#SAMPLELENGTH:12.800000;
#SELECTABLE:YES;
#BPMS:0.000=150.000;
#STOPS:;
#DELAYS:;
#WARPS:;
#TIMESIGNATURES:0.000=4=4;
#TICKCOUNTS:0.000=4;
#COMBOS:0.000=1;
#SPEEDS:0.000=1.000=0.000=0;
#SCROLLS:0.000=1.000;
#FAKES:;
#LABELS:0.000=Song Start;
#BGCHANGES:;
#KEYSOUNDS:;
#ATTACKS:
;

//---------------dance-single - ----------------
#NOTEDATA:;
#CHARTNAME:X-Scale 15;
#STEPSTYPE:dance-single;
#DESCRIPTION:;
#CHARTSTYLE:;
#DIFFICULTY:Hard;
#METER:10;
#RADARVALUES:0.785566,0.808239,0.370716,0.231698,0.544490,712.000000,664.000000,48.000000,30.000000,0.000000,0.000000,13.000000,0.000000,0.000000,0.785566,0.808239,0.370716,0.231698,0.544490,712.000000,664.000000,48.000000,30.000000,0.000000,0.000000,13.000000,0.000000,0.000000;
#CREDIT:;
#NOTES:
// measure 0
0000
0000
0000
0000
,  // measure 1
2000
0000
0000
0000
3000
0000
0200
0000
0000
0000
1300
0000
0001
0100
0010
0100
,  // measure 2
0001
0000
1000
0000
0100
0010
0001
0010
0100
0000
1000
0000
0001
0100
0010
0100
,  // measure 3
0001
0000
1000
0100
0000
0010
0100
0000
1010
0000
0000
1000
0000
0100
1000
0000
,  // measure 4
0001
0000
0010
0000
0100
0010
0000
0000
0001
0000
0100
0000
0010
0100
0010
0000
,  // measure 5
0110
0000
0000
0100
0000
0000
1001
0000
1000
0000
0001
0000
1000
0100
0020
0000
,  // measure 6
0000
0000
0000
0031
0000
0000
0001
0000
0000
0000
0000
0000
1001
0000
0000
0000
0000
0000
1000
0100
1000
0100
0000
0000
,  // measure 7
1100
0000
0000
0000
1000
0001
0100
0000
0101
0000
0001
0000
0100
0010
0100
0000
,  // measure 8
0001
0000
0000
0000
0000
0000
1000
0000
0000
0000
0000
0000
0010
0000
0000
1000
0000
0000
0001
0000
0000
0000
0000
0000
0010
0000
0000
0000
0000
0000
0100
0000
0000
0000
0000
0000
1000
0000
0100
0000
1000
0000
0100
0000
0000
0000
0000
0000
,  // measure 9
1100
0000
1000
0000
0001
0000
0100
0000
0010
0100
0001
0000
2000
0000
0000
0000
,  // measure 10
3100
0000
0000
0000
1000
0000
0000
0001
0000
0000
0010
0000
0100
0000
0000
1000
,  // measure 11
0100
0000
1000
0000
0001
0010
0100
0000
0010
0100
1000
0000
0002
0000
0000
0000
,  // measure 12
0103
0000
0000
0000
0001
0000
0000
1000
0000
0000
0100
0000
1000
0000
0000
0001
,  // measure 13
0100
0000
0001
0000
1000
0000
0010
0000
0100
0000
0001
0000
1000
0000
0010
0100
,  // measure 14
0001
0000
0010
0000
0100
0000
1000
0000
0001
0000
0010
0000
0100
0000
1000
0100
,  // measure 15
1000
0100
1000
0100
0010
0100
0010
0100
1000
0100
1000
0100
0010
0100
0010
0100
,  // measure 16
4000
0004
0000
0000
0000
0000
0000
0000
0000
0000
0000
3003
1001
0000
0000
0000
,  // measure 17
0110
0000
0000
0000
0000
0000
0100
0000
0000
0000
0000
0000
0010
0000
0000
0000
0000
0000
0100
0000
0000
0000
0000
0000
0010
0000
0000
0000
0000
0000
1000
0000
0000
0001
0000
0000
0100
0000
0000
0010
0000
0000
1000
0000
0000
0000
0001
0000
,  // measure 18
0000
0000
0010
0000
0000
0000
0001
0000
0000
0000
1000
0000
0100
0000
0000
0000
0000
0000
1000
0000
0000
0000
0000
0000
0100
0000
0000
0000
0000
0000
1000
0000
0000
0000
0000
0000
0001
0000
0000
0100
0000
0000
0010
0000
0000
0100
0000
0000
,  // measure 19
0001
0000
0100
0000
0010
0000
0000
1000
0000
0000
0001
0000
1000
0000
1001
0000
,  // measure 20
0001
0010
0100
1000
0001
0010
0100
1000
0001
0000
0001
0000
0044
0000
0000
0033
,  // measure 21
1001
0000
0000
0000
0000
0000
1000
0000
0000
0000
0000
0000
0001
0000
0000
0000
0000
0000
1000
0000
0000
0000
0000
0000
0001
0000
0000
0010
0000
0000
0100
0000
0000
0010
0000
0000
0001
0000
0000
0010
0000
0000
0100
0000
0000
0000
1000
0000
,  // measure 22
0000
0000
0100
0000
0000
0000
1000
0000
0000
0000
0001
0000
0100
0000
0000
0000
0000
0000
0100
0000
0000
0000
0000
0000
0101
0000
0000
0000
0000
0000
0001
0000
0000
0000
0000
0000
1000
0000
0000
0100
0000
0000
0010
0000
0000
0100
0000
0000
,  // measure 23
1000
0001
0400
0000
0310
0100
0001
0101
,  // measure 24
0000
0000
1000
0010
1000
0000
0001
0000
1001
0000
0010
0000
0101
0000
0000
0000
,  // measure 25
1001
0000
0000
0000
0000
0000
1000
0000
0000
0000
0000
0000
0100
0000
0000
0000
0000
0000
1000
0000
0000
0000
0000
0000
0001
0000
0000
0010
0000
0000
0100
0000
0000
1000
0000
0000
0001
0000
0000
1000
0000
0000
0100
0000
0000
0000
1000
0000
,  // measure 26
0000
0000
0100
0000
0000
0000
1000
0000
0000
0000
0001
0000
0100
0000
0000
0000
0000
0000
0001
0000
0000
0000
0000
0000
0101
0000
0000
0000
0000
0000
0100
0000
0000
0000
0000
0000
0001
0000
0000
1000
0000
0000
0100
0000
0000
1000
0000
0000
,  // measure 27
0004
0000
0000
0100
0000
0000
0100
0003
0101
0000
0001
0000
0000
0000
1001
0000
,  // measure 28
1000
0000
0100
0000
0001
0000
0100
0000
1000
0000
0010
0000
0440
0000
0000
0330
,  // measure 29
0110
0000
0000
0000
0000
0000
0010
0000
0000
0000
0000
0000
1000
0000
0000
0000
0000
0000
0001
0000
0000
0000
0000
0000
0010
0000
0000
0100
0000
0000
1000
0000
0000
0001
0000
0000
0100
0000
0000
0010
0000
0000
1000
0000
0000
0000
0010
0000
,  // measure 30
0000
0000
1000
0000
0000
0000
0001
0000
0000
0000
0010
0000
0001
0000
0000
0000
0000
0000
0010
0000
0000
0000
0000
0000
0100
0000
0000
0000
0000
0000
1000
0000
0000
0000
0000
0000
0001
0000
0000
0100
0000
0000
0010
0000
0000
0100
0000
0000
,  // measure 31
0004
0000
0000
0000
1000
0000
0000
0000
0103
0001
0100
0000
0200
0000
0001
0000
,  // measure 32
0300
0000
0001
0100
0010
0000
0100
0000
0010
0000
1000
0000
1010
0000
0000
0000
,  // measure 33
1001
0000
1000
0000
0001
0000
1000
0000
0001
0000
1000
0100
0000
0010
0100
1000
,  // measure 34
0001
0000
1000
0000
0001
0010
0100
0000
0010
0000
0001
0000
1000
0001
0010
0000
,  // measure 35
0100
0000
0010
0001
0000
1000
0001
0000
0010
0000
0100
0010
0000
0100
1000
0000
,  // measure 36
0001
0000
0100
0000
1000
0100
0010
0000
0100
0000
0001
0000
0010
0100
1000
0000
,  // measure 37
0001
0000
0010
0000
0100
0000
1000
0000
0001
0000
0010
0000
0100
0000
1000
0001
,  // measure 38
1000
0000
0010
0000
0100
0000
0001
0000
1000
0000
0010
0000
0100
0000
0001
1000
,  // measure 39
0001
1000
0001
1000
0100
1000
0100
0010
0100
0010
0100
1000
0100
1000
0010
1000
,  // measure 40
0040
4000
0000
0000
0000
0000
0000
0000
0000
0000
0000
3030
1010
0000
0000
0000
,  // measure 41
0202
0000
0000
0000
0303
0000
0100
0001
0100
0000
0010
0000
0100
0000
0010
0000
,  // measure 42
0000
0000
1000
0000
1000
0000
0100
0010
0001
0000
1000
0000
0001
0000
1000
0000
,  // measure 43
0000
0000
0010
0000
0010
0000
0100
0010
1000
0000
0001
0000
1000
0000
0001
0000
,  // measure 44
0000
0000
0100
0000
0100
0000
0010
0100
0001
0000
0010
0000
0001
0000
0010
0000
,  // measure 45
0200
0000
0000
0000
0300
0000
1000
0001
0100
0000
0010
0000
0100
0000
0010
0000
,  // measure 46
0000
0000
1000
0000
1000
0000
0100
0010
0001
0000
0100
0000
0001
0000
0100
0000
,  // measure 47
0000
0000
0001
0000
0001
0000
0010
0100
1000
0000
0001
0000
1000
0000
0001
0000
,  // measure 48
0000
0000
0010
0000
0010
0000
0100
0010
0001
0000
1000
0000
0001
0000
1000
0000
,  // measure 49
1001
0001
0010
0001
1000
0100
0020
0000
,  // measure 50
0031
0010
1000
0001
0100
1000
0001
0100
,  // measure 51
0010
0000
0100
0000
0001
0010
0100
0000
0010
0100
1000
0000
0002
0000
0000
0000
,  // measure 52
0013
0001
1000
0001
0100
1000
0100
0010
,  // measure 53
0100
0000
0001
0000
1000
0000
0010
0000
0100
0000
0001
0000
1000
0000
0010
0100
,  // measure 54
0001
0000
0010
0000
0100
0000
1000
0000
0001
0000
0010
0000
0100
0000
1000
0001
,  // measure 55
0100
0001
0100
0001
0100
0010
0100
0010
1000
0010
1000
0010
0100
0010
0100
0010
,  // measure 56
0400
0040
0000
0000
0000
0000
0000
0000
0000
0000
0000
0330
0110
0000
0000
0000
,  // measure 57
1001
0000
0000
0000
1100
0000
1000
0100
1000
0000
0001
0000
0100
0000
0001
0000
,  // measure 58
0101
0000
0100
0000
0100
0000
0010
0100
0001
0000
1000
0000
0001
0000
0010
0000
,  // measure 59
0101
0000
0100
0000
0100
0000
0010
0100
0001
0000
1000
0000
0100
0000
1000
0000
,  // measure 60
1100
0000
0100
0000
0100
0000
0010
0100
1000
0000
0001
0000
0010
0000
0100
0000
,  // measure 61
0110
0000
0000
0000
1001
0000
1000
0001
1000
0000
0100
0000
0010
0000
0100
0000
,  // measure 62
0110
0000
0010
0000
0010
0000
0001
0010
0100
0000
0010
0000
0001
0000
1000
0000
,  // measure 63
1001
0000
0001
0000
0001
0000
0100
0010
0100
0000
0001
0000
1000
0000
0010
0000
,  // measure 64
1010
0000
1000
0000
1000
0000
0100
0010
0001
0000
0010
0000
0101
0000
0001
0000
,  // measure 65
1001
0000
1000
0000
0100
0000
1000
0100
1000
0000
0001
0000
0010
0000
1000
0000
,  // measure 66
0010
0000
0001
0000
0001
0000
1000
0100
0010
0000
0100
0000
1000
0000
0001
0000
,  // measure 67
0100
0000
0010
0000
0010
0000
0100
0010
1000
0000
0001
0000
0100
0000
0010
0000
,  // measure 68
0110
0000
0000
0000
0000
0000
0010
0000
0000
0000
0000
0000
1000
0000
0000
0001
0000
0000
1000
0000
0000
0000
0000
0000
1001
0000
0000
0000
0000
0000
0001
0000
0000
0000
0000
0000
0001
0000
0010
0000
0001
0000
0010
0000
0000
0000
0000
0000
,  // measure 69
0011
0000
0010
0000
0100
0000
1000
0000
0001
1000
0010
0000
0100
0000
1000
0000
,  // measure 70
0100
0000
0010
0000
0010
0000
1000
0100
0010
0000
0001
0000
1000
0000
0001
0000
,  // measure 71
0101
0000
0100
0000
0100
0000
0010
0100
0001
0000
1000
0000
0100
0000
0010
0000
,  // measure 72
0101
0000
0000
0001
0000
0000
1001
0000
0000
1000
0000
0000
1000
0100
1000
0100
0000
0000
0110
0000
0000
0110
0000
0000
,  // measure 73
0020
0000
0030
0002
0000
0000
0003
2000
,  // measure 74
0100
3000
0020
0000
0030
0200
0000
0300
,  // measure 75
0002
0000
0003
2000
0000
0000
3000
0200
,  // measure 76
0010
0300
0020
0000
0031
0002
0000
0003
,  // measure 77
2000
0000
3000
0020
0000
0000
0030
0200
,  // measure 78
0010
0300
0002
0000
0003
2000
0000
3000
,  // measure 79
0020
0000
0030
0200
0000
0000
0300
0002
,  // measure 80
0000
0003
2000
0000
3000
0000
0000
0000
;

//---------------dance-single - ----------------
#NOTEDATA:;
#CHARTNAME:X-Scale 12;
#STEPSTYPE:dance-single;
#DESCRIPTION:;
#CHARTSTYLE:;
#DIFFICULTY:Medium;
#METER:8;
#RADARVALUES:0.623377,0.681771,0.193081,0.169912,0.220113,565.000000,540.000000,25.000000,22.000000,0.000000,0.000000,0.000000,0.000000,0.000000,0.623377,0.681771,0.193081,0.169912,0.220113,565.000000,540.000000,25.000000,22.000000,0.000000,0.000000,0.000000,0.000000,0.000000;
#CREDIT:;
#NOTES:
// measure 0
0000
0000
0000
0000
,  // measure 1
0000
0000
0000
0000
0000
0100
1000
0001
,  // measure 2
1000
0010
0100
1000
0100
0010
1000
0001
,  // measure 3
0010
0000
0000
0100
0000
0010
0100
0000
1000
0000
0000
0001
0000
1000
0001
0000
,  // measure 4
0010
1000
0001
0100
1000
0001
1000
0100
,  // measure 5
1100
0000
0000
1001
0001
1000
0001
0010
,  // measure 6
0000
0100
0100
0000
1100
0000
1001
0000
,  // measure 7
0101
0000
0000
1100
0100
1000
0001
0010
,  // measure 8
0000
0100
0100
0010
0011
0000
1000
0000
,  // measure 9
1001
0001
1000
0001
0010
0000
0100
1000
,  // measure 10
0001
0000
0000
0000
0100
0000
0000
0010
0000
0000
0100
0000
0001
0000
0000
1000
,  // measure 11
0000
0100
1000
0001
1000
0100
0010
0001
,  // measure 12
1000
0000
0000
0000
0100
0000
0000
0100
0000
0000
0010
0000
0100
0000
0000
0100
,  // measure 13
1000
0100
1000
0100
1000
0100
1000
0100
,  // measure 14
0010
0001
0010
0001
0010
0001
0010
0001
,  // measure 15
1000
0000
0010
0000
0001
0000
0010
0000
0100
0010
1000
0000
2000
0000
0000
0000
,  // measure 16
3100
0000
0000
0000
0010
0000
0000
0010
0000
0000
0001
0000
0011
0000
0000
0010
,  // measure 17
0011
0000
0001
0000
1000
0000
0000
1000
0000
0000
0010
0000
1000
0000
0000
1000
,  // measure 18
0100
0000
0010
0000
0100
0000
1000
0000
0001
1000
0001
0000
0020
0000
0000
0000
,  // measure 19
0130
0000
0010
0000
0001
0000
0000
0001
0000
0000
1000
0000
0001
0000
0000
0001
,  // measure 20
0000
0000
0010
0000
0100
0000
1000
0000
0001
1000
0010
0000
2000
0000
0000
3000
,  // measure 21
1010
0000
0010
0000
1000
0000
0001
0000
0100
0010
0100
0000
0001
0000
0010
0000
,  // measure 22
0100
0000
1000
0000
0001
0000
0000
0001
0000
0000
0010
0000
0001
0000
0000
0001
,  // measure 23
1000
0000
0100
0000
0001
0100
1000
0000
0100
1000
0001
0000
0100
0000
0101
0000
,  // measure 24
0000
0000
0001
0010
0100
0000
1000
0000
0001
0000
1000
0000
0100
0000
1000
0000
,  // measure 25
1100
0000
0100
0000
0010
0000
0001
0000
1000
0000
0001
1000
0001
0000
1001
0000
,  // measure 26
1000
0000
0100
0000
0010
0000
0100
0000
1000
0000
0001
0000
0010
0100
0010
0100
,  // measure 27
0010
0001
2000
0000
3010
1000
0002
0010
,  // measure 28
0013
0000
0001
0000
1000
0000
0001
0000
0100
0001
1000
0000
0020
0000
0000
0000
,  // measure 29
0130
0000
0001
0000
0010
0000
0100
0000
1000
0001
1000
0000
0020
0000
0100
0000
,  // measure 30
0000
0000
0030
0000
1000
0000
0000
0001
0000
0000
0010
0000
0100
0000
0000
1000
,  // measure 31
0000
0000
0001
0000
1000
0100
0010
0000
0001
0100
0010
0000
1000
0000
1001
0000
,  // measure 32
0001
0000
0010
0100
0010
0000
0001
0000
1000
0000
0001
0000
0010
0000
0100
0000
,  // measure 33
1010
0000
0000
0000
1000
0000
0000
0000
0001
0000
0010
0000
0100
0010
0001
0000
,  // measure 34
1000
0000
0001
0000
0100
0001
1000
0000
0010
0000
0100
0000
0010
1000
0001
1000
,  // measure 35
0010
0000
0100
0001
0000
1000
0010
0000
0100
0000
0010
0000
1000
0000
0100
0000
,  // measure 36
0001
1000
0010
0001
0100
0001
1000
0001
,  // measure 37
0010
0100
0010
0100
0010
0100
0010
0100
,  // measure 38
1000
0001
1000
0001
1000
0001
1000
0002
,  // measure 39
0000
0000
0000
0000
0013
0001
0000
1000
0000
0000
0000
0000
0010
1000
0001
0000
,  // measure 40
0000
0000
0000
0000
0010
0100
0000
1000
0000
0000
0000
0000
1001
0000
0000
0000
,  // measure 41
2000
0000
3000
0100
0010
0001
1000
0001
,  // measure 42
0000
0100
0010
0100
0001
0010
0100
1000
,  // measure 43
0000
0001
1000
0001
0100
0010
1000
0001
,  // measure 44
0000
0100
0010
0100
0001
0010
1000
0010
,  // measure 45
0002
0000
0003
1000
0100
0001
0100
1000
,  // measure 46
0000
0010
0100
0010
1000
0001
0010
0100
,  // measure 47
0000
1000
0100
1000
0001
0100
0010
1000
,  // measure 48
0000
0001
1000
0001
0010
0100
1000
0001
,  // measure 49
1001
0000
1000
0200
0010
0000
1000
2300
,  // measure 50
0001
0000
3020
0000
0100
0230
0001
0000
,  // measure 51
0301
0000
1000
0020
0100
0000
1000
2030
,  // measure 52
0100
0000
3002
0000
0010
0023
0000
0000
,  // measure 53
0130
0010
0100
0010
0001
0010
0001
1000
,  // measure 54
0001
1000
0001
0100
0001
0100
0010
0100
,  // measure 55
0010
1000
0001
0100
0010
1000
0001
0010
,  // measure 56
0100
0000
1000
0000
0001
0000
0010
0000
0100
0000
1000
0000
0001
0000
0000
1000
,  // measure 57
1001
0000
0001
0010
1000
0010
0100
1000
,  // measure 58
0001
0100
0100
0010
1000
0100
0001
0100
,  // measure 59
1000
0010
0010
0100
0001
0010
0100
1000
,  // measure 60
0001
0010
0010
0100
0010
0001
1000
0001
,  // measure 61
1001
0000
1000
0100
0001
1000
0010
0001
,  // measure 62
0100
0010
0010
1000
0001
0010
1000
0010
,  // measure 63
0001
0100
0100
0010
0100
0001
0010
0100
,  // measure 64
1000
0010
0010
1000
0001
0010
0001
1000
,  // measure 65
1001
0000
1000
0000
0100
0000
0000
0010
0000
0000
0100
0000
0010
0000
0000
0001
,  // measure 66
0000
0000
1000
0000
0010
1000
0010
0000
0100
0010
0100
0000
0002
0000
0000
0000
,  // measure 67
0013
0000
0100
0000
1000
0000
0000
0001
0000
0000
0100
0000
0001
0000
0000
1000
,  // measure 68
0000
0010
1000
0001
0011
0010
0001
1000
,  // measure 69
1010
0000
1000
0000
0001
0000
0010
0000
0100
0010
0100
0000
2000
0000
0000
0000
,  // measure 70
3001
0000
0000
0000
0100
0000
0000
0010
0000
0000
0100
0000
0001
0000
0000
0010
,  // measure 71
0000
0000
0100
0000
1000
0100
0010
0000
0100
0010
0001
0000
0200
0000
0000
0000
,  // measure 72
0310
0000
0000
0000
0110
0000
0000
0100
0000
0000
0001
0000
0010
0000
0100
0000
,  // measure 73
0210
0000
0000
0010
0000
0000
0000
1000
,  // measure 74
0000
0000
0010
0000
0000
0001
0000
0000
,  // measure 75
1000
0000
0000
0001
0000
0000
0000
0010
,  // measure 76
0000
0000
1000
0000
0000
0001
0000
0000
,  // measure 77
1300
0000
0000
0001
0000
0000
0000
0010
,  // measure 78
0100
0000
0010
0000
0000
0001
0000
0000
,  // measure 79
1000
0000
0000
0010
0000
0000
0000
1000
,  // measure 80
0000
0001
0000
0000
;

//---------------dance-single - ----------------
#NOTEDATA:;
#CHARTNAME:X-Scale 7;
#STEPSTYPE:dance-single;
#DESCRIPTION:;
#CHARTSTYLE:;
#DIFFICULTY:Easy;
#METER:5;
#RADARVALUES:0.425883,0.526823,0.239421,0.077233,0.000000,386.000000,355.000000,31.000000,10.000000,0.000000,0.000000,0.000000,0.000000,0.000000,0.425883,0.526823,0.239421,0.077233,0.000000,386.000000,355.000000,31.000000,10.000000,0.000000,0.000000,0.000000,0.000000,0.000000;
#CREDIT:;
#NOTES:
0000
0000
0000
0000
,
0001
0000
0000
1000
0000
0000
0000
0100
,
0000
0000
1000
0000
0000
0001
0000
0000
,
0010
0000
0000
0100
0000
0000
0000
1000
,
0000
0000
0010
0000
0000
1000
0000
0000
,
1001
0000
0000
0100
0001
1000
0010
0000
,
0000
0100
0100
0000
0001
0000
0020
0030
,
0110
0000
0000
0100
1000
0001
1000
0000
,
0000
0100
0100
0000
0010
0000
0020
0030
,
0011
0001
0010
0100
,
1000
0001
0010
0100
,
1000
0001
0100
0010
,
1000
0001
0100
0010
,
1000
0100
1000
0100
0010
0001
0010
0001
,
0100
0010
0100
0010
1000
0001
1000
0001
,
0010
0100
0010
0001
1000
0010
0100
0010
,
2000
0000
0000
3100
,
1100
0000
1000
0000
1001
0000
0000
0011
,
0000
0001
0100
0001
0010
0100
1000
0000
,
1100
0000
1000
0000
0000
0010
0000
0110
,
0000
0010
0100
0010
1000
0001
0010
0000
,
0101
0000
0001
0000
1001
0000
0000
1100
,
0000
0000
1000
0000
0010
1000
0001
0000
,
0012
0000
0000
0003
1000
0100
0000
0020
,
0000
0030
0001
0010
0100
0010
0001
0010
,
0110
0000
0100
0000
1010
0000
0000
1001
,
0000
1000
0001
0100
0010
0100
0001
0000
,
0011
0000
0001
0000
0000
1000
0000
1100
,
0000
0100
0010
0001
1000
0001
0100
0000
,
1010
0000
1000
0000
1001
0000
0000
0011
,
0000
0000
0010
0000
0100
0010
0001
0000
,
0012
0000
0000
0003
1000
0100
0000
0020
,
0000
0030
0001
0010
0100
0010
0001
0010
,
0110
0100
0010
0001
,
1000
0100
0010
0001
,
1000
0010
0100
0001
,
1000
0010
0100
0001
,
1000
0010
1000
0010
0100
0001
0100
0001
,
0010
0100
0010
0100
0010
0001
0010
0001
,
1000
0100
0010
0001
1000
0100
0010
0001
,
2000
0000
0000
3000
0002
0000
1000
0003
,
1001
0000
0001
0010
,
0000
0001
1000
0001
0010
0000
0100
0000
,
0000
1000
0100
1000
0001
0000
0100
0000
,
0000
0010
0100
0010
1000
0000
0001
0000
,
1000
0000
0100
0010
,
0000
0100
0010
0100
1000
0000
0001
0000
,
0000
0100
0010
1000
0001
0000
0010
0000
,
0000
0100
0010
0100
1000
0000
0001
0000
,
1001
1000
0100
0010
,
0001
1000
0100
0010
,
0001
1000
0010
0100
,
0001
1000
0010
0100
,
0001
0010
0001
0010
0100
1000
0100
1000
,
0100
0010
0100
0010
0001
0100
0001
0100
,
0010
1000
0001
0100
0010
1000
0001
0100
,
0020
0000
0000
1030
,
1010
1000
0001
1000
,
0100
0010
0100
1000
,
0001
0100
0010
0100
,
0001
0010
0100
1000
,
1100
1000
0001
0100
,
0010
0100
0001
0010
,
0100
0010
0001
1000
,
0100
0010
0001
0011
,
0001
1000
0100
1000
,
0001
0010
0100
0010
,
0001
1000
0010
1000
,
0001
0000
0100
0000
0010
0100
0010
0100
,
0110
1000
0010
1000
,
0001
0010
0100
0010
,
0011
1000
0001
0010
,
0101
0000
0100
0010
1000
0001
0010
0100
,
1100
0000
0000
1000
0000
0000
0000
0001
,
0000
0000
0010
0000
0000
0001
0000
0000
,
1000
0000
0000
0100
0000
0000
0000
0010
,
0000
0000
0100
0000
0000
1000
0000
0000
,
0001
0000
0000
1000
0000
0000
0000
0010
,
0000
0000
0100
0000
0000
0001
0000
0000
,
1000
0000
0000
0100
0000
0000
0000
1000
,
0000
0001
0000
0000
;
