#VERSION:0.83;
#TITLE:Miracle;
#SUBTITLE:;
#ARTIST:Calvin Harris & Ellie Goulding;
#TITLETRANSLIT:;
#SUBTITLETRANSLIT:;
#ARTISTTRANSLIT:;
#GENRE:Trance;
#ORIGIN:;
#CREDIT:;
#BANNER:Miracle-bn.png;
#BACKGROUND:Miracle-bg.png;
#PREVIEWVID:;
#JACKET:Miracle-jacket.png;
#CDIMAGE:;
#DISCIMAGE:;
#LYRICSPATH:;
#CDTITLE:cdtitle.png;
#MUSIC:Miracle.ogg;
#OFFSET:0.101000;
#SAMPLESTART:67.871002;
#SAMPLELENGTH:13.427000;
#SELECTABLE:YES;
#BPMS:0.000=143.000;
#STOPS:62.000=1.259,
123.000=1.259;
#DELAYS:;
#WARPS:;
#TIMESIGNATURES:0.000=4=4;
#TICKCOUNTS:0.000=4;
#COMBOS:0.000=1;
#SPEEDS:0.000=1.000=0.000=0;
#SCROLLS:0.000=1.000;
#FAKES:;
#LABELS:0.000=Song Start;
#BGCHANGES:0.500=Miracle.avi=1.000=1=0=0=StretchNoLoop==CrossFade==,
99999=-nosongbg-=1.000=0=0=0 // don't automatically add -songbackground-
;
#KEYSOUNDS:;
#ATTACKS:
;

//---------------dance-single - ----------------
#NOTEDATA:;
#CHARTNAME:X-Scale 3;
#STEPSTYPE:dance-single;
#DESCRIPTION:;
#CHARTSTYLE:;
#DIFFICULTY:Beginner;
#METER:2;
#RADARVALUES:0.123494,0.213572,0.016950,0.000000,0.000000,102.000000,100.000000,2.000000,0.000000,0.000000,0.000000,0.000000,0.000000,0.000000,0.123494,0.213572,0.016950,0.000000,0.000000,102.000000,100.000000,2.000000,0.000000,0.000000,0.000000,0.000000,0.000000,0.000000;
#CREDIT:iamthek3n;
#NOTES:
0000
0000
0000
0000
,
0000
0000
0000
0000
,
0000
0000
0000
0000
,
0000
0000
0000
0000
,
0000
0000
0000
0000
,
0000
0000
0000
0000
,
0000
0000
0000
0000
,
0000
0000
0000
0000
,
0000
0000
1000
0000
,
0000
0000
0000
0000
,
0000
0000
0001
0000
,
0000
0000
0000
0000
,
0000
0000
1000
0000
,
0000
0000
0000
0000
,
0000
0000
0001
0000
,
0000
0000
0000
0010
,
0000
0100
0000
0010
,
0000
0100
0000
1000
,
0000
0001
0000
1000
,
0000
0001
0000
0100
,
0000
0010
0000
0100
,
0000
0010
0000
1000
,
0000
0001
0000
1000
,
0000
0001
0000
0100
,
0000
0010
0000
1000
,
0000
0100
0000
0010
,
0000
0001
0000
0010
,
0000
0100
0000
1000
,
0000
0010
0000
0100
,
0000
0001
0000
0100
,
0000
0010
0000
1000
,
0001
0000
0000
0000
,
0010
0000
0100
0000
,
1000
0000
0000
0000
,
0000
0000
0000
0000
,
0010
0000
0000
0000
,
1000
0000
0001
0000
,
0100
0000
0000
0000
,
0000
0000
0000
0000
,
1001
0000
1000
0000
,
0010
0000
1000
0000
,
0001
0000
0100
0000
,
0001
0000
0010
0000
,
0100
0000
0010
0000
,
0001
0000
1000
0000
,
0010
0000
1000
0000
,
0100
0000
0010
0000
,
0100
0000
1000
0000
,
0001
0000
1000
0000
,
0010
0000
0100
0000
,
0001
0000
0100
0000
,
0010
0000
1000
0000
,
0001
0000
0010
0000
,
0100
0000
0010
0000
,
0001
0000
1000
0000
,
1001
0000
0001
0000
0000
1000
0000
0001
,
0000
0000
0100
0000
0000
0001
0000
0000
,
1000
0000
0000
0100
0000
1000
0000
0000
,
0001
0000
0001
0000
0000
0100
0000
0000
,
0001
0000
1000
0000
0000
0100
0000
1000
,
0000
0000
0001
0000
0000
0100
0000
0000
,
0001
0000
1000
0000
0000
0100
0000
0000
,
0010
0000
0010
0000
0000
0001
0000
0000
,
1000
0000
0000
0000
;

//---------------dance-single - ----------------
#NOTEDATA:;
#CHARTNAME:X-Scale 8;
#STEPSTYPE:dance-single;
#DESCRIPTION:;
#CHARTSTYLE:;
#DIFFICULTY:Easy;
#METER:6;
#RADARVALUES:0.303892,0.400448,0.059326,0.067801,0.000000,251.000000,244.000000,7.000000,8.000000,0.000000,0.000000,0.000000,0.000000,0.000000,0.303892,0.400448,0.059326,0.067801,0.000000,251.000000,244.000000,7.000000,8.000000,0.000000,0.000000,0.000000,0.000000,0.000000;
#CREDIT:iamthek3n;
#NOTES:
0000
0000
0000
0000
,
0000
0000
0000
0000
,
0000
0000
0000
0000
,
0000
0000
0000
0000
,
0000
0000
0000
0000
,
0000
0000
0000
0000
,
0000
0000
0000
0000
,
0000
0000
0000
0000
,
0000
0000
2000
0000
,
0000
0000
0000
0000
,
0000
3020
0230
0000
,
0000
0000
0000
0000
,
0000
0000
0302
0000
,
0000
0000
0000
0000
,
0000
0023
0230
0000
,
0000
0000
0300
1001
,
1000
0000
0010
0000
1000
0100
0010
0000
,
0001
0000
0100
0000
0001
0010
0100
0000
,
1000
0100
0010
0000
0001
1000
0010
0100
,
0000
0010
0000
0100
0001
1000
0000
0100
,
0010
0001
0000
0010
0100
1000
0000
0001
,
1000
0010
0000
0100
0010
1000
0001
0000
,
0010
0000
0100
0010
0001
0000
1000
0000
,
0010
1000
0001
0000
0010
0000
1001
1000
,
0010
0100
0000
0001
0010
0100
0000
1000
,
0001
0100
0000
0010
0100
0001
1000
0000
,
0100
0010
0001
0000
1000
0100
0010
0001
,
0000
0100
0001
1000
0010
0100
0000
0001
,
0010
0100
0000
1000
0100
0010
0000
0001
,
1000
0100
0000
0010
0100
1000
0001
0000
,
0100
0001
1000
1001
,
0001
0000
0010
0100
0000
0100
0000
0000
,
1000
0100
0010
0000
0001
0010
0100
0000
,
1000
0001
0000
0010
0000
0001
0000
0010
,
0000
0000
0000
0000
,
1000
0100
0010
0001
0000
0000
0000
0000
,
0100
0001
1000
0000
0001
0010
0100
0000
,
1000
0001
0100
0000
0000
0000
0001
1000
,
0200
0000
0310
0001
2000
0000
3001
0000
,
0101
0001
1000
0000
0001
0000
0100
0000
,
0001
0010
0100
0000
1000
0100
0010
0000
,
0001
1000
0010
0000
1000
0000
0100
0000
,
1000
0001
0010
0100
,
1000
0100
0010
0000
0001
0000
1000
0000
,
0001
0010
0100
0000
1000
0100
0010
0000
,
0001
0010
0100
0000
1000
0000
0001
0000
,
0100
0010
0000
0010
1000
0000
1010
0000
,
1001
0000
0001
0000
0100
0001
1000
0000
,
0100
0000
0010
0000
0100
0010
0001
0000
,
1000
0000
0001
0000
0010
0000
0100
0010
,
0001
0000
0001
0000
1000
0000
0010
1000
,
0100
0000
1000
0000
0001
0000
0100
0001
,
1000
0000
0001
0000
0010
0000
0100
0010
,
0001
0000
1000
0000
1000
0000
0001
0010
,
0100
0000
1000
0000
0010
0010
0000
0000
,
1001
0000
1000
0000
0010
0000
1000
0100
,
0010
0000
0010
0000
0001
0000
0010
0100
,
1000
0000
0001
0000
0000
0100
0000
0000
,
0001
0100
0001
0000
0010
0000
0100
0000
,
1000
0000
0001
0000
0100
0000
0010
0100
,
0001
0000
0001
0000
1000
0000
0100
0010
,
0001
0000
1000
0000
0000
0001
0000
0000
,
0100
0010
0100
0000
0001
0000
0000
0000
,
1000
0000
0000
0000
;

//---------------dance-single - ----------------
#NOTEDATA:;
#CHARTNAME:X-Scale 11;
#STEPSTYPE:dance-single;
#DESCRIPTION:;
#CHARTSTYLE:;
#DIFFICULTY:Medium;
#METER:8;
#RADARVALUES:0.410436,0.533930,0.144076,0.254252,0.059326,339.000000,322.000000,17.000000,30.000000,0.000000,0.000000,0.000000,0.000000,0.000000,0.410436,0.533930,0.144076,0.254252,0.059326,339.000000,322.000000,17.000000,30.000000,0.000000,0.000000,0.000000,0.000000,0.000000;
#CREDIT:iamthek3n;
#NOTES:
0000
0000
0000
0000
,
0000
0000
0000
0000
,
0000
0000
0000
0000
,
0000
0000
0000
0000
,
0000
0000
0000
0000
,
0000
0000
0000
0000
,
0000
0000
0000
0000
,
0000
0000
0000
0000
,
0000
0001
0100
0002
0000
2000
0000
0000
,
0000
3003
0000
0000
0000
0000
0000
0000
,
0000
1000
0100
0010
0000
0002
0200
0000
,
0000
0000
0303
0000
,
0000
0000
1000
0000
0001
0000
0010
0000
0000
0200
0000
0000
2000
0000
0000
0000
,
0000
0000
3300
0000
,
0000
0010
1000
0002
0020
0000
0000
0000
,
0000
0000
0000
0000
0033
0000
0002
0100
,
0000
1000
0000
0100
0103
0001
1000
0100
,
0000
0010
0000
0001
0010
0100
2000
0000
,
3010
1000
0002
0000
1003
0100
0010
0001
,
0000
1000
0000
0001
0010
0100
0000
1000
,
0100
0010
0000
0001
1000
0010
0000
0001
,
0010
1000
0001
0000
0100
0001
1000
0010
,
0000
0100
0001
0010
0000
0100
1000
0001
,
1000
0000
0100
0000
0010
0000
0002
0100
,
0000
1000
0000
0100
0003
0001
0010
0100
,
0000
1000
0100
0010
0001
1000
0002
0000
,
0103
0001
0020
0000
0130
1000
0100
0010
,
0000
0001
0010
1000
0010
0100
0000
1000
,
0100
0010
0000
0001
0100
0010
0000
1000
,
0001
0200
0010
0000
0301
1000
0010
1000
,
0000
0100
0010
0001
1000
0001
0101
0000
,
0001
0010
0100
1000
0000
0000
0000
0000
,
0001
1000
0010
0000
1000
0100
0010
0000
,
0001
1000
0010
0100
0000
0100
0000
0100
,
0000
0100
0000
0000
0000
0000
0000
0000
,
0001
0010
0100
1000
0000
0000
0000
0000
,
0001
0100
0010
0000
0001
0010
0100
0000
,
0001
0010
0100
1000
0000
1000
0010
0001
,
0020
0000
1030
0010
0200
0000
0301
1000
,
1100
1000
0001
0100
0001
0000
0010
0000
,
0001
0010
0100
0000
1000
0100
0010
0000
,
0001
1000
0010
1000
0001
0000
0100
0010
,
1000
0100
1000
0000
0001
0000
0100
0000
0001
0100
0001
0000
0100
0000
0010
0000
,
1000
0100
1000
0001
0010
0000
0100
0010
,
0001
0010
0100
0000
1000
0100
0010
0000
,
0001
0000
1000
0000
0010
1000
0010
0000
0100
0000
0001
0000
1000
0000
0001
0000
,
0200
0000
1300
0100
0020
0030
0110
1000
,
1001
0000
0000
0000
0001
0000
0000
0000
0100
0000
0001
0000
1000
0100
0010
0000
,
0001
0100
0101
0000
1000
0100
1100
0000
,
0001
0010
0200
0300
0100
1000
0001
0100
,
0020
0030
0020
0030
0010
0100
1000
0100
,
0001
0000
0000
0000
1000
0000
0001
0000
0100
0000
0010
0100
1000
0000
0100
0000
,
0001
0000
1000
0000
1001
0000
0000
0000
0100
0000
0001
0000
0101
0000
0001
0010
,
0100
1000
0002
0003
0001
0010
0100
1000
,
0020
0000
0000
0000
0031
0000
0010
0000
2000
0000
0100
0000
3100
0000
1000
0100
,
1000
0000
1001
0001
0100
0010
0100
0001
,
2000
0000
3000
0000
2000
0000
3000
0100
0010
0000
0001
0000
1000
0000
0001
0010
,
0100
0000
1000
0000
0100
0000
1100
0000
0000
0000
1001
0000
0000
0100
0001
0000
,
1000
0001
1000
0001
0100
0101
0002
0000
,
1003
0000
1001
0000
0001
0010
0100
1000
,
0020
0000
0030
0000
0020
0000
0030
0100
0010
0000
1000
0000
0001
0000
0010
0100
,
1000
0000
0001
0000
1000
0000
1001
0000
0000
0000
0011
0000
0000
0001
1000
0000
,
0100
1000
0100
0010
0001
0100
0101
0000
,
1001
0000
0000
0000
;

//---------------dance-single - ----------------
#NOTEDATA:;
#CHARTNAME:X-Scale 13;
#STEPSTYPE:dance-single;
#DESCRIPTION:;
#CHARTSTYLE:;
#DIFFICULTY:Hard;
#METER:9;
#RADARVALUES:0.452811,0.533930,0.152551,0.262727,0.131364,374.000000,356.000000,18.000000,31.000000,0.000000,0.000000,1.000000,0.000000,0.000000,0.452811,0.533930,0.152551,0.262727,0.131364,374.000000,356.000000,18.000000,31.000000,0.000000,0.000000,1.000000,0.000000,0.000000;
#CREDIT:iamthek3n;
#NOTES:
// measure 0
0000
0000
0000
0000
,  // measure 1
0000
0000
0000
0000
,  // measure 2
0000
0000
0000
0000
,  // measure 3
0000
0000
0000
0000
,  // measure 4
0000
0000
0000
0000
,  // measure 5
0000
0000
0000
0000
,  // measure 6
0000
0000
0000
0000
,  // measure 7
0000
0000
0000
0000
,  // measure 8
0000
1000
0100
0010
0000
0002
0000
0000
,  // measure 9
0000
0000
0003
0000
0000
0000
1000
0000
0020
0000
0030
0200
0000
0300
2000
0000
,  // measure 10
3000
0100
0001
1000
0000
0100
0020
0000
,  // measure 11
0000
0000
0032
0000
,  // measure 12
0000
0000
1003
0000
0001
0000
0100
0000
0000
0010
0000
0000
2000
0000
0000
0000
,  // measure 13
0000
0000
3002
0000
,  // measure 14
0000
0013
0100
2000
0002
0000
0000
0000
,  // measure 15
0000
0000
3003
2000
,  // measure 16
0001
0000
0010
0000
3001
0010
0100
1000
,  // measure 17
0001
0100
0000
0010
0100
0001
2000
0000
,  // measure 18
3100
0001
0200
0000
0301
0100
1000
0001
,  // measure 19
0000
0100
0001
1000
0001
0200
0000
1300
,  // measure 20
0100
0002
0000
1003
0010
0200
0000
0301
,  // measure 21
1000
0000
0002
0000
0000
0000
0000
0000
0013
0000
0100
0000
1000
0000
0000
0100
,  // measure 22
0000
0000
1000
0000
0000
0000
0001
0000
1000
0010
0000
0000
1000
0000
0000
0000
,  // measure 23
0001
0000
1000
0100
0010
0000
1001
1000
,  // measure 24
0010
1000
0100
0001
0100
1000
0100
0010
,  // measure 25
0001
1000
0001
0010
0100
1000
0020
0000
,  // measure 26
0031
0010
2000
0000
3001
0010
0100
1000
,  // measure 27
0000
0010
0100
0001
1000
0020
0000
0031
,  // measure 28
0010
2000
0000
3010
0100
0002
0000
0013
,  // measure 29
0100
0000
2000
0000
0100
0000
0000
0000
3001
0000
0010
0000
0100
0000
0000
0010
,  // measure 30
0000
0000
0001
0000
0100
0001
0000
0000
1000
0000
0100
0000
1100
0000
0000
0000
,  // measure 31
1001
1000
0001
0100
0000
0100
0000
0000
,  // measure 32
0001
0010
0100
0000
1000
0010
0100
0000
,  // measure 33
0001
0010
0100
1000
0000
1000
0000
0001
,  // measure 34
0000
0001
0000
2000
0000
0000
0000
0000
,  // measure 35
3001
0010
0100
1000
0000
0001
0000
1000
,  // measure 36
0001
0010
0100
0000
1000
0010
0100
0000
,  // measure 37
0001
0010
0100
1000
0000
0010
1000
0001
,  // measure 38
0200
0000
0000
0000
1300
0000
0100
0000
0002
0000
0000
0000
1003
0001
1000
0001
,  // measure 39
1000
0100
0010
0001
0100
0001
0000
0001
,  // measure 40
0100
0010
1000
0010
0001
0010
0100
0001
,  // measure 41
1000
0000
0100
0000
0010
0000
0001
0000
1000
0001
0100
0000
0010
0000
0100
0000
,  // measure 42
0001
0000
0010
0000
0100
0010
0001
0000
0010
0000
0100
0000
1000
0001
0100
0000
,  // measure 43
0010
0100
0001
1000
0010
0100
0000
0100
,  // measure 44
0010
0100
0001
0000
1000
0000
0001
0000
0100
0001
1000
0000
0001
0000
1000
0000
,  // measure 45
0010
0000
0100
0000
0001
0010
0100
0000
1000
0000
0001
0000
1000
0000
0100
0000
,  // measure 46
0020
0000
0000
0000
0031
0000
0010
0000
0200
0000
0000
0000
1300
0100
1000
0100
,  // measure 47
1000
0100
1001
0000
0001
0100
1001
0000
,  // measure 48
1000
0100
0010
0001
0100
0010
1000
0001
,  // measure 49
0100
0001
0100
0000
0020
0000
0030
0000
0010
0000
0100
0000
0001
0000
1000
0000
,  // measure 50
0100
0010
0000
0010
0001
0000
0010
0100
1000
0000
0010
0000
0001
0000
0010
0000
,  // measure 51
1000
0001
0101
0000
0001
1000
1100
0000
,  // measure 52
1000
0000
0010
0000
0100
0000
0001
0000
0010
0000
0100
0000
1000
0000
0001
0100
,  // measure 53
0010
1000
0020
0030
0010
0100
1000
0100
,  // measure 54
0002
0000
0000
0000
1003
0000
1000
0000
0001
0000
0001
0000
1000
0001
0100
0001
,  // measure 55
1000
0000
0000
0000
0001
0000
0101
0000
0000
0000
1000
0000
0000
0001
0100
0000
,  // measure 56
0101
0000
0000
0000
1001
0000
0001
1000
0010
0000
0010
0000
1000
0000
0001
0000
,  // measure 57
1000
0000
0000
0000
1001
0000
1000
0000
0100
0000
0110
0000
0000
0010
0001
0000
,  // measure 58
0100
0000
0100
0000
0100
0000
0010
0100
0001
0000
1000
0000
0004
0000
0000
0000
,  // measure 59
0103
0000
0000
0000
0101
0000
1000
0000
0000
0000
1001
0000
0000
0100
1000
0000
,  // measure 60
1100
0000
0000
0000
1001
0000
1000
0001
0100
0000
1000
0000
0100
0000
0010
0000
,  // measure 61
0100
0000
0001
0000
0100
0000
0010
0000
0000
0000
1001
0000
0000
0100
1000
0000
,  // measure 62
0001
0000
0001
0000
0001
0000
0100
0001
1000
0000
0001
0000
0100
0000
0000
0000
,  // measure 63
1001
0000
0000
0000
;
