#TITLE:Mine;
#SUBTITLE:;
#ARTIST:Slayyyter;
#TITLETRANSLIT:;
#SUBTITLETRANSLIT:;
#ARTISTTRANSLIT:;
#GENRE:House;
#CREDIT:;
#BANNER:Mine-bn.png;
#BACKGROUND:Mine-bg.png;
#LYRICSPATH:;
#CDTITLE:cdtitle.png;
#MUSIC:Mine.ogg;
#OFFSET:-0.004000;
#SAMPLESTART:31.938999;
#SAMPLELENGTH:15.484000;
#SELECTABLE:YES;
#BPMS:0.000000=124.000000
,130.000000=62.000000
;
#STOPS:
;
#BGCHANGES:
;
#KEYSOUNDS:;
#ATTACKS:;

//---------------dance-single - ----------------
#NOTES:
     dance-single:
     X-Scale 13:
     Hard:
     9:
     0.572290,0.794495,0.268445,0.216821,0.588515,388.000000,362.000000,26.000000,21.000000,0.000000,0.000000,0.572290,0.794495,0.268445,0.216821,0.588515,388.000000,362.000000,26.000000,21.000000,0.000000,0.000000:
// measure 0
0000
0000
0000
0000
0000
0000
0000
0000
0001
0000
0000
0000
0001
0000
0000
0010
,  // measure 1
0000
0000
0010
0000
0000
0010
0000
0000
0100
0000
0000
0000
0100
0000
0000
1000
,  // measure 2
0000
0000
1000
0000
0000
1000
0000
0000
0100
0000
0000
0000
0100
0000
0000
0010
,  // measure 3
0000
0000
0010
0000
0000
0010
0000
0000
0001
0000
0000
0000
0001
0000
0000
0010
,  // measure 4
0000
0000
0100
0000
0010
0100
0010
0000
0001
0000
0000
0000
0001
0000
0000
0010
,  // measure 5
0000
0000
0010
0000
0000
0010
0000
0000
0100
0000
0000
0000
0100
0000
0000
1000
,  // measure 6
0000
0000
1000
0000
0000
1000
0000
0000
0010
0000
0000
0000
0010
0000
0000
0100
,  // measure 7
0000
0000
0100
0000
0000
0100
0000
0000
0001
0000
0000
0000
0001
0000
0000
1000
,  // measure 8
0000
0000
0010
0000
0000
0010
0000
0000
0100
0000
0010
0000
1000
0000
0100
0000
,  // measure 9
0001
0000
0100
0010
0000
0000
0001
0000
0000
0100
0000
0000
1000
0000
0000
0100
0000
0000
0001
0000
0000
0010
0000
0000
,  // measure 10
0100
0000
0000
0000
0010
0000
0001
0000
0000
0000
0000
0000
1000
0000
0000
0001
0000
0000
1000
0000
0000
0000
0000
0000
0001
0000
0000
0000
0000
0000
1000
0000
0000
0000
0000
0000
0100
0000
0000
0000
0000
0000
0001
0000
0000
0000
0000
0000
,  // measure 11
0100
0000
0010
0100
0000
0000
1000
0000
0000
0001
0000
0000
0100
0000
0000
0010
0000
0000
0100
0000
0000
0001
0000
0000
,  // measure 12
0010
0000
0000
0000
0100
0000
1000
0000
0000
0000
0000
0000
0001
0000
0000
1000
0000
0000
0001
0000
0000
0000
0000
0000
0100
0000
0000
0000
0010
0000
0100
0000
0000
0000
0000
0000
0001
0000
0000
0000
0000
0000
1000
0000
0000
0000
0000
0000
,  // measure 13
0001
0000
0010
0100
0000
0000
1000
0000
0000
0001
0000
0000
1000
0000
0010
0100
0000
0000
0001
0000
0000
0100
0000
0000
,  // measure 14
0010
0000
0100
0001
0000
0000
1000
0000
0000
0001
0000
0000
0100
0000
0010
1000
0000
0000
0100
0000
0000
0010
0000
0000
,  // measure 15
0001
0000
0010
0100
0000
0000
1000
0000
0000
0001
0000
0000
0100
0000
0010
0100
0000
0000
0001
0000
0000
1000
0000
0000
,  // measure 16
0010
0000
0000
0000
0000
0000
1000
0000
0000
0000
0000
0000
0001
0000
0000
0000
0010
0000
0001
0000
0000
0000
0000
0000
0011
0000
0000
0000
0000
0000
0000
0000
0000
0000
0000
0000
0011
0000
0000
0000
0000
0000
0000
0000
0000
0010
0000
0000
,  // measure 17
0100
0000
1000
0000
0001
0100
0000
0000
0101
0000
0000
0000
1010
0000
1000
0000
,  // measure 18
0100
0000
0010
0000
0001
1000
0001
0000
0011
0000
0000
0000
0011
0000
0000
1000
,  // measure 19
0001
0000
0100
0000
0020
0000
0000
0030
1010
0000
1000
0000
0010
0000
0001
0000
,  // measure 20
0010
0000
0100
0000
0010
1000
0010
0000
1010
0000
0000
0000
1010
0000
0000
1000
,  // measure 21
0010
0000
1000
0000
0001
0010
0000
0000
0011
0000
0000
0000
1100
0000
1000
0000
,  // measure 22
0010
0000
0100
0000
0001
0100
0001
0000
0002
0000
0000
0000
0013
0000
0100
0010
,  // measure 23
0001
0000
0010
0000
1000
0000
0001
0000
0100
0000
1000
0000
0010
0000
0000
1000
,  // measure 24
0001
0000
0000
0000
0000
0000
1000
0000
0000
0000
0000
0000
0001
0000
0000
0000
0100
0000
0010
0000
0000
0000
0100
0000
0001
0000
0000
0000
0000
0000
0000
0000
0000
0000
0000
0000
0011
0000
0000
0000
0000
0000
0000
0000
0000
0010
0000
0000
,  // measure 25
0100
0000
0010
0000
0002
0023
0032
0000
1003
0000
0001
0000
0000
0000
0010
0000
,  // measure 26
0100
0000
1000
0000
0200
2300
3200
0000
0310
0000
0000
0000
1001
0000
0000
0100
,  // measure 27
1000
0000
0001
0000
0010
0001
0000
0000
0100
0000
0000
0000
0101
0000
0100
0000
,  // measure 28
0001
0000
0010
0000
0100
1000
0100
0000
0010
0000
0000
0000
1001
0000
0000
1000
,  // measure 29
0100
0000
1000
0000
0002
2003
3002
0000
0013
0000
1000
0000
0000
0000
0010
0000
,  // measure 30
0100
0000
1000
0000
0200
0320
0230
0000
0310
0000
0000
0000
1001
0000
0000
1000
,  // measure 31
0100
0000
0000
0000
0000
0000
1000
0000
0000
0000
0000
0000
0001
0000
0000
0100
0000
0000
0000
0000
0000
0000
0000
0000
0101
0000
0000
0000
0100
0000
0001
0000
0000
0000
0000
0000
0000
0000
0000
0000
0000
0000
1000
0000
0000
0000
0000
0000
,  // measure 32
0001
0000
1000
0000
0020
0000
0000
0030
1010
0000
1000
0100
1010
1000
0002
0000
,  // measure 33
1003
0000
0100
0000
0010
0000
0001
0000
0010
0000
0100
0000
1000
0010
1000
0000
1010
0000
0000
0000
0001
0000
0010
0000
1000
0000
0010
0000
0002
0000
0000
0000
,  // measure 34
0003
1000
0100
0001
0100
0010
0002
0000
1000
0000
0000
0013
0001
1000
0020
0001
,  // measure 35
0000
0000
0130
0000
0000
0000
0010
0000
0100
0000
0001
0000
1000
0001
1000
0000
1100
0000
0000
0110
0000
0000
0101
0000
0001
0000
0010
0000
0100
0000
2000
0000
,  // measure 36
0000
0000
3001
0000
0100
0000
1000
0000
0001
0000
0010
0000
1000
0000
0001
0000
0100
0000
0000
0000
0010
0000
0100
0000
0001
0000
1000
0000
0001
0010
0100
0000
,  // measure 37
0010
0000
0000
0000
0001
0000
0100
0000
1000
0000
0100
0000
0001
1000
0100
0000
0010
0000
0000
0000
0010
0000
0100
0000
1010
0000
1000
0000
0001
0000
1000
0000
,  // measure 38
0010
0000
0000
0000
1000
0000
0001
0000
0100
0000
0001
0000
1000
0010
1000
0000
1001
0000
1000
0000
0001
0000
1000
0000
0010
0000
0100
0000
0001
0100
0010
0000
,  // measure 39
1000
0000
0100
0000
0001
0000
0100
0000
1000
0000
0001
0000
0100
0001
1000
0000
0010
0000
0000
0100
0010
0000
1000
0000
1100
0000
0100
0000
1000
0000
0001
0000
,  // measure 40
0100
0010
0001
0010
0100
0001
0020
0000
0030
0000
0000
0000
0000
0000
0000
0000
;

//---------------dance-single - ----------------
#NOTES:
     dance-single:
     X-Scale 11:
     Medium:
     7:
     0.483792,0.669048,0.289095,0.268445,0.345881,328.000000,300.000000,28.000000,26.000000,0.000000,0.000000,0.483792,0.669048,0.289095,0.268445,0.345881,328.000000,300.000000,28.000000,26.000000,0.000000,0.000000:
0000
0000
0000
0000
1000
0000
0000
0001
,
0010
0000
0100
0000
2000
0000
0000
0000
0001
0000
3000
0000
1000
0000
0000
0100
,
0000
1000
0001
0010
0001
0000
0100
0000
,
0010
0100
0002
0000
1000
0003
0001
1000
,
0100
0001
0100
1000
0020
0000
0031
0010
,
0100
0000
0000
0000
0002
0000
0000
0000
2003
0000
0000
0000
0100
0000
3000
1000
,
0000
0001
0100
0010
1000
0001
1000
0001
,
0010
0000
0100
0000
2000
0000
0000
0000
0010
0000
3000
0000
1000
0000
0000
0001
,
0000
0000
1000
0000
0000
0100
0000
0000
0010
0000
0000
0000
0110
0000
0000
0000
,
1000
0000
0100
0000
0010
0000
0001
0000
0000
0000
1000
0001
1000
0000
0010
0000
,
0100
0010
1000
0100
0010
0000
0101
0000
,
0001
0010
1000
0010
0001
0010
0100
1000
,
0100
0000
0010
0000
0001
0010
0001
0000
0010
0000
0000
0000
1001
0000
0000
0000
,
1000
0100
0010
0001
0000
1000
0010
0001
,
1000
0000
0100
0000
0001
0000
1000
0000
0001
0000
0000
0000
1100
0000
0000
0001
,
0000
0000
0010
0000
0000
0001
0000
0000
1000
0000
0100
0000
0010
0000
0100
0000
,
1000
0000
0000
0001
0000
0000
1000
0000
0001
1000
0000
0000
1100
0000
0000
0000
0000
0000
1100
0000
0000
0001
0000
0000
,
0100
0000
0001
0000
0020
0000
0000
0030
0011
0000
0000
0000
0011
0000
1000
0000
,
0001
0000
1000
0000
0020
0000
0000
0030
0110
0000
0000
0000
0110
0000
0000
0100
,
0000
0001
0020
0000
0031
0010
1000
0001
,
0100
0000
1000
0000
0020
0000
0000
0030
1010
0000
0000
0000
1010
0000
0001
0000
,
1000
0000
0001
0000
0020
0000
0000
0030
0101
0000
0000
0000
0101
0000
1000
0000
,
0001
0000
1000
0000
0200
0000
0000
0300
1010
0000
0000
0000
1010
0000
0000
0001
,
0000
0000
0100
0000
0010
0100
0000
0000
0001
0000
0100
0000
1000
0000
0001
0000
,
0010
1000
0002
0000
0103
0000
0101
0001
,
1000
0000
0001
0000
0010
0100
0010
0000
0001
0000
0000
0000
1001
0000
1000
0000
,
0100
0000
1000
0000
0010
0100
0010
0000
1000
0000
0000
0000
1001
0000
0000
0001
,
0010
0000
0001
0000
0100
0001
0000
0000
1000
0000
0000
0000
1010
0000
0001
0000
,
0010
0001
0200
0000
0310
0000
1001
1000
,
0001
0000
1000
0000
0010
0100
0010
0000
1000
0000
0000
0000
1001
0000
0001
0000
,
0100
0000
0001
0000
0100
0010
0100
0000
0001
0000
0000
0000
1001
0000
0000
1000
,
0100
0000
1000
0000
0010
0100
0000
0000
0110
0000
0010
0000
0000
0000
0000
0000
,
0000
0000
0000
0000
2000
0000
0000
0000
3010
0000
1000
0001
0010
0001
0200
0000
,
0300
0000
0010
0100
1000
0100
0002
0000
0013
0000
0000
0100
1000
0001
0200
0000
,
1300
0100
0001
0010
0100
1000
0002
0000
0010
0000
0000
1003
0001
1000
0200
0000
,
0300
0010
0000
0100
1000
0001
2000
0000
3200
0000
2300
0000
3200
0000
0310
0000
,
0001
0000
0101
0000
0001
0100
0010
2000
0000
0000
0000
3001
0100
1000
0100
0001
,
0000
0001
0000
1000
0010
0100
0001
1000
0100
0010
0100
0000
0100
1000
0001
0100
,
0000
0000
0100
0000
0001
0000
0000
0000
0100
0000
0010
0000
1000
0010
1000
0000
0000
0000
0100
0000
0000
0000
0010
0000
0100
0000
1000
0000
0001
1000
0001
0000
,
0000
0000
0001
0000
0000
0000
0010
0000
0100
0000
1000
0000
0001
1000
0001
0000
1001
0000
0000
1100
0000
0000
0011
0000
0001
0000
0100
0000
0010
0000
0100
0000
,
0000
0001
0000
0010
0100
1000
0002
0000
0003
0000
0000
0000
0000
0000
0000
0000
;

//---------------dance-single - ----------------
#NOTES:
     dance-single:
     X-Scale 6:
     Easy:
     4:
     0.321544,0.394795,0.092923,0.454292,0.149710,218.000000,209.000000,9.000000,44.000000,0.000000,0.000000,0.321544,0.394795,0.092923,0.454292,0.149710,218.000000,209.000000,9.000000,44.000000,0.000000,0.000000:
0000
0000
0000
0000
0001
0000
0000
1000
,
0100
1000
0002
0000
0010
0003
0010
0000
,
0000
0100
1000
0001
0100
0000
0010
0000
,
1000
0010
2000
0000
0100
3000
0100
0000
,
0010
0001
1000
0001
0020
0000
0130
0000
,
0010
0100
2000
0000
3002
0000
0003
0000
,
0000
1000
0001
0100
0001
1000
0001
1000
,
0100
0010
0002
0000
0100
0000
0103
0000
,
0010
0100
0001
0000
0001
0000
0010
0000
,
0100
0010
0001
1000
,
0100
1000
0001
0100
,
0010
0100
0001
0010
,
0100
0010
0001
1000
,
0100
1000
0001
1000
,
0100
1000
0001
0010
,
0100
0010
0001
1000
,
0001
0000
1001
1000
,
0100
0010
0002
0000
1003
0000
0001
0000
,
0100
0010
2000
0000
3001
0000
1000
0000
,
0001
0010
0200
0000
0310
0000
0001
0000
,
1000
0001
0200
0300
0200
0300
0110
0000
,
0010
1000
0002
0000
0013
0000
0100
0000
,
0010
0001
2000
0000
3200
0000
2300
0000
,
3200
0000
0310
0001
1000
0001
0100
0010
,
0100
0001
0020
0000
0130
0000
0100
1000
,
0001
1000
0200
0000
0300
0200
0300
0100
,
1000
0001
0200
0000
0310
0000
0100
0000
,
0001
0010
0100
0000
0010
0000
0001
1000
,
0010
1000
0002
0000
0013
0000
0011
0001
,
1000
0010
0200
0000
0300
0200
0300
0100
,
0001
1000
0200
0000
0310
0000
0110
0000
,
0100
1000
0001
0000
1001
0000
0000
0000
,
0000
0000
0000
0000
0000
0000
0000
0000
0110
0000
0000
0010
0100
0010
2000
0000
,
3000
0000
0000
0010
0100
0010
2000
0000
3000
0000
0000
0100
1100
1000
0002
0000
,
0003
0000
1000
0000
0100
0000
2000
0000
0000
0000
0000
3100
0010
0001
2000
0000
,
3000
0000
0000
0100
0010
0001
2000
0000
3100
0000
0000
0000
1100
0000
1000
0000
,
0001
0000
0100
0000
0010
0100
0001
0020
0000
0000
0000
0230
0000
0000
0000
2300
,
0000
0000
0000
0000
0000
3100
0010
0002
0000
0000
0000
0203
0000
0000
0000
0320
,
0030
0200
0300
0001
1000
0001
0200
0010
0300
0020
0000
0000
0000
0000
0000
2030
,
0000
0000
0000
0000
0000
3100
0010
0002
0000
0000
0000
2003
0000
0000
0000
3200
,
0300
2000
3000
0000
1100
0000
0000
0000
0000
0000
0000
0000
0000
0000
0000
0000
;

//---------------dance-single - ----------------
#NOTES:
     dance-single:
     X-Scale 3:
     Beginner:
     2:
     0.135698,0.249344,0.010325,0.000000,0.036137,92.000000,91.000000,1.000000,0.000000,0.000000,0.000000,0.135698,0.249344,0.010325,0.000000,0.036137,92.000000,91.000000,1.000000,0.000000,0.000000,0.000000:
0000
0000
1000
0000
,
0000
0000
0100
0000
,
0000
0000
0010
0000
,
0000
0000
0001
0000
,
0000
0000
1000
0000
,
0000
0000
0100
0000
,
0000
0000
0010
0000
,
0000
0000
0001
0000
,
0000
0000
0000
1000
,
0000
0001
0000
0100
,
0000
0001
0000
1000
,
0000
0001
0000
0010
,
0000
0001
0000
0100
,
0000
0010
0000
0100
,
0000
0001
0000
1000
,
0000
0001
0000
0010
,
0000
0000
0000
1000
,
0000
0100
0000
1000
,
0000
0001
0000
1000
,
0000
0100
0000
0010
,
0000
0001
0000
0100
,
0000
0010
0000
0100
,
0000
0001
0000
1000
,
0000
0010
0000
0000
,
0000
0000
0000
0001
,
0000
0010
0000
0100
,
0000
1000
0000
0010
,
0000
0100
0000
0001
,
0000
0010
0000
0100
,
0000
1000
0000
0010
,
0000
0100
0000
0001
,
0000
0010
0000
0000
,
0000
0000
0000
0000
1001
0000
1000
0001
,
0000
0000
0100
0000
0000
0100
0000
0000
0010
0000
0000
0000
1000
0000
0001
0000
,
0000
0000
0010
0000
0000
0010
0000
0000
0100
0000
0000
0000
1000
0000
0100
0000
,
0000
0000
0010
0000
0000
0010
0000
0000
0001
0000
0000
0000
0100
0000
0001
0000
,
0000
0000
1000
0000
0000
1000
0000
0000
0100
0000
0000
0000
0010
0000
0001
0000
,
0000
0000
1000
0000
0000
1000
0000
0000
0001
0000
0000
0000
0010
0000
0100
0000
,
0000
0000
0010
0000
0000
0010
0000
0000
0001
0000
0000
0000
1000
0000
0001
0000
,
0000
0000
0100
0000
0000
0100
0000
0000
0001
0000
0000
0000
0010
0000
0100
0000
,
0000
1000
0001
0000
0000
0000
0000
0000
;
