#TITLE:Midnight Madness;
#SUBTITLE:;
#ARTIST:The Chemical Brothers;
#TITLETRANSLIT:;
#SUBTITLETRANSLIT:;
#ARTISTTRANSLIT:;
#GENRE:House;
#CREDIT:;
#BANNER:mm-bn.png;
#BACKGROUND:mm-bg.png;
#LYRICSPATH:;
#CDTITLE:cdtitle.png;
#MUSIC:midnight madness.ogg;
#OFFSET:0.000000;
#SAMPLESTART:14.565001;
#SAMPLELENGTH:12.000000;
#SELECTABLE:YES;
#BPMS:0.000000=132.000000
;
#STOPS:
;
#BGCHANGES:;
#KEYSOUNDS:;
#ATTACKS:;

//---------------dance-single - ----------------
#NOTES:
     dance-single:
     :
     Medium:
     5:
     0.382465,0.537129,0.125890,0.033571,0.050356,319.000000,304.000000,15.000000,4.000000,0.000000,0.000000,0.382465,0.537129,0.125890,0.033571,0.050356,319.000000,304.000000,15.000000,4.000000,0.000000,0.000000:
0000
0000
0000
0000
,
0000
0000
0000
0000
,
0000
0000
0000
0000
,
0000
0000
0000
0000
,
1000
1000
0000
0001
0001
0000
0100
0100
,
0000
0010
0010
0000
0100
0100
0000
0001
,
0001
0000
1000
1000
0000
0010
0010
0000
,
0100
0100
0000
0010
0010
0000
0000
0000
,
1001
0001
1000
0000
0100
0000
0010
0000
,
0001
0100
0001
0000
0010
0000
0100
0000
,
1000
0010
0100
0000
0010
0000
1000
0000
,
0001
0100
0001
0000
0010
0000
0100
0000
,
1020
0000
1000
0000
0000
0000
1000
0030
,
1000
0010
0100
0000
0010
0000
0001
0000
,
0010
0100
0010
0000
1000
0000
0010
0000
,
0100
0001
0100
0000
0001
0000
0010
0000
,
0100
1000
0010
0000
1000
0000
0100
0000
,
0010
0001
0100
0000
0010
0000
0100
0000
,
2010
0000
0000
0000
0000
0000
0000
0000
0000
0000
3000
0010
0000
0000
0100
0000
,
0000
0001
0000
0000
0100
0000
0000
0010
0000
0000
1000
0000
0000
0010
0000
0000
,
1010
1000
0010
0000
0100
0000
0001
0000
,
1000
0100
1000
0000
0001
0000
0100
0000
,
0001
0010
0001
0000
0100
0000
0010
0000
,
1000
0010
1000
0000
0010
0000
1000
0000
,
0001
0100
0001
0000
1000
0000
0010
0000
,
1000
0010
0100
0000
0001
0000
0010
0000
,
0100
0010
0001
0000
1000
0000
0100
0000
,
0010
0100
1000
0000
0010
0000
0100
0000
,
0011
0010
0001
0000
1000
0000
0100
0000
,
0001
0010
0100
0000
0010
0000
1000
0000
,
0100
0010
0001
0000
1000
0000
0001
0000
,
0010
0100
1000
0000
0010
0000
0100
0000
,
0001
1000
0001
0000
0010
0000
0100
0000
,
0001
0010
1000
0000
0100
0000
0010
0000
,
0002
0000
0000
0000
0000
0000
0000
0000
0000
0000
0003
1000
0000
0000
0001
0000
,
0000
0100
0000
0000
0001
0000
0000
0100
0000
0000
0001
0000
0000
0010
0000
0000
,
0110
0100
1000
0100
,
0010
0100
1000
0001
,
1000
0100
0010
0001
,
1000
0010
0100
0010
,
0100
0100
0000
0001
0001
0000
1000
1000
,
0000
0010
0010
0000
0100
0100
0000
0001
,
0001
0000
1000
1000
0000
0100
0100
0000
,
0010
0010
0000
0100
0100
0000
0000
0000
,
1010
1000
0000
0010
0000
0100
0000
0000
,
0101
0001
0000
0100
0000
0010
0000
0000
,
0110
0010
0000
0100
0000
0010
0000
0000
,
1001
0001
0000
1000
0000
0001
0000
0000
,
1001
1000
0001
1000
0010
1000
0001
1000
,
1001
0001
0100
0001
1000
0001
0100
0001
,
0101
0100
0001
0100
0010
0100
0001
0100
,
0110
0010
1000
0010
0100
0010
1000
0010
,
1010
1000
0001
0000
0010
0000
1000
0000
,
0100
0010
0001
0000
0010
0000
1000
0000
,
0001
0100
1000
0000
0010
0000
0100
0000
,
0001
0010
0100
0000
0010
0000
1000
0000
,
0100
0010
0001
0000
1000
0000
0001
0000
,
0010
0100
1000
0000
0100
0000
0010
0000
,
0001
1000
0001
0000
0010
0000
1000
0000
,
0100
0010
0100
0000
0001
0000
0010
0000
,
0001
0100
0001
0010
0001
0100
0001
0010
,
0001
0100
0001
0010
0001
0100
0001
0010
,
0002
0000
0000
0000
1000
0000
0000
0000
0000
0000
0003
1000
0000
0000
0001
0000
,
0000
0100
0000
0000
0010
0000
0000
1000
0000
0000
0010
0000
0000
0100
0000
0000
,
0001
0000
0000
0000
;

//---------------dance-single - ----------------
#NOTES:
     dance-single:
     :
     Easy:
     3:
     0.203821,0.268565,0.075534,0.033571,0.000000,170.000000,161.000000,9.000000,4.000000,0.000000,0.000000,0.203821,0.268565,0.075534,0.033571,0.000000,170.000000,161.000000,9.000000,4.000000,0.000000,0.000000:
0000
0000
0000
0000
,
0000
0000
0000
0000
,
0000
0000
0000
0000
,
0000
0000
0000
0000
,
1000
0000
0000
1000
0000
0000
0001
0000
,
0000
0001
0000
0000
0100
0000
0000
0100
,
0000
0000
0010
0000
0000
0010
0000
0000
,
1000
0000
0000
0100
0000
0000
0000
0000
,
1100
1000
0001
0000
,
0001
1000
0010
0000
,
1000
0100
0010
0000
,
0100
1000
0010
0000
,
2000
0000
0010
0000
,
3010
1000
0010
0000
,
1000
0010
0100
0000
,
0001
0100
0001
0000
,
0100
0010
1000
0000
,
0001
0100
0010
0000
,
2000
0000
0000
3000
,
0001
0000
0010
0000
,
0011
0010
0100
0000
,
0010
0100
1000
0000
,
0001
1000
0100
0000
,
1000
0001
0100
0000
,
0001
0010
0100
0000
,
0010
0100
1000
0000
,
0100
1000
0001
0000
,
1000
0100
0010
0000
,
0110
0010
0100
0000
,
0001
0100
0010
0000
,
1000
0010
0100
0000
,
0100
0010
1000
0000
,
0010
0100
0001
0000
,
1000
0010
0100
0000
,
0002
0000
0000
0003
,
1000
0000
0100
0000
,
1100
0000
1000
0000
,
0010
0000
1000
0000
,
0001
0000
0100
0000
,
0001
0000
1000
0000
,
0100
0000
0000
1000
0000
0000
0001
0000
,
0000
0010
0000
0000
0100
0000
0000
0010
,
0000
0000
0100
0000
0000
1000
0000
0000
,
0010
0000
0000
0100
0000
0000
0000
0000
,
0011
0000
0000
0000
,
1100
0000
0000
0000
,
0110
0000
0000
0000
,
1001
0000
0000
0000
,
1000
0100
0010
0100
,
1000
0100
0010
0100
,
0010
0001
0010
0001
,
0010
0100
0010
0001
,
1001
0001
0010
0000
,
0100
0010
0100
0000
,
1000
0001
0010
0000
,
0001
0100
0010
0000
,
1000
0100
1000
0000
,
0010
1000
0100
0000
,
1000
0001
0010
0000
,
0001
0100
0001
0000
,
0001
0010
0001
0100
,
0001
1000
0100
1000
,
0002
0000
0000
0003
,
0100
0000
0010
0000
,
1000
0000
0000
0000
;

//---------------dance-single - ----------------
#NOTES:
     dance-single:
     :
     Hard:
     8:
     0.541925,0.563985,0.050356,0.025178,0.386061,452.000000,446.000000,6.000000,3.000000,0.000000,0.000000,0.541925,0.563985,0.050356,0.025178,0.386061,452.000000,446.000000,6.000000,3.000000,0.000000,0.000000:
// measure 0
0000
0000
0000
0000
,  // measure 1
0000
0000
0000
0000
,  // measure 2
0000
0000
0000
0000
,  // measure 3
0000
0000
0000
0000
,  // measure 4
1000
0001
1000
0001
1000
0010
1000
0010
,  // measure 5
0100
0010
0100
0010
0100
1000
0100
0010
,  // measure 6
0100
0010
0100
0010
1000
0001
1000
0001
,  // measure 7
0100
0001
0100
0001
0100
0010
0100
0010
,  // measure 8
0110
0000
0010
0000
0100
0000
0000
0000
0100
0010
0000
0010
0000
0010
0000
0010
,  // measure 9
1000
0000
0001
0000
1000
0000
0000
0000
0010
1000
0000
1000
0000
1000
0000
1000
,  // measure 10
0001
0000
0010
0000
0100
0000
0000
0000
0010
0001
0000
0001
0000
0001
0000
0001
,  // measure 11
1000
0000
0010
0000
1000
0000
0000
0000
0010
0100
0000
0100
0000
0100
0000
0100
,  // measure 12
0001
0000
0100
0000
0010
0000
0000
0000
1000
0001
0000
0001
0000
0001
0000
0001
,  // measure 13
1000
0000
0010
0000
0100
0000
0000
0000
0010
0100
0000
0100
0000
0100
0000
0100
,  // measure 14
0001
0000
1000
0000
0010
0000
0000
0000
1000
0100
0000
0100
0000
0100
0000
0100
,  // measure 15
0010
0000
0100
0000
1000
0000
0000
0000
0001
1000
0000
1000
0000
1000
0000
1000
,  // measure 16
0100
1000
0010
0100
1000
0100
0001
0100
,  // measure 17
1000
0100
0010
0100
1000
0100
0001
0100
,  // measure 18
0020
0000
0000
0000
1000
0000
0000
0000
0000
0000
0030
1000
0000
0000
0001
0000
,  // measure 19
0000
1000
0000
0000
0010
0000
0000
0100
0000
0000
0001
0000
0000
0010
0000
0000
,  // measure 20
0011
0000
0001
0000
1000
0000
0010
0000
0100
0010
0000
0000
1000
0000
0001
0000
,  // measure 21
0100
0000
0001
0000
1000
0000
0001
0000
0100
0001
0000
0000
0100
0000
0010
0000
,  // measure 22
0001
0000
0010
0000
0100
0000
0010
0000
0001
1000
0000
0000
0001
0000
0100
0000
,  // measure 23
1000
0000
0100
0000
0001
0000
0100
0000
0010
0100
0000
0000
0001
0000
1000
0000
,  // measure 24
0001
0000
0100
0000
0001
0000
1000
0000
0001
0100
0000
0000
0001
0000
0010
0000
,  // measure 25
0100
0000
0010
0000
0100
0000
1000
0000
0001
1000
0000
0000
0010
0000
1000
0000
,  // measure 26
0010
0000
0100
0000
0001
0000
1000
0000
0001
1000
0000
0000
0001
0000
0100
0000
,  // measure 27
0010
0000
0100
0000
0001
0000
0100
0000
0010
1000
0000
0000
0100
0000
0010
0000
,  // measure 28
0110
0010
0001
1000
0001
0010
0100
0010
,  // measure 29
0001
1000
0001
0100
0010
0100
0001
1000
,  // measure 30
0100
0010
0100
0010
0001
1000
0001
0010
,  // measure 31
0100
1000
0100
0010
0100
1000
0100
0010
,  // measure 32
0001
1000
0001
0010
0100
0010
0001
0010
,  // measure 33
1000
0010
0001
0100
0010
1000
0010
0100
,  // measure 34
0002
0000
0000
0000
1000
0000
0000
0000
0000
0000
0003
1000
0000
0000
0001
0000
,  // measure 35
0000
1000
0000
0000
0100
0000
0000
1000
0000
0000
0001
0000
0000
1000
0000
0000
,  // measure 36
1001
0000
0000
0000
0001
0000
1000
0000
0001
1000
0001
0000
0100
0000
0000
0000
,  // measure 37
0010
0000
0000
0000
0100
0000
0010
0000
0100
0010
0100
0000
0001
0000
0000
0000
,  // measure 38
1000
0000
0000
0000
0100
0000
1000
0000
0010
1000
0010
0000
0100
0000
0000
0000
,  // measure 39
0001
0000
0000
0000
1000
0000
0001
0000
0100
0001
0100
0000
0010
0000
0000
0000
,  // measure 40
0100
0001
1000
0001
0100
0000
0001
1000
,  // measure 41
0010
1000
0001
0000
0100
0010
0100
0001
,  // measure 42
0100
0000
0010
1000
0010
0100
0010
0000
,  // measure 43
1000
0010
0001
0010
1000
0000
0010
0100
,  // measure 44
0110
0100
0000
0010
0000
0100
0001
0100
,  // measure 45
0001
0100
0000
0100
0000
0010
1000
0010
,  // measure 46
1000
0010
0000
0100
0000
0010
1000
0010
,  // measure 47
0001
0010
0000
1000
0000
0001
1000
0010
,  // measure 48
1000
0100
0001
0100
1000
0100
0001
0100
,  // measure 49
1000
0000
0010
0000
0100
0010
0000
0000
0100
0000
0010
0000
0100
0000
0001
0000
,  // measure 50
0100
0000
0001
0000
1000
0001
1000
0000
0010
0100
0010
0000
0100
0001
0100
0000
,  // measure 51
0001
0010
1000
0010
0001
0010
1000
0010
,  // measure 52
0011
0000
0001
0000
0001
0000
0000
0000
0010
0001
0000
0001
0000
0001
0000
0001
,  // measure 53
0100
0000
0010
0000
1000
0000
0000
0000
0010
1000
0000
1000
0000
1000
0000
1000
,  // measure 54
0001
0000
0100
0000
0001
0000
0000
0000
0010
0100
0000
0100
0000
0100
0000
0100
,  // measure 55
1000
0000
0001
0000
0100
0000
0000
0000
0100
0010
0000
0010
0000
0010
0000
0010
,  // measure 56
0100
0000
0010
0000
1000
0000
0000
0000
0001
1000
0000
1000
0000
1000
0000
1000
,  // measure 57
0010
0000
0100
0000
0010
0000
0000
0000
0100
0001
0000
0001
0000
0001
0000
0001
,  // measure 58
1000
0000
0010
0000
0100
0000
0000
0000
0010
0100
0000
0100
0000
0100
0000
0100
,  // measure 59
0001
0000
0010
0000
0100
0000
0000
0000
1000
0010
0000
0010
0000
0010
0000
0010
,  // measure 60
1000
0100
0001
0100
1000
0100
0010
1000
,  // measure 61
0010
0001
0010
1000
0010
0001
0010
0100
,  // measure 62
0020
0000
0000
0000
0001
0000
0000
0000
0000
0000
0030
0001
0000
0000
1000
0000
,  // measure 63
0000
0001
0000
0000
0010
0000
0000
1000
0000
0000
0010
0000
0000
0001
0000
0000
,  // measure 64
0010
0000
0000
0000
;

//---------------dance-single - ----------------
#NOTES:
     dance-single:
     :
     Beginner:
     1:
     0.123492,0.161139,0.025178,0.050356,0.000000,103.000000,100.000000,3.000000,6.000000,0.000000,0.000000,0.123492,0.161139,0.025178,0.050356,0.000000,103.000000,100.000000,3.000000,6.000000,0.000000,0.000000:
0000
0000
0000
0000
,
0000
0000
0000
0000
,
0000
0000
0000
0000
,
0000
0000
0000
0000
,
1000
0000
0000
0001
,
0000
0000
0100
0000
,
0000
0001
0000
0000
,
0010
0000
0000
0000
,
0011
0000
0001
0000
,
0001
0000
1000
0000
,
1000
0000
0010
0000
,
0010
0000
0100
0000
,
0100
0000
0010
0000
,
1000
0000
0010
0000
,
0100
0000
0001
0000
,
0010
0000
0001
0000
,
0100
0000
0010
0000
,
1000
0000
0010
0000
,
2000
0000
0000
3000
,
0002
0000
0000
0000
,
1003
0000
0001
0000
,
0010
0000
0100
0000
,
0010
0000
0001
0000
,
1000
0000
0100
0000
,
0010
0000
0100
0000
,
0010
0000
0100
0000
,
1000
0000
0001
0000
,
1000
0000
0010
0000
,
1010
0000
0100
0000
,
1000
0000
0010
0000
,
0100
0000
0001
0000
,
0100
0000
0010
0000
,
0100
0000
0001
0000
,
1000
0000
0100
0000
,
0020
0000
0000
0030
,
0200
0000
0000
0000
,
0310
0000
0000
0000
,
0100
0000
0000
0000
,
0001
0000
0000
0000
,
1000
0000
0000
0000
,
0001
0000
0000
1000
,
0000
0000
0100
0000
,
0000
0010
0000
0000
,
0001
0000
0000
0000
,
1000
0000
0000
0000
,
0100
0000
0000
0000
,
0010
0000
0000
0000
,
0001
0000
0000
0000
,
1000
0000
0010
0000
,
0100
0000
0001
0000
,
0010
0000
0100
0000
,
1000
0000
0001
0000
,
1001
0000
0100
0000
,
0010
0000
1000
0000
,
0001
0000
0100
0000
,
0001
0000
0010
0000
,
0100
0000
1000
0000
,
0010
0000
0100
0000
,
0001
0000
0010
0000
,
0001
0000
0100
0000
,
0010
0000
1000
0000
,
0001
0000
0100
0000
,
0020
0000
0000
0030
,
0200
0000
0000
0000
,
0300
0000
0000
0000
;
