#VERSION:0.83;
#TITLE:Midnight;
#SUBTITLE:(Pop Song Made in a Day);
#ARTIST:Boyinaband ft. Veela;
#TITLETRANSLIT:;
#SUBTITLETRANSLIT:;
#ARTISTTRANSLIT:;
#GENRE:Electropop;
#ORIGIN:;
#CREDIT:;
#BANNER:midnight-bn.png;
#BACKGROUND:midnight-bg.png;
#PREVIEWVID:;
#JACKET:midnight-jacket.png;
#CDIMAGE:;
#DISCIMAGE:;
#LYRICSPATH:;
#CDTITLE:cdtitle.png;
#MUSIC:midnight - psmiad.ogg;
#OFFSET:0.000000;
#SAMPLESTART:22.615000;
#SAMPLELENGTH:29.500000;
#SELECTABLE:YES;
#DISPLAYBPM:65.000000:130.000000;
#BPMS:0.000=130.000,
46.500=65.000,
62.000=130.000,
126.000=65.000,
156.000=32.500,
157.000=130.000;
#STOPS:34.750=0.460,
37.750=0.460,
40.750=0.230,
61.500=0.460;
#DELAYS:;
#WARPS:;
#TIMESIGNATURES:0.000=4=4;
#TICKCOUNTS:0.000=4;
#COMBOS:0.000=1;
#SPEEDS:0.000=1.000=0.000=0;
#SCROLLS:0.000=1.000,
156.750=1.500,
156.833=2.000,
156.917=2.500,
157.000=1.000;
#FAKES:;
#LABELS:0.000=Song Start;
#BGCHANGES:0.000=midnight-buzz.png=1.000=0=0=1=====,
1.000=midnight.mp4=1.000=0=0=1=StretchNormal====,
99999=-nosongbg-=1.000=0=0=0 // don't automatically add -songbackground-
;
#KEYSOUNDS:;
#ATTACKS:
;

//---------------dance-single - ----------------
#NOTEDATA:;
#CHARTNAME:;
#STEPSTYPE:dance-single;
#DESCRIPTION:;
#CHARTSTYLE:;
#DIFFICULTY:Hard;
#METER:9;
#RADARVALUES:0.458624,0.557988,0.078728,0.034990,0.328035,367.000000,358.000000,9.000000,4.000000,8.000000,0.000000,1.000000,0.000000,0.000000,0.458624,0.557988,0.078728,0.034990,0.328035,367.000000,358.000000,9.000000,4.000000,8.000000,0.000000,1.000000,0.000000,0.000000;
#CREDIT:;
#DISPLAYBPM:65.000000:130.000000;
#NOTES:
// measure 0
MMMM
0000
0000
0000
1001
0000
1000
0000
0001
1000
0000
0000
0010
0000
0000
0010
,  // measure 1
0000
0000
0010
0000
0100
0000
0001
0000
0010
0001
0000
0000
1000
0000
0000
1000
,  // measure 2
0000
0000
1000
0000
0100
0000
0010
0000
0001
0010
0000
0000
0100
0000
0000
0100
,  // measure 3
0000
0000
0100
0000
1000
0000
0001
0000
0100
0001
0000
0000
0001
0000
0000
0100
,  // measure 4
0001
0000
0100
0000
1001
0000
0000
0001
0100
0001
0010
0000
0100
0000
0000
0010
,  // measure 5
0000
0000
0001
0000
0101
0000
0000
0001
0100
0000
0010
0000
1000
0000
0000
0100
,  // measure 6
0000
0000
0010
0000
0110
0000
0000
1000
0010
0000
0100
0000
0001
0000
0100
0001
,  // measure 7
0000
0010
0100
1000
0100
0010
0001
1000
,  // measure 8
0010
0000
0100
0000
0010
0000
1000
0000
0001
0000
1000
0001
0010
0000
0100
0000
,  // measure 9
0010
0000
0001
0000
0010
0000
0100
1000
0001
0000
1000
0000
0010
0000
0100
0000
,  // measure 10
0010
0000
1000
0001
1000
0000
0100
0000
0010
0000
0001
0000
0010
0000
0100
0000
,  // measure 11
1000
0001
0000
0000
0100
0010
0000
0000
0001
1000
0001
0010
0100
1000
0100
0000
,  // measure 12
0010
0000
0001
0000
0001
0000
0001
0000
0100
0000
0010
1000
0001
0100
0010
0000
,  // measure 13
0100
0001
1000
0000
1000
0000
1000
0000
1000
0010
0100
0000
0100
0000
0100
0000
,  // measure 14
0001
1000
0010
1000
0010
0000
0010
0000
0100
0000
0001
0000
0010
0000
0100
0000
,  // measure 15
1000
0010
0400
0000
0001
0000
0310
0000
0001
0000
0000
0100
0010
0000
1000
0000
,  // measure 16
0001
0100
0000
0000
0010
0000
0010
0000
1000
0000
0100
0000
0010
0000
0001
0000
,  // measure 17
0000
0000
0100
0000
0000
0000
0100
0000
0010
0000
0000
0100
0001
0000
1000
0000
,  // measure 18
0001
1000
0000
0000
1000
0000
1000
0000
0001
0000
0010
0000
0100
0000
1000
0000
,  // measure 19
0000
0000
0010
0000
0100
0000
0010
0000
0100
0000
0000
0001
1000
0000
0100
0000
,  // measure 20
1000
0100
0000
0000
1000
0000
1000
0000
0001
0000
1000
0000
0010
0000
0100
0000
,  // measure 21
0000
0000
0010
0000
0000
0000
0100
0000
0001
0000
0000
1000
0010
0000
0100
0000
,  // measure 22
0001
1000
0000
0000
0010
0000
0100
0000
0010
0000
0000
0100
0000
0000
0001
0000
,  // measure 23
1000
0001
0000
0000
0100
0000
0010
0000
1010
0000
0000
0000
0100
0000
0000
0000
,  // measure 24
0001
1000
0010
0100
0000
0100
0000
0001
,  // measure 25
1000
0010
0100
0001
,  // measure 26
1000
0001
0100
0010
0000
0010
0000
1000
,  // measure 27
0001
0100
0010
1000
,  // measure 28
0001
0100
0010
1000
0000
0010
0000
0100
,  // measure 29
0010
0010
1000
0001
,  // measure 30
0010
0100
0010
0001
0010
0000
0100
0000
,  // measure 31
1001
0000
0000
0000
MMMM
0000
0000
0000
0110
0000
0001
1000
0000
0000
0010
0100
,  // measure 32
0000
0000
1000
0100
0000
0010
0100
0000
0001
0000
1000
0001
0000
0000
0010
0000
,  // measure 33
0100
0000
1000
0100
0000
0000
0010
0000
0100
0000
1000
0000
0001
0000
1000
0100
,  // measure 34
0000
0000
0100
0010
0000
0010
0001
0000
0020
0000
0000
0000
0000
0000
0000
0000
,  // measure 35
0032
0010
1000
0010
1003
0001
1000
0100
,  // measure 36
0010
0100
0001
0100
0000
0010
0000
0001
1000
0000
0001
0000
0100
0000
0010
0000
,  // measure 37
0010
0000
0100
0000
0001
0000
1000
0000
0000
0000
1000
0000
0000
0000
0000
0000
0100
0000
0000
0100
0000
0000
1000
0000
0010
0000
0000
0010
0000
0000
0100
0000
,  // measure 38
0001
0000
0000
0001
0000
0000
0100
0000
0010
0000
0000
0010
0000
0000
1000
0000
0001
0000
0010
0000
1000
0000
0010
0000
0001
0000
0010
0000
0100
0000
1000
0000
,  // measure 39
2002
0000
0000
0000
0000
0000
0000
3003
1001
0000
0000
0000
0000
0000
0100
0000
0010
0000
0000
0000
1000
0000
0000
0000
0001
0000
0000
0000
0100
0000
0000
0000
,  // measure 40
0010
1000
0000
0001
0100
0010
0100
0000
,  // measure 41
0001
0000
0001
0000
1000
0000
0000
0001
0100
0000
0010
0000
0100
0000
0001
0000
,  // measure 42
1000
0010
0000
0100
0001
0010
0100
0000
,  // measure 43
1000
0000
1000
0000
0001
0000
0000
1000
0001
0000
0100
0000
0010
0000
1000
0000
,  // measure 44
0100
0010
0000
0010
0001
0100
0010
0000
,  // measure 45
1000
0000
0001
0000
1000
0000
0000
0001
1000
0000
0100
0000
0010
0000
0001
0000
,  // measure 46
0010
0000
0100
0000
0000
0000
0100
0010
0000
0001
0010
0000
1000
0010
0000
0000
,  // measure 47
0010
0100
0010
0000
0000
0000
0000
0000
;

//---------------dance-single - ----------------
#NOTEDATA:;
#CHARTNAME:;
#STEPSTYPE:dance-single;
#DESCRIPTION:;
#CHARTSTYLE:;
#DIFFICULTY:Beginner;
#METER:1;
#RADARVALUES:0.136213,0.165330,0.061233,0.096224,0.000000,109.000000,102.000000,7.000000,11.000000,0.000000,0.000000,0.000000,0.000000,0.000000,0.136213,0.165330,0.061233,0.096224,0.000000,109.000000,102.000000,7.000000,11.000000,0.000000,0.000000,0.000000,0.000000,0.000000;
#CREDIT:;
#DISPLAYBPM:65.000000:130.000000;
#NOTES:
0000
0110
0000
1000
,
0000
0001
0000
1000
,
0000
0010
0000
0100
,
0000
0001
0000
0100
,
0000
0101
0000
0001
,
0000
1000
0000
0010
,
0000
0100
0000
0200
,
0310
0000
0010
0000
,
1000
0000
0100
0001
,
0000
0100
1000
0000
,
0001
0000
0000
0100
0000
0000
0000
0001
,
0000
0000
0000
0100
0000
1000
0000
0000
,
0000
0001
0000
1000
0000
0000
0010
0000
,
0000
1000
0000
0001
0000
0000
0000
0010
,
0000
0000
0000
0100
0000
0010
0000
0001
,
0000
0010
0000
0000
0012
0000
0000
0000
,
0000
0000
1003
0000
,
0100
0000
2000
0000
,
0000
0000
3001
0000
,
1000
0000
0020
0000
,
0000
0000
0130
0000
,
0010
0000
1000
0000
,
0001
0000
1000
0000
,
0010
0000
1010
0000
,
1000
0000
0001
0000
,
0100
0100
0100
0000
,
0001
0000
1000
0000
,
0010
0010
0010
0000
,
0100
0000
0001
0000
,
1000
0000
0001
1000
,
0001
0000
0100
0000
,
0110
0000
0120
0000
,
0000
0000
0230
0000
,
0000
0000
0302
0000
,
0000
0000
2003
0000
,
0001
0000
3002
0000
,
1003
0001
2000
0000
,
3001
1000
0010
0000
,
0100
0000
0010
0000
,
0100
0110
0000
0100
,
0000
0001
0000
1000
,
1000
1000
0000
0100
,
0000
0010
0000
0001
,
0001
0001
0000
0100
,
0000
0001
0000
1000
,
0001
1000
0000
0010
,
0000
0100
0000
0200
,
0000
0300
0000
0000
;

//---------------dance-single - ----------------
#NOTEDATA:;
#CHARTNAME:;
#STEPSTYPE:dance-single;
#DESCRIPTION:;
#CHARTSTYLE:;
#DIFFICULTY:Medium;
#METER:7;
#RADARVALUES:0.294919,0.309993,0.052486,0.061233,0.017495,236.000000,230.000000,6.000000,7.000000,0.000000,0.000000,0.000000,0.000000,0.000000,0.294919,0.309993,0.052486,0.061233,0.017495,236.000000,230.000000,6.000000,7.000000,0.000000,0.000000,0.000000,0.000000,0.000000;
#CREDIT:;
#DISPLAYBPM:65.000000:130.000000;
#NOTES:
0000
1001
0001
0100
,
0000
0000
0100
0000
0001
0000
1000
0000
0001
0000
0000
0000
0001
0000
0000
1000
,
0000
0000
0001
0000
0100
0000
0010
0000
1000
0000
0000
0000
1000
0000
0000
0010
,
0000
0000
1000
0000
0010
0000
0100
0000
0010
0000
0000
0000
0010
0000
0000
0100
,
0010
0100
0110
0000
0100
0000
0001
0000
,
1000
0001
1000
0000
0100
0000
0010
0000
,
0001
0000
0010
0000
0100
0000
0000
0000
1000
0000
0000
0000
0001
0000
0100
0001
,
0000
0001
1000
0010
1000
0001
1000
0000
,
0010
0000
0100
0000
0001
0000
0010
0100
,
0010
0000
0001
0000
0001
1000
0001
0000
,
0100
0000
0000
0100
0000
0001
0000
0100
,
0000
1000
0000
0100
0000
0001
0000
1000
,
0001
0100
0001
1000
0000
0100
0000
1000
,
0000
0001
0100
0001
0000
0100
0010
0100
,
0000
0001
0010
0100
1000
0000
0001
0000
,
1000
0010
0110
0010
,
1000
0000
0010
0000
1000
0100
0010
0001
,
0000
0100
0010
0000
0100
0000
0001
0000
,
0100
0000
0001
0000
0001
0010
0100
1000
,
0000
0010
0100
0000
0001
0000
1000
0000
,
0001
0000
1000
0000
0010
0100
0010
1000
,
0000
0001
0000
0100
0001
0000
0010
0000
,
1000
0010
0001
0010
,
0100
1000
1100
1000
,
0001
1000
0000
1000
0000
0001
0000
0001
,
1000
0010
0100
0001
,
1000
0001
0000
0001
0000
1000
0000
1000
,
0001
0100
0010
1000
,
0001
0100
0000
0100
0000
0010
0000
0010
,
1000
0001
0100
0010
,
0100
0010
0000
0010
0100
0000
0001
0000
,
0101
0000
1002
0000
,
2003
0000
3020
0000
,
0230
0000
0000
0000
0301
0010
0100
1000
,
0200
0000
0000
1000
0320
0000
0000
0000
,
0031
1000
0001
1000
0001
0000
0001
0000
,
0010
0100
0010
0100
0010
0000
0100
0000
,
1000
0001
1000
0001
1000
0000
0100
0000
,
0010
0000
0100
0000
1000
0010
0100
0001
,
0200
0000
0310
0000
0010
0000
0100
0010
,
0000
1000
0000
1000
0001
0100
0001
0000
,
0001
0000
1000
0000
0100
0000
0010
0100
,
0000
1000
0000
1000
0001
0100
0010
0000
,
0010
0000
1000
0000
0001
0000
0010
0100
,
0000
0010
0000
0010
0001
1000
0001
0000
,
1000
0000
0010
0000
1000
0000
0010
0001
,
0010
0100
0000
0100
0000
0000
0010
0000
,
1000
0001
0000
0000
;

//---------------dance-single - ----------------
#NOTEDATA:;
#CHARTNAME:;
#STEPSTYPE:dance-single;
#DESCRIPTION:;
#CHARTSTYLE:;
#DIFFICULTY:Easy;
#METER:4;
#RADARVALUES:0.226188,0.247995,0.087476,0.122466,0.000000,181.000000,171.000000,10.000000,14.000000,0.000000,0.000000,0.000000,0.000000,0.000000,0.226188,0.247995,0.087476,0.122466,0.000000,181.000000,171.000000,10.000000,14.000000,0.000000,0.000000,0.000000,0.000000,0.000000;
#CREDIT:;
#DISPLAYBPM:65.000000:130.000000;
#NOTES:
0000
0110
0001
1000
,
0010
0002
0023
1030
,
0001
0010
1000
0010
,
0001
0010
0100
0010
,
0001
1001
0000
0001
,
0001
0011
0000
1000
,
1000
1100
0000
0002
,
1003
0001
0010
0100
,
1000
0100
0010
1000
,
0010
0100
1000
0001
,
0100
0000
0000
0001
0000
1000
0000
0001
,
0000
0010
0000
0100
0000
1000
0000
0000
,
0000
0001
0001
0001
0000
0000
0100
0000
,
0000
1000
1000
1000
0000
0010
0010
0010
,
0000
0100
0100
0100
0000
0001
0000
1000
,
0000
0010
0000
0000
2010
0000
0000
0000
,
3020
0000
1030
0010
,
0100
0001
0002
0000
,
0203
0000
0301
0100
,
0010
1000
0002
0000
,
2003
0000
3010
1000
,
0100
0010
0001
0010
,
0001
0100
0010
1000
,
0100
0010
0110
0100
,
1000
0001
0000
1000
0000
0001
0000
0000
,
0100
0100
0001
1000
,
0001
1000
0000
0001
0000
1000
0000
0000
,
0010
0010
0100
0001
,
0100
0010
0000
0100
0000
0010
0000
0000
,
1000
0010
0100
0001
,
0010
0100
0000
0010
0000
0000
0000
0000
,
0110
0000
0120
0000
,
1000
0000
2030
0000
,
0001
0000
3002
0000
,
0100
0000
0203
0000
,
0001
0010
0301
0100
,
0010
1000
0100
0010
,
0001
1000
0001
0100
,
0010
0100
0001
1000
,
1001
0000
0110
0000
0010
0000
0100
0010
,
0000
0100
0000
0010
0000
0000
1000
0000
,
0001
0000
1000
0000
0010
0000
0100
0001
,
0000
1000
0000
0001
0000
0000
0100
0000
,
0010
0000
0100
0000
0001
0000
0010
0100
,
0000
0010
0000
0001
0000
0000
1000
0000
,
0001
0000
1000
0000
0001
0000
0100
0001
,
0000
0100
0000
0001
0000
0000
2000
0000
,
0000
3001
0000
0000
;
