#TITLE:Middle;
#SUBTITLE:(San Holo Remix);
#ARTIST:DJ Snake ft. Bipolar Sunshine;
#TITLETRANSLIT:;
#SUBTITLETRANSLIT:;
#ARTISTTRANSLIT:;
#GENRE:Future Trap;
#CREDIT:;
#BANNER:m_sh-bn.png;
#BACKGROUND:m_sh-bg.png;
#LYRICSPATH:;
#CDTITLE:cdtitle.png;
#MUSIC:middle - san holo.ogg;
#OFFSET:-0.242000;
#SAMPLESTART:32.176998;
#SAMPLELENGTH:15.250000;
#SELECTABLE:YES;
#BPMS:0.000000=124.000000
,30.000000=62.000000
,33.500000=124.000000
,62.500000=62.000000
,64.000000=124.000000
,93.000000=62.000000
,97.000000=124.000000
,125.000000=62.000000
,129.000000=124.000000
,153.000000=62.000000
,155.000000=124.000000
,187.000000=62.000000
,189.000000=124.000000
,245.000000=62.000000
;
#STOPS:
;
#BGCHANGES:;
#KEYSOUNDS:;
#ATTACKS:;

//---------------dance-single - ----------------
#NOTES:
     dance-single:
     X-Scale 6:
     Easy:
     4:
     0.245270,0.283625,0.078364,0.071240,0.000000,241.000000,230.000000,11.000000,10.000000,0.000000,0.000000,0.245270,0.283625,0.078364,0.071240,0.000000,241.000000,230.000000,11.000000,10.000000,0.000000,0.000000:
0000
0000
0012
0000
,
0000
0000
0023
0000
,
0000
0000
0031
0000
,
0100
0000
0010
0000
,
1000
0000
0001
0000
,
0010
0000
0100
0000
,
0010
0000
0001
1000
,
0001
0000
1000
0000
0100
0010
0100
0010
,
0000
0000
0100
1100
0000
0000
0000
0000
,
0100
0010
0000
0020
0000
0031
0000
0000
,
0000
0100
0000
0000
0000
0010
0000
0000
,
0000
1000
0000
0100
0000
1000
0000
0000
,
0000
0010
0000
1010
0000
0000
0000
0000
,
0010
0100
0000
0200
0000
0301
0000
0000
,
0000
0010
0000
0000
0000
0100
0000
0000
,
0000
1000
0000
2000
0000
3200
0000
0000
,
0310
0000
0000
0000
0000
0010
0100
0000
,
0200
0301
0000
0010
,
0001
0010
0000
0100
,
1000
1000
1000
0000
0000
0000
0100
0000
,
1100
0000
0000
0000
0000
1000
0100
0000
,
0200
0310
0000
0100
,
0010
0001
0000
0010
,
0001
0011
0000
0100
,
0000
1010
1000
0001
,
1000
0001
1000
0010
,
0100
0000
0001
0010
0001
0000
0000
0000
,
0001
0010
0001
0000
0100
0000
0010
0000
,
1000
0010
1000
0000
0000
0000
0100
0000
,
0000
0010
0000
0001
,
0000
0100
0010
0001
,
0010
0000
0100
0000
0000
0020
0130
0000
,
0000
0001
1001
0000
0100
0000
1000
0000
,
0100
1000
0001
1000
,
0001
1000
0100
0010
,
0100
0010
0001
1000
,
0001
1000
0010
0100
,
0010
0100
0001
1000
,
0100
0000
0010
1000
0010
0001
0011
0000
,
0010
0100
1000
0010
,
1000
0001
1000
0001
1000
0001
1000
0000
,
0100
0010
0100
1000
,
0001
0100
0001
0100
0001
0100
0001
0000
,
0010
0100
0010
0001
,
0010
0100
0010
0100
0010
0100
0010
0000
,
0100
1000
0010
1000
,
0200
0000
0310
0000
0000
0000
0110
0100
,
0010
0001
0101
0000
0100
0000
0010
0000
,
1000
0010
1000
0100
,
0010
0100
1000
0001
,
1000
0001
0100
0010
,
0100
0001
0100
1000
,
0100
0001
0100
0010
,
1000
0100
0010
0001
,
0100
0101
0010
0100
,
0010
0000
0001
0000
0001
0010
0100
0010
,
0000
0010
0001
0000
1000
0000
0001
0000
,
0100
0000
0001
0000
0010
0100
1000
0100
,
0000
0100
1000
0000
0100
0000
0010
0000
,
0100
0000
1000
0000
0001
0100
0010
1000
,
0000
1000
0001
0000
0100
0000
0010
0000
,
1000
0100
0000
0000
;

//---------------dance-single - ----------------
#NOTES:
     dance-single:
     X-Scale 2:
     Beginner:
     1:
     0.169959,0.218173,0.064116,0.064116,0.000000,167.000000,158.000000,9.000000,9.000000,0.000000,0.000000,0.169959,0.218173,0.064116,0.064116,0.000000,167.000000,158.000000,9.000000,9.000000,0.000000,0.000000:
0000
0000
1001
0000
,
0000
0000
0000
0000
,
0000
0000
0110
0000
,
0000
0000
0000
0000
,
0000
0000
0001
0000
,
0100
0000
0001
0000
,
1000
0000
0100
0010
,
0100
1000
0001
0000
,
0000
0000
0010
0011
0000
0000
0000
0000
,
0000
0010
0000
0020
0000
0030
0000
0000
,
0000
0000
1000
1000
0000
0000
0000
0000
,
0000
0001
0000
0010
0000
0100
0000
0000
,
0000
0000
0000
0011
0000
0000
0000
0000
,
0000
0100
0000
0200
0000
0300
0000
0000
,
0000
0001
0000
1000
0000
0000
0000
0000
,
0000
0010
0000
0200
0000
0320
0000
0000
,
0130
0000
0000
0001
,
0002
0000
1003
0000
0000
0000
0010
0100
,
0010
0000
0000
0000
0000
0001
0000
0000
,
0010
0100
1000
0000
0000
0000
0000
0000
,
1010
0000
0000
1000
,
2000
3001
0010
0100
,
1000
0100
0010
0001
,
0010
2002
0000
0000
,
0000
3003
1001
0000
0000
0000
0001
0000
,
0000
1000
0000
0001
,
0000
0010
0000
0001
,
0000
1000
0000
0001
,
0000
1000
0000
0010
,
0000
0100
0000
0001
,
0000
0010
0100
1000
,
0100
0000
0010
0000
0000
2000
3001
0000
,
0000
0010
0110
0000
0000
0000
0010
0000
,
0000
0100
0000
1000
,
0100
1000
0000
0001
,
0000
1000
0000
0001
,
0010
0001
0000
1000
,
0000
0100
0000
1000
,
0001
0000
0010
0000
0001
1000
0001
0000
,
0000
1000
0100
0010
,
0000
0100
0000
1000
,
0000
0001
0010
0100
,
0000
0010
0000
0001
,
0000
1000
0001
0010
,
0000
0001
0000
0100
,
0000
0010
1000
0001
,
0000
1000
0000
0110
,
0001
0100
0001
0000
0000
0000
0100
0000
,
0000
0001
0000
1000
,
0010
1000
0000
0001
,
0000
0100
0000
0010
,
1000
0100
0000
1000
,
0000
0001
0000
1000
,
0100
0010
0000
0100
,
0000
1000
0100
1000
,
0001
0100
0010
1000
,
0001
0100
0010
1000
,
0100
1000
0001
0100
,
0001
0010
0100
0010
,
0001
1000
0010
0100
,
0001
0010
0100
1000
,
0010
1000
0000
0000
;

//---------------dance-single - ----------------
#NOTES:
     dance-single:
     X-Scale 9:
     Medium:
     6:
     0.383680,0.439909,0.049868,0.078364,0.021372,377.000000,370.000000,7.000000,11.000000,0.000000,0.000000,0.383680,0.439909,0.049868,0.078364,0.021372,377.000000,370.000000,7.000000,11.000000,0.000000,0.000000:
0000
0000
2100
0000
,
0000
0000
0010
0000
,
0001
0000
3010
1000
,
0100
0001
0100
1000
,
0010
0100
0001
1000
,
0010
0100
0001
0000
1000
0000
0001
0000
,
0100
0010
0100
0000
0001
0010
0100
0010
,
0001
0000
0010
0000
0100
0000
1000
0000
0001
0100
0001
0000
0010
0100
0010
0000
,
0100
1000
0100
0000
1000
0000
1001
0000
0000
0000
0010
0000
0100
0000
0010
0000
,
0100
1000
0100
0020
0000
0031
0010
0100
,
0000
0010
0100
1000
0100
0010
0000
0001
,
0010
0001
0000
0100
0100
0100
0000
0010
,
0000
1000
0100
1000
0001
0000
0001
0100
,
0010
0100
0001
0200
0000
0301
0000
0100
,
0000
0001
1000
0100
0000
0100
0000
1000
,
0001
1000
0000
2000
0000
3002
0000
0100
,
0103
0000
0001
1000
0100
0000
0100
1000
,
0020
0000
1030
0000
0010
0000
0001
0010
,
0100
0000
0010
0000
1000
0000
0001
0100
,
0001
0001
0001
0000
1000
0000
0100
1000
,
0010
0000
0100
0000
0001
0000
0010
0100
,
2000
0000
3001
0000
0010
0000
0001
1000
,
0001
0000
0100
0000
0010
0001
0010
1000
,
0010
2010
0100
0010
,
0001
3001
0100
0001
,
0010
0000
0100
0000
0100
1000
0010
0000
,
0100
0001
0010
0100
1000
0100
0000
0100
,
1000
0100
0010
0000
0100
0010
0001
0000
,
0010
0100
0010
0000
0001
0000
0100
0000
,
0001
0010
0100
1000
,
0010
0000
0100
0001
0010
1000
0100
0010
,
0100
0000
0001
0000
0010
0000
0100
0010
0002
0000
0023
0000
0130
0000
0010
0000
,
0100
0010
0110
0000
0100
1000
0100
0010
,
0100
1000
0100
0000
0010
0010
0001
0000
,
0010
0010
0100
0000
1000
0001
0100
0001
,
1000
0001
0100
0000
0010
0010
0100
0000
,
0010
0010
1000
0000
0100
0010
0100
1000
,
0100
0010
0100
0000
0010
0010
0001
0000
,
0010
0010
0100
1000
0001
1000
1001
0000
,
0001
1000
0001
0000
1000
0100
0010
0100
,
1000
0010
0001
0010
1000
0010
0100
0000
,
0100
0001
0010
0000
1000
0100
0010
0001
,
0010
0100
0010
1000
0010
0100
0010
0000
,
0100
0010
1000
0000
0001
0100
0001
0010
,
0100
1000
0100
0010
0100
1000
0100
0000
,
0100
1000
0001
0000
1000
0001
0010
0000
,
0100
0100
0010
0010
0000
0001
0011
0001
,
0010
0001
0011
0000
0010
0100
0010
0001
,
0010
0100
0010
0000
0100
1000
0010
0000
,
0100
0001
0010
0000
0100
1000
0100
0010
,
0100
0100
0100
0000
1000
0001
0010
0000
,
0100
1000
0001
0000
0100
0001
0100
1000
,
0100
0001
0100
0000
0010
0100
1000
0000
,
1000
0000
0100
0000
0001
0000
0000
0000
0001
0000
0100
0001
0000
0000
0000
0001
,
1000
0100
1000
0000
0010
1000
0100
1000
,
0010
0000
1000
0000
0001
0010
0100
0010
,
0001
0010
0100
0000
0010
0001
1000
0001
,
0100
0000
0010
0000
1000
0100
0001
0100
,
1000
0100
0010
0000
0100
0001
0010
0001
,
0100
0000
0001
0000
1000
0100
0010
0001
,
0010
0100
1000
0000
0100
0000
1000
0100
,
0010
0100
1000
0000
0200
0000
1300
0000
;

//---------------dance-single - ----------------
#NOTES:
     dance-single:
     X-Scale 13:
     Hard:
     9:
     0.572976,0.813831,0.113984,0.014248,0.395384,563.000000,547.000000,16.000000,2.000000,0.000000,0.000000,0.572976,0.813831,0.113984,0.014248,0.395384,563.000000,547.000000,16.000000,2.000000,0.000000,0.000000:
// measure 0
0000
0000
1020
0100
,  // measure 1
0001
0100
1000
0100
,  // measure 2
0001
0000
0000
0000
0100
0000
0000
0000
1030
0000
0010
0100
0010
0000
1000
0001
,  // measure 3
1000
0000
0100
0000
0001
0000
1000
0000
1000
0000
0001
0100
0001
0000
0001
0010
,  // measure 4
0001
0000
0100
0000
0010
0000
0000
0000
1000
0000
0100
0000
1000
0000
1000
0001
,  // measure 5
0100
0000
0010
0000
1000
0000
0000
0000
0001
0000
1000
0000
0001
0000
1000
0010
,  // measure 6
1000
0000
1000
0000
0100
0000
0010
0000
0100
1000
0010
1000
0100
1000
0010
1000
,  // measure 7
0001
0000
0000
0000
0000
0000
0000
0000
0000
0000
0000
0000
0010
0000
0000
0000
0000
0000
0000
0000
0000
0000
0000
0000
0001
0000
0000
0000
0000
0000
0000
0000
0000
0000
0000
0000
0010
0000
0000
0000
0000
0000
0000
0000
0000
0000
0000
0000
0100
0000
0000
0000
0000
0000
0000
0000
0000
0000
0000
0000
0010
0000
0000
0000
0000
0000
0000
0000
0000
0000
0000
0000
0100
0000
0000
0000
0000
0000
0000
0000
0000
0000
0000
0000
0010
0000
0000
0000
0000
0000
0000
0000
0000
0000
0000
0000
0001
0000
0000
0000
0000
0000
0000
0000
0000
0000
0000
0000
0010
0000
0000
0000
0000
0000
0001
0000
0000
0000
0000
0000
0010
0000
0000
0000
0000
0000
0000
0000
0000
0000
0000
0000
0100
0000
0000
0000
0000
0000
1000
0000
0000
0000
0000
0000
0100
0000
0000
0000
0000
0000
0000
0000
0000
0000
0000
0000
1000
0000
0000
0000
0000
0000
0000
0000
0000
0000
0000
0000
0010
0000
0000
0000
0000
0000
0000
0000
0100
0000
0000
0000
0000
0000
0000
0000
0010
0000
0000
0000
0000
0000
0000
0000
,  // measure 8
0100
0000
0010
0000
0100
0000
0010
1000
0010
0000
1000
0000
1010
0000
0000
0000
4000
0000
3000
0000
0010
0000
0000
0000
0100
0000
0000
0000
0010
0000
0000
0000
,  // measure 9
0100
0000
0000
0001
0000
0000
1000
0000
0000
0000
0000
0000
0100
0000
0000
0000
0000
0000
0010
0000
0000
0000
0100
0000
0000
0000
0010
0000
0000
0000
0001
0000
0000
0000
0000
0000
0100
0000
0000
0010
0000
0000
1000
0000
0000
0000
0000
0000
,  // measure 10
0010
1000
0100
0000
0001
0000
0100
0000
0010
0000
0010
0000
0001
0100
0010
0000
,  // measure 11
0010
0100
0001
0000
0001
0000
0040
0030
0040
0030
0011
0000
0001
0000
1000
0000
,  // measure 12
0100
1000
0001
0000
0100
0000
0010
0000
0040
0030
0100
0000
1000
0000
0100
0000
,  // measure 13
0010
0000
0000
0100
0000
0000
0001
0000
0000
0000
0000
0000
1000
0000
0000
0000
0000
0000
0001
0000
0000
0000
0010
0000
0000
0000
0001
0000
0000
0000
1000
0000
0000
0000
0000
0000
0010
0000
0000
1000
0000
0000
0100
0000
0000
0000
0000
0000
,  // measure 14
0100
1000
0010
0000
1000
0000
0010
0000
0100
0000
0100
0000
0010
0100
0001
0000
,  // measure 15
0001
0000
0000
0000
0000
0000
0000
0000
0000
0000
0000
0000
0100
0000
0000
0000
0000
0000
0000
0000
0000
0000
0000
0000
0010
0000
0000
0000
0000
0000
0000
0000
0000
0000
0000
0000
0000
0000
0000
0000
0000
0000
0000
0000
0000
0000
0000
0000
1000
0000
0000
0000
0000
0000
0000
0000
0000
0000
0000
0000
0000
0000
0000
0000
0000
0000
0000
0000
0000
0000
0000
0000
1000
0000
0000
0000
0000
0000
0000
0000
0000
0000
0000
0000
0000
0000
0000
0000
0001
0000
0000
0000
0000
0000
0000
0000
0000
0000
0000
0000
0000
0000
0000
0000
1000
0000
0000
0000
0000
0000
0000
0000
0000
0000
0000
0000
0000
0000
0000
0000
1001
0000
0000
0000
0000
0000
0000
0000
0000
0000
0000
0000
1000
0000
0000
0000
0000
0000
0000
0000
0000
0000
0000
0000
0001
0000
0000
0000
0000
0000
0000
0000
0000
0000
0000
0000
0100
0000
0000
0000
0000
0000
0001
0000
0000
0000
0000
0000
0100
0000
0000
0000
0000
0000
0000
0000
0000
0000
0000
0000
0010
0000
0000
0000
0000
0000
0000
0000
0000
0000
0000
0000
,  // measure 16
0110
0000
0000
0000
0001
0000
0100
0000
0010
0000
1000
0010
1000
0000
0100
0000
,  // measure 17
1000
0000
0000
0000
0001
0000
0000
0000
0010
0000
0000
0000
0100
0000
0000
0000
0000
0000
0010
0000
0000
0001
0000
0000
0010
0000
0000
0000
0000
0000
0100
0000
0000
1000
0000
0000
0100
0000
0000
0000
0000
0000
0100
0000
0000
0000
0000
0000
,  // measure 18
0010
0001
0000
0000
0100
0000
0100
0010
0100
0000
0100
1000
0100
0000
0100
0001
,  // measure 19
0100
0000
0100
0000
0100
0000
0010
0000
0001
0000
0010
0100
0010
0000
0100
0000
,  // measure 20
0110
0000
0040
0030
1000
0000
0010
0000
1000
0000
0001
0010
0001
0000
1000
0000
,  // measure 21
0010
0000
0000
0000
0100
0000
0000
0000
0001
0000
0000
0000
1000
0000
0000
0000
0000
0000
0001
0000
0000
0100
0000
0000
0001
0000
0000
0000
0000
0000
0100
0000
0000
0010
0000
0000
0100
0000
0000
0000
0000
0000
0010
0000
0000
0000
0000
0000
,  // measure 22
0010
0000
1000
0010
1000
0000
0001
0010
0001
0000
0010
0100
0010
0000
0010
0001
,  // measure 23
0000
0000
0000
0000
0000
0000
0000
0000
2001
0000
0000
0001
0000
0000
0000
0000
0010
0000
0000
0010
0000
0000
0000
0000
0100
0000
0000
0100
0000
0000
0000
0000
,  // measure 24
0010
0000
0000
0010
0000
0000
0000
0000
3010
0000
0000
0000
0000
0000
0000
0000
1000
0000
0000
0000
0001
0000
0000
0000
0001
0000
0000
0000
0010
0000
0001
0000
,  // measure 25
0010
0000
0100
0000
0010
0000
0100
0000
1000
0000
0010
0000
0000
0000
0010
0100
,  // measure 26
0000
0000
0100
0001
0100
0000
0010
0000
1000
0000
0001
0000
0000
0000
0001
0000
,  // measure 27
1000
0000
0100
0000
1000
0000
0010
0100
0010
0000
0100
0000
0000
0000
0100
0000
,  // measure 28
0010
0000
1000
0010
1000
0000
0010
0000
0001
0000
0010
0000
0100
0000
0010
0000
,  // measure 29
1000
0100
0010
0100
1000
0010
0100
0001
,  // measure 30
0010
0000
0001
0000
1000
0100
1000
0100
1000
0010
1000
0010
0100
0001
0100
0001
,  // measure 31
0100
0000
0000
0010
0000
0000
0100
0000
0000
0010
0000
0000
1000
0000
0000
0000
0000
0000
0100
0000
0000
1000
0000
0000
0040
0000
0000
0030
0000
0000
0100
0000
0010
0000
0100
0000
0110
0000
0000
0000
0000
0000
0100
0000
0000
0000
0000
0000
,  // measure 32
0001
0000
0101
0000
1001
0000
0000
0001
0100
0000
0010
0000
0100
0000
0010
1000
,  // measure 33
0010
0000
1000
0000
0100
0000
0000
0010
0001
0000
0100
0000
0001
0000
0000
0100
,  // measure 34
0010
0000
0100
0000
1000
0000
0000
0100
0001
0000
0010
0000
0001
0100
0000
0100
,  // measure 35
0001
0000
0010
0000
0100
0000
0000
0100
1000
0000
0100
0000
0010
0000
0000
0100
,  // measure 36
1000
0000
0001
0000
0100
0000
0000
0010
0100
0000
1000
0000
0100
0000
0010
0100
,  // measure 37
0010
0000
0100
0000
0001
0000
0000
1000
0001
0000
0100
0000
0010
0000
0000
1000
,  // measure 38
0100
0000
0010
0000
0110
0000
0100
0000
0040
0030
0100
0100
0110
0000
0010
0000
,  // measure 39
0001
0010
0100
0001
0100
1000
0100
1000
,  // measure 40
0001
0100
1000
0100
0001
0100
0001
0010
,  // measure 41
0001
1000
0100
0001
0100
1000
0001
0100
,  // measure 42
0010
0000
0100
0000
0010
0000
0000
0100
0010
0000
0100
0000
0001
0000
1000
0000
,  // measure 43
0001
0100
0010
1000
0010
0100
1000
0100
,  // measure 44
0010
1000
0010
0001
0010
1000
0010
0100
,  // measure 45
0001
0010
0001
1000
0010
0100
0001
0000
,  // measure 46
0100
0010
0100
0000
0010
0000
0010
0000
0000
0000
0100
0000
0110
0000
0001
0000
,  // measure 47
0010
0000
0011
0000
0101
0000
0000
0000
0010
0000
0100
0000
0010
0000
0001
0010
,  // measure 48
0001
0100
0010
0000
1000
0100
0010
0000
,  // measure 49
0100
0000
0010
0000
0001
0000
0000
0000
0010
0000
0100
0000
0010
0000
0001
0010
,  // measure 50
0001
1000
0001
0000
0100
0010
0100
0000
,  // measure 51
0001
0000
0010
0000
0001
0000
0000
0000
1000
0000
0100
0000
1000
0000
0010
1000
,  // measure 52
0010
0100
0001
0000
0010
0001
0100
0000
,  // measure 53
0010
0000
1000
0000
0010
0000
0000
0000
1000
0000
0100
1000
0000
0000
0000
1000
,  // measure 54
0001
1000
0001
1000
0001
0000
0100
0000
0010
0000
0001
0000
0010
0000
1000
0000
,  // measure 55
0010
0100
0001
0100
0001
0010
1000
0010
,  // measure 56
0001
0010
0100
1000
0001
0100
0010
1000
,  // measure 57
0010
0100
0001
0010
0001
0001
1000
0100
,  // measure 58
0010
0100
0001
0100
0010
0100
1000
0001
,  // measure 59
1000
0100
0010
0100
0010
0001
1000
0001
,  // measure 60
0010
1000
0010
0001
0100
0010
0001
0010
,  // measure 61
1000
0000
0100
0000
1000
0000
0000
0001
1000
0001
0000
0001
0101
0000
0000
0000
;
