#TITLE:Metal & Dust;
#SUBTITLE:;
#ARTIST:London Grammar;
#TITLETRANSLIT:;
#SUBTITLETRANSLIT:;
#ARTISTTRANSLIT:;
#GENRE:Trip Hop;
#CREDIT:;
#BANNER:m+d-bn.png;
#BACKGROUND:m+d-bg.png;
#LYRICSPATH:;
#CDTITLE:cdtitle.png;
#MUSIC:m+d.ogg;
#OFFSET:-0.006000;
#SAMPLESTART:62.445000;
#SAMPLELENGTH:15.610000;
#SELECTABLE:YES;
#BPMS:0.000000=61.500000
,64.000000=123.000000
;
#STOPS:
;
#BGCHANGES:;
#KEYSOUNDS:;
#ATTACKS:;

//---------------dance-single - ----------------
#NOTES:
     dance-single:
     X-Scale 11:
     Hard:
     8:
     0.444683,0.469263,0.015642,0.218990,0.473174,398.000000,396.000000,2.000000,28.000000,0.000000,0.000000,0.444683,0.469263,0.015642,0.218990,0.473174,398.000000,396.000000,2.000000,28.000000,0.000000,0.000000:
// measure 0
0000
0000
0000
0000
,  // measure 1
0000
0000
0000
0000
,  // measure 2
0000
0000
0000
0000
,  // measure 3
0000
0000
0000
0000
,  // measure 4
2000
0000
0000
0000
0000
0000
0000
0000
0000
0000
0000
0000
0000
0000
0000
0000
3020
0000
0000
1000
0000
0000
1000
0000
0000
0000
0000
0000
0000
0000
0000
0000
,  // measure 5
2030
0000
0000
0001
0000
0000
0001
0000
0000
0000
0000
0000
0002
0000
0003
0000
3002
0000
0000
0000
0000
0000
0000
0000
0000
0000
0000
0000
0000
0000
0000
0000
,  // measure 6
0023
0000
0000
0000
0000
0000
0000
0000
0000
0000
0000
0000
0000
0000
0000
0000
0230
0000
0000
0010
0000
0000
1000
0000
0000
0000
0000
0000
0000
0000
0000
0000
,  // measure 7
2300
0000
0000
0001
0000
0000
0100
0000
0000
0000
0000
0000
0002
0000
0003
0000
3002
0000
0000
0000
0000
0000
0000
0000
0000
0000
0000
0000
0000
0000
1000
0000
,  // measure 8
1003
0000
0000
0001
0000
0000
0100
0000
0000
0000
0000
0000
0000
0000
0001
0000
0010
0000
0000
0001
0000
0000
1000
0000
0000
0000
0000
0000
1000
0000
0100
0000
,  // measure 9
1000
0000
0000
0001
0000
0000
1000
0000
0000
0000
0000
0000
0100
0000
0000
0000
1000
0000
0000
0010
0000
0000
1000
0000
0000
0000
0000
0000
0200
0000
0000
0000
,  // measure 10
0310
0000
0000
0100
0000
0000
1000
0000
0000
0000
0000
0000
0000
0000
0001
0000
2000
0000
0000
0001
0000
0000
0100
0000
0000
0000
0000
3000
0010
0000
0000
0000
,  // measure 11
0010
0000
0000
1000
0000
0000
0001
0000
0000
0000
0100
0000
0000
0000
0010
0000
0200
0000
0000
0000
0000
0000
0000
0000
0300
0000
0000
0000
0200
0000
0310
0000
,  // measure 12
0100
0000
0000
0010
0000
0000
1000
0000
0000
0000
0000
0000
0000
0000
0001
0000
0010
0000
0000
0100
0000
0000
1000
0000
0000
0000
0000
0000
0010
0000
0100
0000
,  // measure 13
0001
0000
0000
0100
0000
0000
0010
0000
0000
0000
0000
0000
2000
0000
3100
0000
1000
0000
0000
0001
0000
0000
0100
0000
0000
0000
0000
0000
0002
0000
0000
0000
,  // measure 14
0013
0000
0000
0001
0000
0000
1000
0000
0000
0000
0000
0000
0000
0000
0001
0000
1000
0000
0000
0010
0000
0000
0100
0000
0000
0000
0000
0000
0002
0000
0000
0003
,  // measure 15
1000
0000
0000
0001
0000
0000
0010
0000
0000
0000
0100
0000
1000
0000
0020
0000
0000
0000
0000
0000
0000
0000
0000
0000
0230
0000
0000
0000
0000
0000
0300
0000
,  // measure 16
0110
0100
0001
1000
0100
0010
0100
1000
,  // measure 17
0100
0000
0001
0000
0100
0000
1000
0100
1000
0000
0001
0100
0001
1000
0001
0100
,  // measure 18
0001
0000
0010
0000
0100
0000
0010
0100
1000
0000
0001
0100
0001
1000
0001
0100
,  // measure 19
0001
0000
0000
0010
0100
0000
0010
0000
0001
0000
1000
0100
1000
0000
0010
0000
,  // measure 20
1000
0100
0001
0100
1000
0010
0100
0001
,  // measure 21
0100
0000
0010
0000
1000
0000
0001
0100
0001
0000
1000
0010
1000
0001
1000
0010
,  // measure 22
1000
0000
0010
0000
0100
0000
0010
1000
0001
0000
1000
0010
1000
0001
1000
0010
,  // measure 23
1000
0000
0000
0010
0100
0000
0001
0000
1000
0000
0001
0000
0001
0100
0001
0000
,  // measure 24
0020
0000
0032
0000
0010
0010
1000
1000
,  // measure 25
0103
0000
0001
0000
1000
0000
0100
1000
0100
0000
0010
0001
0010
0100
0010
0001
,  // measure 26
0010
0000
0010
0000
0100
0000
1000
0010
1000
0000
0001
0100
0001
1000
0001
0100
,  // measure 27
0001
0000
0000
0001
0100
0000
0001
0000
1000
0000
0010
0000
1000
0001
1000
0000
,  // measure 28
0200
0000
2300
0000
0100
0100
0001
0001
,  // measure 29
3010
0000
1000
0000
0001
0000
1000
0001
1000
0000
1000
0010
1000
0001
1000
0010
,  // measure 30
1000
0000
0100
0000
0010
0000
0001
0100
0001
0000
1000
0010
1000
0001
1000
0010
,  // measure 31
1000
0000
0000
1000
0001
0000
1000
0000
0010
0000
0100
0000
0001
0100
0001
0000
,  // measure 32
0101
0000
0100
0000
0010
0000
1000
0001
1000
0000
0010
0000
0100
0000
0001
0000
,  // measure 33
0100
0000
0010
0000
1000
0000
0001
0100
0001
0000
0010
0000
0100
0000
0010
0000
,  // measure 34
0001
0000
1000
0000
0001
0000
0100
0001
1000
0000
0001
0000
1000
0000
0100
0000
,  // measure 35
0010
0000
0100
0000
0010
0000
0001
1000
0002
0000
0000
0000
0013
0000
0001
1000
,  // measure 36
0001
0000
0010
0000
0100
0000
0010
0100
0000
0010
0100
0000
1000
0000
0001
0100
,  // measure 37
0001
0000
1000
0000
0100
0000
1000
0001
2000
0000
0000
0000
3200
0000
0000
0000
,  // measure 38
0320
0000
0032
0000
1000
1000
0000
0010
,  // measure 39
0013
0001
0010
0000
0100
0010
0100
0000
0001
0010
0001
0000
1000
0001
1000
0000
,  // measure 40
1000
0000
1000
0000
0001
0000
0100
0000
0001
0100
0001
0000
1000
0000
0100
0000
,  // measure 41
0010
0000
0010
0000
0001
0000
1000
0100
0000
1000
0100
0000
0010
0001
0010
0001
,  // measure 42
0010
0010
1000
0010
0001
1000
0100
0100
,  // measure 43
0010
0000
0001
0010
0001
0000
0100
0010
0000
0100
0010
0000
1000
0010
1000
0010
,  // measure 44
1000
1000
0100
0010
0100
1000
0001
0001
,  // measure 45
0100
0000
0010
0100
0010
0000
1000
0010
0000
1000
0010
0000
1000
0001
1000
0001
,  // measure 46
1000
1000
0001
0001
0100
0001
1000
1000
,  // measure 47
0010
0100
0010
0000
1000
0001
1000
0000
0001
0100
0001
0000
1000
0100
1000
0000
,  // measure 48
0100
0000
0000
0000
;

//---------------dance-single - ----------------
#NOTES:
     dance-single:
     X-Scale 7:
     Medium:
     5:
     0.307256,0.319099,0.007821,0.445800,0.172063,275.000000,274.000000,1.000000,57.000000,0.000000,0.000000,0.307256,0.319099,0.007821,0.445800,0.172063,275.000000,274.000000,1.000000,57.000000,0.000000,0.000000:
0000
0000
0000
0000
,
0000
0000
0000
0000
,
0000
0000
0000
0000
,
0000
0000
0000
0000
,
0002
0000
0023
0000
,
0230
0000
2300
0000
,
3002
0000
0203
0000
,
0320
0000
2030
0000
,
3001
0000
0000
1000
0000
0000
0002
0000
0000
0000
0000
0000
0000
0000
0000
0000
0013
0000
0000
0001
0000
0000
0020
0000
0000
0000
0000
0000
0000
0000
0000
0000
,
0130
0000
0000
1000
0000
0000
0002
0000
0000
0000
0000
0000
0010
0000
0000
0000
0013
0000
0000
0001
0000
0000
2000
0000
0000
0000
0000
0000
0200
0000
0300
0000
,
3100
0000
0000
1000
0000
0000
0020
0000
0000
0000
0000
0000
0000
0000
0000
0000
0130
0000
0000
0010
0000
0000
2000
0000
0000
0000
0000
0000
0000
0000
0000
0000
,
3001
0000
0000
1000
0000
0000
0020
0000
0000
0000
0100
0000
0000
0000
0100
0000
0130
0000
0000
0001
0000
0000
2000
0000
0000
0000
0000
0000
0020
0000
0030
0000
,
3010
0000
0000
1000
0000
0000
0002
0000
0000
0000
0000
0000
0000
0000
0000
0000
0013
0000
0000
0100
0000
0000
2000
0000
0000
0000
0000
0000
0000
0000
0000
0000
,
3001
0000
0000
1000
0000
0000
0020
0000
0000
0000
0000
0000
0000
0000
0001
0000
0031
0000
0000
0010
0000
0000
2000
0000
0000
0000
0000
0000
0200
0000
0300
0000
,
3100
0000
0000
1000
0000
0000
0002
0000
0000
0000
0000
0000
0000
0000
0000
0000
0013
0000
0000
0001
0000
0000
0200
0000
0000
0000
0000
0000
0000
0000
0000
0000
,
0310
0000
0000
1000
0000
0000
0001
0000
0000
0000
1000
0000
0100
0000
1000
0000
0000
0000
0000
0000
0000
0000
0000
0000
0002
0000
0000
0000
0000
0000
0000
0000
,
0013
0001
1000
0000
0010
0100
0001
1000
,
0010
0100
0001
0000
1000
0010
1000
0100
,
0010
0000
0001
0000
1000
0010
1000
0100
,
0010
0000
0000
0001
0000
0000
0100
0000
0001
0000
0000
0010
0000
0000
0100
0000
,
1000
0010
1000
0000
0001
0100
1000
0100
,
0001
0010
0100
0000
1000
0010
1000
0100
,
0010
0000
0001
0000
1000
0010
1000
0100
,
0010
0000
0000
0001
0000
0000
0100
0000
0001
0000
0000
0010
0000
0000
0100
0000
,
2000
0000
3001
0000
1000
0100
0010
0001
,
1000
0001
0100
0000
0001
0100
0001
0010
,
0100
0000
1000
0000
0001
0100
0001
0010
,
0100
0000
0000
1000
0000
0000
0001
0000
1000
0000
0000
0100
0000
0000
0010
0000
,
0002
0000
1003
0000
0001
0100
0010
1000
,
0010
0100
0001
0000
0001
0100
0001
0010
,
0100
0000
1000
0000
0001
0100
0001
0010
,
0100
0000
0000
1000
0000
0000
0010
0000
1000
0000
0000
0100
0000
0000
0010
0000
,
0001
0001
0100
0100
0010
1000
0000
1000
,
0001
0001
0100
0100
0010
1000
0000
0001
,
1000
1000
0010
0010
1000
0100
0000
0100
,
0010
0010
0001
0001
2000
0000
3001
1000
,
0100
0000
1000
0000
0010
0000
0100
0010
0000
0000
1000
0000
0001
0000
1000
0000
,
0001
0010
0100
1000
0002
0000
0203
0000
,
0320
0000
2030
0000
0000
0001
0000
0000
,
3001
1000
0001
1000
0100
0010
0100
0010
,
0210
0320
0032
2003
0001
3000
0020
0230
,
0301
0100
0001
0000
0010
0100
0000
0100
,
2000
3002
2003
3200
0010
0300
0002
0023
,
1030
0010
0001
0000
1000
0010
0000
0010
,
0200
0302
2003
3002
0010
0003
0020
0032
,
1003
0010
1000
0000
0001
1000
0000
1000
,
0200
2300
3002
0023
0100
0030
0002
2003
,
3001
1000
0001
1000
0010
0100
0010
0100
,
0010
0000
0000
0000
;

//---------------dance-single - ----------------
#NOTES:
     dance-single:
     X-Scale 5:
     Easy:
     3:
     0.222341,0.280091,0.015642,0.156421,0.093853,199.000000,197.000000,2.000000,20.000000,0.000000,0.000000,0.222341,0.280091,0.015642,0.156421,0.093853,199.000000,197.000000,2.000000,20.000000,0.000000,0.000000:
0000
0000
0000
0000
,
0000
0000
0000
0000
,
0000
0000
0000
0000
,
0000
0000
0000
0000
,
0002
0000
1000
0000
,
2003
0000
0100
0000
,
3200
0000
0010
0000
,
0320
0000
0001
0000
,
0031
0000
0000
0010
0000
0000
0000
0100
1000
0000
0000
0001
0000
0000
1000
0000
,
0100
0000
0000
1000
0000
0000
0000
0000
0001
0000
0000
0100
0000
0000
0001
0000
,
0010
0000
0000
0100
0000
0000
0000
1000
0100
0000
0000
1000
0000
0000
0001
0000
,
1000
0000
0100
1000
0000
0001
0000
1000
0100
0000
0000
0010
0000
0000
0001
0000
,
0010
0000
0000
0001
0000
0000
0000
0100
0001
0000
0000
1000
0000
0000
0010
0000
,
1000
0000
0000
0001
0000
0000
0000
0100
0001
0000
0000
0010
0000
0000
0100
0000
,
1000
0000
0000
0001
0000
0000
0000
1000
0010
0000
0000
0100
0000
0000
0001
0000
,
1000
0000
0000
0010
0000
1000
0010
2000
0000
0000
0000
0000
0002
0000
0000
3003
,
1001
1000
0001
0000
0010
0000
0100
0000
,
1000
0010
1000
0000
0001
0000
0100
0010
,
0100
0000
0001
0000
0010
0000
0001
0010
,
0001
1000
0010
1000
,
0001
1000
0001
0000
0100
0000
0010
0000
,
1000
0100
1000
0000
0001
0000
0100
0001
,
0100
0000
0010
0000
1000
0000
0100
0010
,
0100
1000
0002
0203
,
0320
2030
0000
0000
,
0001
0000
0100
0000
,
3001
0000
0010
0000
0100
0000
1000
0100
,
1000
0001
0200
0320
,
2030
3002
0000
0000
,
0010
0000
1000
0000
,
0013
0000
0001
0000
1000
0000
0001
0010
,
0001
0001
1000
1000
,
1001
0000
1000
0000
0100
0010
0000
0010
,
0001
0000
1000
0000
0010
0100
0000
0100
,
0001
0000
0010
0000
0100
1000
0000
1000
,
0001
0000
0010
0000
0002
1000
0000
1003
,
0200
0000
0010
0000
0000
1000
0000
1000
,
0000
0010
0320
0032
,
2003
0000
3002
0000
0000
0100
0000
0100
,
0100
1000
0010
1000
,
1003
0000
0001
0010
0000
0000
0100
1000
,
0001
0000
0100
0000
0010
0100
0000
0100
,
0001
0000
1000
0100
0000
0000
0010
0001
,
1000
0000
0010
0000
0100
0001
0000
0001
,
1000
0000
0010
0100
0000
0000
0001
1000
,
0100
0000
1000
0000
0001
0010
0000
0010
,
0100
0000
1000
0001
0000
0000
0100
0010
,
1000
0001
1000
0001
;

//---------------dance-single - ----------------
#NOTES:
     dance-single:
     X-Scale 1:
     Beginner:
     1:
     0.083797,0.131394,0.015642,0.007821,0.000000,75.000000,73.000000,2.000000,1.000000,0.000000,0.000000,0.083797,0.131394,0.015642,0.007821,0.000000,75.000000,73.000000,2.000000,1.000000,0.000000,0.000000:
0000
0000
0000
0000
,
0000
0000
0000
0000
,
0000
0000
0000
0000
,
0000
0000
0000
0000
,
1000
0000
0000
0000
,
0100
0000
0000
0000
,
0010
0000
0000
0000
,
0001
0000
0000
0000
,
1000
0000
0000
0000
,
0010
0000
0000
0000
,
0100
0000
0000
0000
,
0001
0000
0000
0000
,
1000
0000
0000
0000
,
0100
0000
0000
0000
,
0010
0000
0000
0000
,
0001
0000
0000
0000
,
0011
0000
0000
0000
,
1000
0000
0001
0000
,
1000
0000
0100
0000
,
0010
0000
0001
0000
,
0100
0000
0000
0000
,
0010
0000
1000
0000
,
0010
0000
1000
0000
,
0001
0000
0100
0000
,
0010
0000
0000
0000
,
1000
0000
0001
0000
,
1000
0000
0001
0000
,
0100
0000
0010
0000
,
1000
0000
0000
0000
,
0100
0000
0010
0000
,
0100
0000
0010
0000
,
0001
0000
1000
0000
,
0001
0000
0000
0000
0000
1000
0000
0000
,
1000
0000
0000
0000
0000
0100
0000
0000
,
0100
0000
0000
0000
0000
0010
0000
0000
,
0010
0000
0000
0000
0000
0001
0000
0000
,
0001
0000
0000
0000
0000
1000
0000
0000
,
1000
0000
0001
0010
,
0100
0000
1000
0000
0000
0001
0000
0000
,
0001
0000
1000
0000
,
1001
0000
0000
0000
0000
1000
0000
0000
,
1000
0000
0000
0000
0000
0001
0000
0000
,
0001
0000
0000
0000
0000
0100
0000
0000
,
0100
0000
0000
0000
0000
0010
0000
0000
,
0010
0000
0000
0000
0000
1000
0000
0000
,
1000
0000
0000
0000
0000
0001
0000
0000
,
0001
0000
0000
0000
0000
0010
0000
0000
,
0020
0000
0000
0000
,
0030
0000
0000
0000
;
