#VERSION:0.83;
#TITLE:メフィスト;
#SUBTITLE:;
#ARTIST:女王蜂;
#TITLETRANSLIT:Mephisto;
#SUBTITLETRANSLIT:;
#ARTISTTRANSLIT:QUEEN BEE;
#GENRE:J-Pop Rock;
#ORIGIN:;
#CREDIT:;
#BANNER:Mephisto-bn.png;
#BACKGROUND:Mephisto-bg.png;
#PREVIEWVID:;
#JACKET:Mephisto-jacket.png;
#CDIMAGE:;
#DISCIMAGE:;
#LYRICSPATH:;
#CDTITLE:cdtitle.png;
#MUSIC:Mephisto.ogg;
#OFFSET:-0.004000;
#SAMPLESTART:53.604000;
#SAMPLELENGTH:12.800000;
#SELECTABLE:YES;
#BPMS:0.000=150.000;
#STOPS:130.000=1.200;
#DELAYS:;
#WARPS:;
#TIMESIGNATURES:0.000=4=4;
#TICKCOUNTS:0.000=4;
#COMBOS:0.000=1;
#SPEEDS:0.000=1.000=0.000=0;
#SCROLLS:0.000=1.000;
#FAKES:;
#LABELS:0.000=Song Start;
#BGCHANGES:2.000=Mephisto.avi=1.000=1=0=0=StretchNoLoop==CrossFade==,
99999=-nosongbg-=1.000=0=0=0 // don't automatically add -songbackground-
;
#KEYSOUNDS:;
#ATTACKS:
;

//---------------dance-single - ----------------
#NOTEDATA:;
#CHARTNAME:X-Scale 2;
#STEPSTYPE:dance-single;
#DESCRIPTION:;
#CHARTSTYLE:;
#DIFFICULTY:Beginner;
#METER:1;
#RADARVALUES:0.121203,0.175511,0.009323,0.000000,0.000000,91.000000,90.000000,1.000000,0.000000,0.000000,0.000000,0.000000,0.000000,0.000000,0.121203,0.175511,0.009323,0.000000,0.000000,91.000000,90.000000,1.000000,0.000000,0.000000,0.000000,0.000000,0.000000,0.000000;
#CREDIT:iamthek3n;
#NOTES:
// measure 0
0000
0000
0000
0000
,  // measure 1
0000
0000
0000
0000
,  // measure 2
0000
0000
0000
0000
,  // measure 3
0000
0000
0000
0000
,  // measure 4
0000
0000
0001
0000
,  // measure 5
0000
0000
1000
0000
,  // measure 6
0000
0000
0001
0000
,  // measure 7
0000
0000
1000
0000
,  // measure 8
0000
0000
0001
0000
,  // measure 9
0000
0000
0000
0000
,  // measure 10
0000
0000
1000
0000
,  // measure 11
0100
0000
1000
0000
,  // measure 12
0001
0000
1000
0000
,  // measure 13
0100
0000
1000
0000
,  // measure 14
0001
0000
0010
0000
,  // measure 15
0100
0000
0010
0000
,  // measure 16
0001
0000
1000
0000
,  // measure 17
0001
0000
0100
0000
,  // measure 18
0001
0000
1000
0000
,  // measure 19
0010
0000
1000
0000
,  // measure 20
0001
0000
0010
0000
,  // measure 21
0100
0000
0010
0000
,  // measure 22
0001
0000
1000
0000
,  // measure 23
0010
0000
1000
0000
,  // measure 24
0001
0000
0100
0000
,  // measure 25
0000
0000
0001
0000
,  // measure 26
0000
0000
1000
0000
,  // measure 27
0000
0000
0010
0000
,  // measure 28
0000
0000
1000
0000
,  // measure 29
0100
0000
1000
0000
,  // measure 30
0000
0000
0001
0000
,  // measure 31
0000
0000
0100
0000
,  // measure 32
0010
0000
0100
1001
,  // measure 33
0000
1000
0000
0001
,  // measure 34
0000
1000
0000
0001
,  // measure 35
0000
0100
0000
0010
,  // measure 36
0000
0100
0000
0010
,  // measure 37
0000
1000
0000
0001
,  // measure 38
0000
0100
0000
0001
,  // measure 39
0000
1000
0000
0001
,  // measure 40
0000
0010
0000
0100
,  // measure 41
0000
1000
0000
0001
,  // measure 42
0000
0100
0010
0100
,  // measure 43
0000
0001
0000
0010
,  // measure 44
0000
0100
0000
1000
,  // measure 45
0000
0001
0000
1000
,  // measure 46
0000
0001
0100
0001
,  // measure 47
0000
0000
0000
0000
,  // measure 48
0000
0000
0000
1000
,  // measure 49
0000
0000
0000
0100
,  // measure 50
0000
0000
0000
0010
,  // measure 51
0000
0000
0000
0001
,  // measure 52
0000
0000
0000
0100
,  // measure 53
0000
0000
0000
0010
,  // measure 54
0000
0000
0000
1000
,  // measure 55
0000
0000
0000
0001
,  // measure 56
0000
0000
0000
0100
,  // measure 57
0000
0000
0000
0010
,  // measure 58
0000
0000
0000
1000
,  // measure 59
0000
0000
0000
0100
,  // measure 60
0000
0000
0000
0010
,  // measure 61
0000
0000
0000
0001
,  // measure 62
0000
0000
0000
1000
;

//---------------dance-single - ----------------
#NOTEDATA:;
#CHARTNAME:X-Scale 7;
#STEPSTYPE:dance-single;
#DESCRIPTION:;
#CHARTSTYLE:;
#DIFFICULTY:Easy;
#METER:5;
#RADARVALUES:0.330312,0.389365,0.065263,0.391579,0.000000,248.000000,241.000000,7.000000,42.000000,0.000000,0.000000,0.000000,0.000000,0.000000,0.330312,0.389365,0.065263,0.391579,0.000000,248.000000,241.000000,7.000000,42.000000,0.000000,0.000000,0.000000,0.000000,0.000000;
#CREDIT:iamthek3n;
#NOTES:
// measure 0
0000
0000
0000
0000
,  // measure 1
0000
0000
0000
0000
,  // measure 2
0000
0000
0000
0000
,  // measure 3
0000
0000
0000
0000
,  // measure 4
0000
0000
0010
1000
,  // measure 5
0001
0000
1000
0001
0100
0000
0010
0000
,  // measure 6
0000
1000
0001
1000
0001
0000
0010
0000
,  // measure 7
0100
0000
1000
0001
0100
0000
0001
0010
,  // measure 8
0100
0000
0100
0000
0000
1000
0000
0000
,  // measure 9
0001
0010
0001
0000
,  // measure 10
0100
0000
0010
0000
0100
0000
0000
0001
,  // measure 11
0000
0000
1000
0000
0001
0000
0000
0010
,  // measure 12
0000
0100
0010
0100
0010
0000
0000
0001
,  // measure 13
0000
0000
1000
0000
0001
0000
0000
0010
,  // measure 14
0000
0000
0100
1000
0001
0000
0100
0001
,  // measure 15
1000
0000
0100
0020
0000
0031
0010
0200
,  // measure 16
0000
0000
1300
0100
1000
0000
0001
0010
,  // measure 17
0000
0000
0100
0010
0002
0000
1000
0000
,  // measure 18
0100
0000
1000
0000
0103
0000
0010
0100
,  // measure 19
0000
0000
0100
0000
0001
0000
1000
0010
,  // measure 20
0000
0100
0001
1000
0001
0000
0010
0100
,  // measure 21
0000
0100
1000
0000
0002
0000
0100
0000
,  // measure 22
1000
0000
0103
0000
0001
0000
0010
0100
,  // measure 23
1000
0000
0001
0200
0000
0310
0100
0002
,  // measure 24
0000
1000
0103
0001
,  // measure 25
1000
0000
0001
0000
0010
0000
0100
0010
,  // measure 26
0002
0000
0203
0000
0310
0100
0002
0000
,  // measure 27
2003
3100
1000
0001
,  // measure 28
0100
0000
0010
0100
0002
0000
0023
0000
,  // measure 29
0230
2300
3001
0100
,  // measure 30
0101
0000
0001
1000
0100
0000
1000
0000
,  // measure 31
1100
0000
0100
0010
0002
0000
0100
0000
,  // measure 32
1003
0001
2002
3003
,  // measure 33
1000
0000
1010
0000
1000
0001
0200
0000
,  // measure 34
0320
2030
3002
0013
,  // measure 35
0100
0010
0002
0000
0100
0000
1003
0000
,  // measure 36
0001
0010
0200
0000
0310
0100
1000
0000
,  // measure 37
0001
0000
1001
0000
0100
0001
2000
0000
,  // measure 38
3002
0203
0320
1030
,  // measure 39
0001
0000
0100
0000
0010
0100
0010
0000
,  // measure 40
1000
0000
0001
0010
0100
1000
0001
0000
,  // measure 41
1000
0000
1100
0000
0100
0010
0002
0000
,  // measure 42
2003
3020
0230
0301
,  // measure 43
0100
0001
2000
0000
0001
0000
0100
0000
,  // measure 44
3001
1000
0100
0000
0010
0100
1000
0000
,  // measure 45
0001
0000
0101
0000
0100
0001
2000
0000
,  // measure 46
3002
0023
0230
1300
,  // measure 47
0000
0000
0000
0000
,  // measure 48
0000
0000
0000
0001
,  // measure 49
0000
0100
0000
0000
0100
0000
0001
0000
,  // measure 50
0000
1000
0000
0000
1000
0000
0100
0000
,  // measure 51
0000
0010
0000
0000
0010
0100
1000
0000
,  // measure 52
0001
0100
0001
1000
,  // measure 53
0000
0100
0000
0000
0100
0000
0010
0000
,  // measure 54
0000
0001
0000
0000
0001
0000
1000
0000
,  // measure 55
0000
0010
0000
0000
0010
0000
1000
0000
,  // measure 56
0001
0010
0100
0000
0010
0000
0002
0000
,  // measure 57
0000
0100
0000
2003
,  // measure 58
0000
3200
0000
0320
,  // measure 59
0000
0001
0000
0100
,  // measure 60
0000
0001
0000
0130
,  // measure 61
0000
1000
0000
0000
1000
0000
0001
0000
,  // measure 62
0000
0100
0000
0000
0100
0000
0002
0000
,  // measure 63
0000
2000
0000
0000
0000
0000
0000
0000
,  // measure 64
0000
3003
0000
0000
;

//---------------dance-single - ----------------
#NOTEDATA:;
#CHARTNAME:X-Scale 10;
#STEPSTYPE:dance-single;
#DESCRIPTION:;
#CHARTSTYLE:;
#DIFFICULTY:Medium;
#METER:7;
#RADARVALUES:0.418217,0.479218,0.074587,0.456842,0.013985,314.000000,306.000000,8.000000,49.000000,0.000000,0.000000,0.000000,0.000000,0.000000,0.418217,0.479218,0.074587,0.456842,0.013985,314.000000,306.000000,8.000000,49.000000,0.000000,0.000000,0.000000,0.000000,0.000000;
#CREDIT:iamthek3n;
#NOTES:
// measure 0
0000
0000
0000
0000
,  // measure 1
0000
0000
0000
0000
,  // measure 2
0000
0000
0000
0000
,  // measure 3
0000
0000
0000
0000
,  // measure 4
0000
0000
0001
1000
,  // measure 5
0010
0000
0100
0010
0001
0000
0010
0000
,  // measure 6
1000
0001
0100
0000
0001
0000
0010
0000
,  // measure 7
0100
0000
0010
0100
1000
0000
0001
0000
,  // measure 8
0100
0010
1000
0001
0010
0000
0000
0000
,  // measure 9
0100
1000
0001
0100
,  // measure 10
0000
0001
0010
0100
1000
0000
0100
0010
,  // measure 11
0000
0010
0001
0000
1000
0000
0010
0100
,  // measure 12
0000
0100
0001
0000
1000
0000
0100
1000
,  // measure 13
0000
1000
0001
0000
0100
0000
0001
0010
,  // measure 14
0000
0010
0100
1000
0001
0000
0100
0001
,  // measure 15
1000
0000
0001
0020
0000
1030
0010
0002
,  // measure 16
0000
0100
0103
0001
0001
0000
0010
0100
,  // measure 17
0000
0100
1000
0000
0002
0000
1000
0010
,  // measure 18
0000
0010
1000
0000
1003
0000
0001
1000
,  // measure 19
0000
1000
0010
0000
1000
0000
0100
0010
,  // measure 20
0000
0010
1000
0010
0001
0000
0100
0001
,  // measure 21
0000
0001
1000
0000
0200
0000
1000
0010
,  // measure 22
0000
0010
1300
0100
0010
0000
0001
1000
,  // measure 23
0010
0000
1000
0200
0000
0301
0100
2000
,  // measure 24
0000
3001
1001
1100
,  // measure 25
0101
0000
0110
0000
1001
0000
1000
0100
,  // measure 26
0002
0000
2003
0000
3010
0100
2000
0000
,  // measure 27
3002
0000
0103
0001
1000
0000
0010
1000
,  // measure 28
0001
0000
0100
0010
0002
0000
0023
0000
,  // measure 29
2030
3002
2003
3200
,  // measure 30
0302
0000
0103
0010
0001
0000
1000
0000
,  // measure 31
0001
1000
0010
0100
0002
0000
0100
0000
,  // measure 32
1003
0000
0100
0000
2200
3300
1001
0000
,  // measure 33
1000
0000
0100
0000
1000
0001
0020
0000
,  // measure 34
2030
3200
0302
1003
,  // measure 35
0010
0100
0002
0000
0100
0000
1003
0000
,  // measure 36
0100
0010
0001
0000
0010
0100
2000
0000
,  // measure 37
0010
0000
3001
0000
1000
0100
0002
0000
,  // measure 38
0023
0000
2030
0000
3002
0000
1003
0001
,  // measure 39
0100
0001
1000
0000
0010
1000
0001
0000
,  // measure 40
0100
0000
0000
0000
0001
0000
1000
0001
1000
0000
0100
1000
0100
0000
0000
0000
,  // measure 41
0010
0100
1000
0000
0001
1000
0020
0000
,  // measure 42
0032
0203
2300
3010
,  // measure 43
1000
0001
0020
0000
0100
0000
0031
0010
,  // measure 44
0100
1000
0001
0000
0100
0001
1000
0000
,  // measure 45
0100
0010
0001
0000
1000
0001
0020
0000
,  // measure 46
2030
3200
0302
2003
,  // measure 47
0000
0000
0000
0000
3001
0200
0000
0020
,  // measure 48
0000
0000
0330
1000
,  // measure 49
0001
0100
0000
0100
1000
0100
0001
0000
,  // measure 50
1000
0010
0100
0001
1000
0002
0000
0000
,  // measure 51
0013
0100
2000
0000
0000
0000
3010
0000
,  // measure 52
1000
0100
0000
0100
0010
0000
0001
0000
,  // measure 53
0001
0100
0000
0010
1000
0001
0100
0000
,  // measure 54
0001
0000
1000
0100
0010
0001
0000
0000
,  // measure 55
0100
0001
1000
0000
0010
0100
0001
0000
,  // measure 56
0010
0100
0000
0100
1000
0000
1001
0000
,  // measure 57
0001
0010
0000
0010
1000
0010
0001
0000
,  // measure 58
0100
0010
1000
0001
0010
0020
0000
0000
,  // measure 59
0130
1000
0002
0000
0100
0000
1003
0000
,  // measure 60
0001
0100
0000
0100
0010
0000
1000
0000
,  // measure 61
0100
1000
0000
0001
0010
0100
1000
0000
,  // measure 62
0001
0100
0010
0100
0001
2000
0000
3000
,  // measure 63
0000
0000
0001
0000
0020
0000
0000
0000
0000
0200
0000
0000
0000
0000
0000
0000
,  // measure 64
0000
0330
0000
0000
;

//---------------dance-single - ----------------
#NOTEDATA:;
#CHARTNAME:X-Scale 12;
#STEPSTYPE:dance-single;
#DESCRIPTION:;
#CHARTSTYLE:;
#DIFFICULTY:Hard;
#METER:8;
#RADARVALUES:0.527433,0.658925,0.223760,0.438196,0.083910,396.000000,372.000000,24.000000,47.000000,0.000000,0.000000,2.000000,0.000000,0.000000,0.527433,0.658925,0.223760,0.438196,0.083910,396.000000,372.000000,24.000000,47.000000,0.000000,0.000000,2.000000,0.000000,0.000000;
#CREDIT:iamthek3n;
#NOTES:
// measure 0
0000
0000
0000
0000
,  // measure 1
0000
0000
0000
0000
,  // measure 2
0000
0000
0000
0000
,  // measure 3
0000
0000
0000
0000
,  // measure 4
0000
0000
0000
0000
1000
0100
2200
3300
,  // measure 5
0202
0303
0001
1000
2020
3030
0022
0033
,  // measure 6
0000
1000
0001
0100
0010
0001
0022
0033
,  // measure 7
2020
3030
0001
0100
2200
3300
0202
0303
,  // measure 8
0001
0100
1000
0100
0001
0200
0300
0100
,  // measure 9
2000
3000
0100
0010
0001
0100
0010
1000
,  // measure 10
0001
0100
0001
1000
1001
0000
0001
0100
,  // measure 11
0000
0100
1000
0100
0001
0000
1000
0001
,  // measure 12
0000
0100
0100
0100
0100
0000
0001
0100
,  // measure 13
0000
0010
1000
0001
1000
0000
0001
0100
,  // measure 14
0000
0100
1000
0100
0001
0000
1000
0001
,  // measure 15
0100
0000
0001
0020
0030
0010
1000
0002
,  // measure 16
0000
0100
1000
0103
0101
0000
0001
1000
,  // measure 17
0010
0000
0100
0001
0010
0000
0100
0010
,  // measure 18
0001
1000
0001
0010
0100
0000
1000
0001
,  // measure 19
0100
0000
0010
0100
1000
0000
0001
0010
,  // measure 20
0100
0001
1000
0001
0100
0000
0001
0100
,  // measure 21
0000
0100
1000
0100
0001
0000
0010
0100
,  // measure 22
1000
0000
0100
0010
0001
0000
1000
0001
,  // measure 23
0100
0000
0001
0200
0300
0100
1000
0002
,  // measure 24
0000
1000
0100
1003
1100
1000
1001
0001
,  // measure 25
0101
0000
0100
0000
0010
0100
0001
1000
0002
0000
0000
0000
1003
0000
0001
0000
,  // measure 26
0010
0000
0100
0010
0001
0000
0100
0000
0001
0000
1000
0000
0100
0000
0010
0100
,  // measure 27
1000
0001
1000
0000
0010
0000
1000
0001
,  // measure 28
0100
0000
0001
0100
0010
0000
1000
0000
0002
0000
0000
0000
0203
0000
0000
0000
,  // measure 29
0301
0010
0001
0010
0100
0010
0100
0010
0200
0000
0000
0000
1300
0000
0001
0000
,  // measure 30
0100
0000
0010
0100
1000
0000
0100
0000
0002
0000
0000
0000
1003
0000
0001
1000
,  // measure 31
0010
0000
0100
0000
0001
0000
0100
0000
0010
0000
0001
0000
0010
0000
1000
0010
,  // measure 32
0100
0001
1000
0010
2002
3003
1100
0000
,  // measure 33
0100
0010
0001
0000
1000
0010
0001
0010
,  // measure 34
1000
1001
0001
0101
,  // measure 35
0100
0001
2000
0000
0001
0000
3010
0100
,  // measure 36
0001
4000
3100
0000
0010
0100
1000
0000
,  // measure 37
0001
0100
0010
0000
1000
0010
0001
0010
,  // measure 38
1000
1001
0100
0102
,  // measure 39
1000
0000
0103
0000
0001
0010
0100
1000
,  // measure 40
0010
0000
0100
0000
0001
0100
0001
0100
0010
0100
0010
0100
0010
0000
0000
0000
,  // measure 41
0100
0001
1000
0000
0010
1000
0001
1000
,  // measure 42
0100
1001
0100
1100
,  // measure 43
1000
0100
0020
0000
0100
0000
0031
0010
,  // measure 44
0100
4000
3100
0100
0010
0100
1000
0000
,  // measure 45
0001
1000
0010
0000
0100
0010
0001
0010
,  // measure 46
0100
0000
0110
0000
1000
0000
1001
1000
,  // measure 47
0010
0100
0001
0010
0100
2000
0000
0002
,  // measure 48
0000
0000
0000
0000
3003
0000
0001
0010
,  // measure 49
0100
1000
0010
0100
0001
0002
0003
0000
,  // measure 50
0100
0001
1000
0010
0100
0020
0000
0000
,  // measure 51
0031
0010
2000
0000
0000
0000
3001
0000
,  // measure 52
0100
0001
1000
0000
0010
1000
0001
0010
,  // measure 53
1000
0010
0100
1000
0100
0010
0001
0000
,  // measure 54
0100
0001
1000
0001
0100
0200
0000
0300
,  // measure 55
0001
0000
0010
0000
0000
0200
0000
0000
0000
0000
0000
0000
1300
0000
0000
0000
,  // measure 56
0010
1000
0001
0000
0100
0000
2001
0000
,  // measure 57
0010
0000
0001
0000
0100
0200
3300
0000
,  // measure 58
0100
0010
0001
1000
0001
0002
0000
0000
,  // measure 59
0013
0100
2000
0000
0000
0000
3010
0000
,  // measure 60
1000
0001
0100
0000
0001
0100
0010
1000
,  // measure 61
0010
0100
0001
1000
0010
1000
0002
0003
,  // measure 62
0100
0010
0001
0010
1000
2000
0000
3000
,  // measure 63
0000
0000
0001
0000
0020
0000
0000
0000
0000
0200
0000
0000
0000
0000
0000
0000
,  // measure 64
0000
0330
0000
0000
;
