#VERSION:0.83;
#TITLE:Matches ft. Aaron Richards;
#SUBTITLE:;
#ARTIST:Ephixa & Stephen Walking;
#TITLETRANSLIT:;
#SUBTITLETRANSLIT:;
#ARTISTTRANSLIT:;
#GENRE:Tropical House;
#ORIGIN:;
#CREDIT:;
#BANNER:matches-bn.png;
#BACKGROUND:matches-bg.png;
#PREVIEWVID:;
#JACKET:matches-jacket.png;
#CDIMAGE:;
#DISCIMAGE:;
#LYRICSPATH:;
#CDTITLE:cdtitle.png;
#MUSIC:matches.ogg;
#OFFSET:0.000000;
#SAMPLESTART:35.556000;
#SAMPLELENGTH:12.000000;
#SELECTABLE:YES;
#BPMS:0.000=108.000;
#STOPS:;
#DELAYS:;
#WARPS:;
#TIMESIGNATURES:0.000=4=4;
#TICKCOUNTS:0.000=4;
#COMBOS:0.000=1;
#SPEEDS:0.000=1.000=0.000=0;
#SCROLLS:0.000=1.000;
#FAKES:;
#LABELS:0.000=Song Start;
#BGCHANGES:;
#KEYSOUNDS:;
#ATTACKS:
;

//---------------dance-single - ----------------
#NOTEDATA:;
#CHARTNAME:;
#STEPSTYPE:dance-single;
#DESCRIPTION:;
#CHARTSTYLE:;
#DIFFICULTY:Medium;
#METER:6;
#RADARVALUES:0.299022,0.328767,0.098630,0.021918,0.054795,191.000000,182.000000,9.000000,2.000000,0.000000,0.000000,0.000000,0.000000,0.000000,0.299022,0.328767,0.098630,0.021918,0.054795,191.000000,182.000000,9.000000,2.000000,0.000000,0.000000,0.000000,0.000000,0.000000;
#CREDIT:;
#NOTES:
0000
0000
0000
0000
,
0000
0000
0000
0000
,
0000
0000
0000
0000
,
0000
0000
0000
0000
,
0011
0001
0010
0100
,
0010
0001
0010
0100
,
1000
0100
0010
0100
,
1000
0000
0010
0000
0100
0000
0001
0000
0010
0000
0000
0010
0000
0000
0010
0000
,
0110
0000
0001
0000
1000
0010
0100
0010
,
1000
0001
0100
0010
,
1000
0000
0010
0000
0100
0000
0001
1000
,
0001
0100
0001
0000
0100
0000
0010
0000
,
0110
0100
0001
0010
,
1000
0010
0001
0100
,
0001
0010
0001
0010
0001
0010
0002
0000
,
0003
0000
1000
0000
0100
0000
1000
0000
0001
0000
1000
0001
0000
0000
0000
0000
,
1001
0010
0100
0001
,
1000
0000
0100
0010
0001
0000
0100
0010
,
0000
0000
0010
0000
1000
0000
0000
1000
0000
0000
0000
0000
0001
0000
1000
0000
,
0001
0000
0000
0000
0100
0000
0000
0000
0010
0000
0000
0010
0000
0000
0010
0000
,
0110
1000
0010
0100
,
0001
0000
0100
0000
0010
0000
0100
0010
,
0000
0010
1000
0000
1000
0000
0010
0000
,
0100
0000
0000
0000
0001
0000
0000
0000
1000
0000
0000
1000
0000
0000
1000
0000
,
1010
1000
0010
0100
,
0001
0000
1000
0100
0010
0000
0001
0100
,
0000
0100
0001
0000
1000
0000
0100
0000
,
1000
0000
0100
0000
1000
0000
0000
0000
0001
0000
0000
0001
0000
0000
0001
0000
,
1001
1000
0100
0010
,
0100
0000
0010
0000
0001
0000
0010
0001
,
0100
0000
0000
0000
0001
0000
0000
0100
0000
0000
0001
0000
1000
0000
0000
0000
,
0001
0100
0001
0100
0001
0100
0001
0100
,
0101
0001
1000
0001
,
0100
0000
0010
0000
0100
0000
0000
0010
0000
0000
0000
0010
0000
0000
0010
0000
,
1000
0000
0000
0000
0001
0000
0000
0100
0000
0000
0000
0000
0100
0000
0000
0000
,
0010
0100
1000
0100
0001
0100
1000
0100
,
0101
0001
0100
0010
,
0100
0001
0100
0000
0010
0000
1000
0000
,
0001
0100
0010
0100
,
0010
1000
0010
0001
0010
0100
0020
0000
,
0030
0000
0000
0000
;

//---------------dance-single - ----------------
#NOTEDATA:;
#CHARTNAME:;
#STEPSTYPE:dance-single;
#DESCRIPTION:;
#CHARTSTYLE:;
#DIFFICULTY:Easy;
#METER:2;
#RADARVALUES:0.162818,0.235068,0.087671,0.010959,0.000000,104.000000,96.000000,8.000000,1.000000,0.000000,0.000000,0.000000,0.000000,0.000000,0.162818,0.235068,0.087671,0.010959,0.000000,104.000000,96.000000,8.000000,1.000000,0.000000,0.000000,0.000000,0.000000,0.000000;
#CREDIT:;
#NOTES:
0000
0000
0000
0000
,
0000
0000
0000
0000
,
0000
0000
0000
0000
,
0000
0000
0000
0000
,
0110
0000
0010
0000
,
0100
0000
0010
0000
,
1000
0000
0100
0000
,
0001
0000
1000
0000
,
1001
0000
0001
0000
,
1000
0000
0100
0000
,
0010
0000
0100
0000
,
1000
0000
0010
0000
,
0100
0000
0001
0000
,
1000
0000
0100
0000
,
1000
0001
0010
0200
,
0300
0100
0010
0100
0010
0000
0010
0000
,
0110
0010
0100
1000
,
0001
0000
1000
0000
,
0001
0010
0001
0100
,
0000
0001
0000
0010
,
0011
0100
0001
0100
,
0001
0100
0001
0100
,
0001
0010
0100
0000
,
0010
0000
0001
1000
,
1001
1000
0010
1000
,
0001
0000
0010
0000
,
0100
1000
0100
0010
,
0000
0100
0000
1000
,
1100
1000
0010
1000
,
0010
1000
0010
1000
,
0010
0100
0001
0100
,
0000
0010
0000
0100
,
0110
0000
0100
0000
,
0001
0000
1000
0000
,
0001
0000
0010
0000
,
0100
0000
0010
0000
,
0110
0000
0100
0000
,
0010
0000
0100
0000
,
0010
0000
0100
0000
,
0010
0000
0000
0000
;

//---------------dance-single - ----------------
#NOTEDATA:;
#CHARTNAME:;
#STEPSTYPE:dance-single;
#DESCRIPTION:;
#CHARTSTYLE:;
#DIFFICULTY:Hard;
#METER:8;
#RADARVALUES:0.405479,0.415137,0.087671,0.000000,0.235616,259.000000,251.000000,8.000000,0.000000,0.000000,0.000000,0.000000,0.000000,0.000000,0.405479,0.415137,0.087671,0.000000,0.235616,259.000000,251.000000,8.000000,0.000000,0.000000,0.000000,0.000000,0.000000,0.000000;
#CREDIT:;
#NOTES:
0000
0000
0000
0000
,
0000
0000
0000
0000
,
0000
0000
0000
0000
,
0000
0000
0000
0000
,
1100
0000
0000
0000
1000
0000
0000
0010
1000
0000
0000
0000
0001
0000
0000
0000
,
0100
0000
0001
0000
0100
0000
0000
0010
1000
0000
0000
0010
0100
0000
0000
0000
,
0001
0000
0000
0000
0010
0100
0010
0100
0010
0000
0000
0000
0001
0000
0000
0000
,
1000
0000
0100
0000
0010
0000
0001
0000
0010
0000
0100
1000
0000
0000
0100
0000
,
1100
0000
0000
0000
1000
0000
0000
0100
0010
0000
0000
0000
0100
0000
0000
0000
,
1000
0000
0001
0000
1000
0000
0000
0001
0010
0000
0000
0000
0100
0000
0010
0000
,
0001
0000
0000
0000
1000
0010
1000
0010
1000
0000
0000
0000
0010
0000
0000
0000
,
1000
0000
0001
0000
0100
0000
0010
1000
0000
0000
0000
0001
0010
0000
0001
0000
,
0011
0000
0000
0000
0100
0000
0000
0010
0100
0000
0000
0000
0010
0000
0000
0000
,
1000
0000
0010
0000
1000
0000
0000
1000
0100
0000
0000
0100
0010
0000
0000
0000
,
0001
0000
1000
0000
0001
0000
1000
0000
0010
0000
0100
0000
0010
0100
1000
0100
,
0010
0000
1000
0000
0100
0000
1000
0000
0001
0000
0010
0001
0000
0000
0000
0000
,
0011
0001
0100
0001
,
1000
0100
0001
0100
1000
0100
0001
0100
,
0000
0000
0100
0000
1000
0000
0100
1000
0000
0000
0100
0000
0010
0000
0001
0000
,
1000
0000
0010
0000
0001
0000
0010
0000
1000
0000
0010
0100
0000
0000
0010
0000
,
0110
0000
0000
0000
1000
0000
0000
1000
0010
0000
0000
0000
1000
0000
0000
0000
,
0001
0000
1000
0000
0001
0000
0000
0000
0010
0000
0000
0001
1000
0000
0010
0000
,
0100
0000
0001
0000
0010
0000
0001
0100
0010
0000
0000
0000
0010
0000
0000
0000
,
0100
0000
0001
0000
0100
0000
1000
0000
0100
0000
0001
0100
0001
0000
0010
0000
,
0011
0001
1000
0001
,
0001
0100
1000
0100
0001
0100
1000
0100
,
0000
0000
0100
0000
0001
0000
1000
0010
1000
0000
0000
0000
0100
0010
0000
0010
,
0000
0010
0100
0000
0010
0000
0100
0000
0010
0000
0000
0000
1000
0000
0001
0000
,
1001
0000
0000
0000
1000
0000
0000
1000
0010
0000
0000
0000
0100
0000
0000
0000
,
0010
0000
0100
0000
0001
0000
0000
0001
0010
0000
0000
0001
0100
0000
0100
0000
,
0001
0000
0000
0000
1000
0010
0100
0010
1000
0000
0000
0000
0010
0000
0100
0000
,
0001
0000
1000
0000
1000
0000
0001
0000
0001
0000
0100
0010
0100
0000
0010
0000
,
0110
0000
0000
0000
1000
0000
0000
0010
0100
0000
0000
0000
0001
0000
0000
0000
,
0100
0000
0010
0000
1000
0000
0000
0100
0010
0000
0000
0010
0100
0000
1000
0000
,
0001
0000
0000
0000
1000
0000
0100
1000
0010
0000
0010
0000
0100
0000
0000
0000
,
0001
0100
1000
0100
0001
0100
1000
0100
,
0001
0000
0000
0000
0010
0000
0000
0100
1000
0000
0000
0000
0010
0000
0000
0000
,
0100
0000
0010
0000
1000
0000
0000
0010
1000
0000
0000
0100
1000
0000
0100
0000
,
0010
0000
0000
0000
0100
0000
0010
0001
0010
0000
0000
0000
0001
0000
0000
0000
,
1000
0000
0100
0000
0010
0000
0100
0000
1000
0000
0100
1000
0010
0000
0010
0000
;
