#VERSION:0.83;
#TITLE:Make U Bounce;
#SUBTITLE:;
#ARTIST:DJ Fresh vs TC ft. Little Nikki;
#TITLETRANSLIT:;
#SUBTITLETRANSLIT:;
#ARTISTTRANSLIT:;
#GENRE:Electro House;
#ORIGIN:;
#CREDIT:;
#BANNER:Make U Bounce-bn.png;
#BACKGROUND:Make U Bounce-bg.png;
#PREVIEWVID:;
#JACKET:Make U Bounce-jacket.png;
#CDIMAGE:;
#DISCIMAGE:;
#LYRICSPATH:;
#CDTITLE:cdtitle.png;
#MUSIC:make u bounce.ogg;
#OFFSET:-0.005000;
#SAMPLESTART:34.291000;
#SAMPLELENGTH:13.750000;
#SELECTABLE:YES;
#BPMS:0.000=140.000;
#STOPS:;
#DELAYS:;
#WARPS:;
#TIMESIGNATURES:0.000=4=4;
#TICKCOUNTS:0.000=4;
#COMBOS:0.000=1;
#SPEEDS:0.000=1.000=0.000=0;
#SCROLLS:0.000=1.000;
#FAKES:;
#LABELS:0.000=Song Start;
#BGCHANGES:-0.005=Make U Bounce.avi=1.000=0=0=0=StretchNoLoop====,
99999=-nosongbg-=1.000=0=0=0 // don't automatically add -songbackground-
;
#KEYSOUNDS:;
#ATTACKS:
;

//---------------dance-single - ----------------
#NOTEDATA:;
#CHARTNAME:X-Scale 13;
#STEPSTYPE:dance-single;
#DESCRIPTION:;
#CHARTSTYLE:;
#DIFFICULTY:Hard;
#METER:9;
#RADARVALUES:0.564936,0.661178,0.076375,0.144265,0.555843,466.000000,457.000000,9.000000,17.000000,0.000000,0.000000,5.000000,0.000000,0.000000,0.564936,0.661178,0.076375,0.144265,0.555843,466.000000,457.000000,9.000000,17.000000,0.000000,0.000000,5.000000,0.000000,0.000000;
#CREDIT:;
#NOTES:
// measure 0
0000
0000
0000
0000
,  // measure 1
0000
0000
0000
0000
,  // measure 2
0000
0000
0000
0000
,  // measure 3
0000
0000
0000
0004
,  // measure 4
0103
0000
0000
0001
0000
0000
1000
0000
0000
0001
0000
0000
0100
0000
0000
0010
,  // measure 5
0000
0000
0100
0000
0000
0001
0000
0000
0100
0000
0000
0000
0010
0000
1000
0000
,  // measure 6
0010
0000
0000
0100
0000
0000
0001
0000
0000
0100
0000
0000
0010
0000
0000
1000
,  // measure 7
0000
0000
0100
0000
0000
0010
0000
0000
0001
0000
0000
0000
0100
0000
0001
0000
,  // measure 8
0101
0000
0000
0001
0000
0000
0010
0000
0000
1000
0000
0000
0010
0000
0000
0001
,  // measure 9
0000
0000
0100
0000
0000
0010
0000
0000
0100
0000
0000
0000
0001
0000
0010
0000
,  // measure 10
1000
0000
0001
0000
0100
0000
1000
0000
0000
0001
0000
0000
0100
0000
0000
0010
,  // measure 11
0000
0000
0100
0000
0000
0001
0000
0000
2000
0000
0000
0000
3001
0000
1000
0000
,  // measure 12
1001
0000
0000
1000
0000
0000
0001
0000
0000
0010
0000
0000
1000
0000
0000
0010
,  // measure 13
0000
0000
0001
0000
0000
1000
0000
0000
0100
0000
0000
0000
1000
0000
0001
0000
,  // measure 14
1000
0000
0000
0100
0000
0000
0010
0000
0000
0001
0000
0000
0010
0000
0000
0100
,  // measure 15
0000
0000
0010
0000
0000
0001
0000
0000
1000
0000
0000
0000
0001
0000
0100
0000
,  // measure 16
0001
0000
0000
0010
0000
0000
0001
0000
0000
1000
0000
0000
0010
0000
0000
0100
,  // measure 17
0000
0000
0001
0000
0000
0010
0000
0000
0100
0000
0000
0000
0010
0000
0100
0000
,  // measure 18
0010
0000
0000
0001
0000
0000
0010
0000
0000
1000
0000
0000
0010
0000
0000
0001
,  // measure 19
0000
0000
0100
0000
0000
0001
0000
0000
0002
0000
0000
0000
1000
0000
1003
0000
,  // measure 20
1001
0000
0000
0000
0000
0000
0001
0000
0100
0000
0001
0000
1000
0000
0001
0000
0100
0000
0001
0000
0000
1000
0000
0000
,  // measure 21
0010
0000
0000
0010
0000
0000
0010
0000
0010
0000
0000
0000
0100
0000
0001
0000
,  // measure 22
0100
0000
0000
0000
0000
0000
0010
0000
0100
0000
0010
0000
0001
0000
0010
0000
0100
0000
0010
0000
0000
1000
0000
0000
,  // measure 23
0001
0000
0000
0001
0000
0000
0001
0000
0001
0000
0000
0000
1000
0000
0010
0000
,  // measure 24
0100
0000
0000
0000
0000
0000
0001
0000
0100
0000
0001
0000
1000
0000
0001
0000
0100
0000
0001
0000
0000
0010
0000
0000
,  // measure 25
0100
0000
0000
0100
0000
0010
0100
0000
0100
0000
0000
0000
1000
0000
0100
0000
,  // measure 26
0010
0000
0000
0000
0000
0000
0001
0000
0010
0000
0100
0000
0010
0000
0001
0000
0010
0000
0100
0000
0000
1000
0000
0000
,  // measure 27
0001
0000
0001
0000
1000
0000
0010
1000
0010
0000
0100
0000
0040
0000
0130
0000
,  // measure 28
0110
0000
0000
0100
0001
0000
1000
0000
0001
0000
0010
0000
0100
0000
0010
0000
,  // measure 29
0001
0000
0000
1000
0000
0000
0010
0000
1000
0000
0000
0000
0001
0000
0010
0000
,  // measure 30
0100
0000
0000
0010
0100
0000
0010
0000
0001
0000
1000
0000
0001
0000
0100
0000
,  // measure 31
0010
0000
0000
0100
0000
0000
0001
0000
0100
0000
0000
0000
0010
0000
0100
0000
,  // measure 32
0001
0000
0000
1000
0001
0000
1000
0000
0010
0000
0100
0000
0001
0000
0100
0000
,  // measure 33
0010
0000
0000
1000
0000
0000
0001
0000
1000
0000
0000
0000
0100
0000
0010
0000
,  // measure 34
0100
0000
0000
1000
0001
0000
1000
0000
0010
0000
0100
0000
0010
0000
0010
0100
,  // measure 35
0010
0000
1000
0000
0001
1000
0000
1000
0010
0000
0100
0000
0001
0000
0040
0000
,  // measure 36
0130
0000
0000
0010
0000
0000
0002
0000
0000
1000
0000
0000
0010
0000
0000
1000
,  // measure 37
0000
0000
0100
0000
0003
1000
0000
0000
0001
0000
0000
0000
0010
0000
0100
0000
,  // measure 38
2000
0000
3001
0020
0030
0002
0003
2000
,  // measure 39
0000
0001
3000
1000
0100
0001
1000
0010
,  // measure 40
0001
0000
0000
1000
0000
0000
0020
0000
0000
0100
0000
0000
0001
0000
0000
0100
,  // measure 41
0000
0000
1000
0000
0000
0100
0030
0000
0010
0000
0000
0000
1000
0000
0010
0000
,  // measure 42
2000
0000
3100
0020
0030
0002
0003
2000
,  // measure 43
0000
0000
0100
0000
3000
0100
0000
0000
0020
0000
0000
0000
0031
0000
0010
0000
,  // measure 44
0011
0000
0000
0100
0000
0000
0001
0000
0000
0100
0000
0000
1000
0000
0000
0100
,  // measure 45
0000
0000
0001
0000
0000
0100
0000
0000
0010
0000
0000
0000
1000
0000
0001
0000
,  // measure 46
0010
0100
0010
0100
0010
0000
0001
0000
0000
1000
0000
0000
0010
0000
0000
0100
,  // measure 47
0004
0000
0000
0000
1000
0000
1003
0001
,  // measure 48
1001
0000
0000
1000
0001
0000
1000
0100
0010
0100
1000
0000
0002
0000
0000
0000
,  // measure 49
0103
0000
0000
0001
0010
0000
0001
0000
1000
0000
0100
0000
0010
0000
0100
0000
,  // measure 50
1000
0000
0001
1000
0010
0000
0100
0000
0010
0100
0001
0000
1000
0001
1000
0001
,  // measure 51
1000
0000
0000
0001
1000
0000
0100
0010
0001
1000
0001
0000
0010
0000
0100
0000
,  // measure 52
1000
0000
0000
0100
1000
0000
0001
0000
0100
0000
0010
0000
2000
0000
0000
0000
,  // measure 53
3100
0000
0000
1000
0000
1000
0001
0000
0100
0000
0010
0000
1000
0001
1000
0000
,  // measure 54
0100
0000
0010
0001
0010
0000
0100
0000
0010
0000
0001
0000
0010
0100
0010
0100
,  // measure 55
0010
0000
0000
0001
1000
0000
0001
0000
0100
0000
0010
0000
4000
0000
3001
0000
,  // measure 56
1001
0000
0000
0000
0000
0000
0001
0000
0010
0000
0100
0000
1000
0000
0100
0000
0010
0000
0001
0000
0000
1000
0000
0000
,  // measure 57
0001
0000
0000
0100
0000
0000
0010
0000
0100
0000
0010
0000
0001
0000
0010
0000
,  // measure 58
0100
0000
0000
0000
0000
0000
0001
0000
0100
0000
0010
0000
1000
0000
0100
0000
0010
0000
0001
0000
0000
0100
0000
0000
,  // measure 59
0001
0000
0000
1000
0000
0000
0100
0000
1000
0000
0100
0000
0001
0000
0100
0000
,  // measure 60
1000
0000
0000
0000
0000
0000
0000
0000
0000
0000
0000
0000
0001
0000
0000
0000
0100
0000
0000
0000
0010
0000
0000
0000
1000
0000
0000
0000
0001
0000
0000
0000
1000
0000
0000
0000
0001
0000
0000
0100
0000
0000
0001
0000
0000
0100
0000
0000
,  // measure 61
0001
0000
0000
0100
0000
0000
0001
0000
1000
0000
0100
0000
0001
0000
0100
0000
,  // measure 62
1000
0000
0000
0000
0000
0000
0001
0000
0100
0000
0010
0000
0001
0000
0010
0000
0100
0000
0001
0000
0000
1000
0000
0000
,  // measure 63
0001
0000
0000
1000
0000
0000
0100
0000
0010
0001
0000
0000
0010
0001
0100
0000
,  // measure 64
0110
0000
0001
0000
1000
0000
0010
0100
0001
0100
0010
0000
0100
0000
0001
0000
,  // measure 65
1000
0000
0001
0000
1000
0000
0100
0000
0010
0001
0010
0000
0010
0001
0010
0000
,  // measure 66
0001
0000
0000
0001
0010
0000
0100
0000
0000
0100
1000
0000
0001
0000
0100
0010
,  // measure 67
0100
0000
0001
1000
0000
1000
0100
0000
2200
0000
0000
0000
3300
0000
0000
0000
;

//---------------dance-single - ----------------
#NOTEDATA:;
#CHARTNAME:X-Scale 10;
#STEPSTYPE:dance-single;
#DESCRIPTION:;
#CHARTSTYLE:;
#DIFFICULTY:Medium;
#METER:7;
#RADARVALUES:0.466739,0.459950,0.067889,0.407335,0.275800,385.000000,377.000000,8.000000,48.000000,0.000000,0.000000,0.000000,0.000000,0.000000,0.466739,0.459950,0.067889,0.407335,0.275800,385.000000,377.000000,8.000000,48.000000,0.000000,0.000000,0.000000,0.000000,0.000000;
#CREDIT:;
#NOTES:
0000
0000
0000
0000
,
0000
0000
0000
0000
,
0000
0000
0000
0000
,
0000
0000
0000
0000
,
1020
0000
0000
0000
0030
0000
2000
0000
0000
0000
3000
0000
0200
0000
0000
0001
,
0000
0000
0010
0000
0300
1000
0000
0000
0200
0000
0000
0000
0310
0000
0002
0000
,
1000
0000
0003
0000
0020
0000
0100
0000
0000
1000
0000
0000
0100
0000
0000
0001
,
0030
0000
0010
0000
0000
0001
0000
0000
1000
0000
0000
0000
0010
0000
0100
0000
,
0002
0000
0000
0000
0003
0000
0020
0000
0000
0000
0030
0000
0200
0000
0000
0001
,
0000
0000
0010
0000
0000
1000
0000
0000
1300
0000
0000
0000
0001
0000
0020
0000
,
0130
0000
0010
0000
0002
0000
1000
0000
0000
0010
0000
0000
0100
0000
0000
0010
,
0003
0000
0001
0000
0000
1000
0000
0000
0001
0000
0000
0000
0001
0000
0010
0000
,
0100
0000
0000
0010
0000
0000
0001
0000
0000
0010
0000
0000
0100
0000
0000
1000
,
0000
0000
0001
0000
0000
1000
0000
0000
0100
0000
0000
0000
1000
0000
0010
0000
,
1000
0000
0000
0010
0000
0000
0100
0000
0000
0001
0000
0000
0010
0000
0000
0100
,
0000
0000
0010
0000
0000
0001
0000
0000
1000
0000
0000
0000
0001
0000
0100
0000
,
0001
0000
0000
1000
0000
0000
0100
0000
0000
1000
0000
0000
0010
0000
0000
0100
,
0000
0000
0001
0000
0000
0010
0000
0000
0100
0000
0000
0000
0010
0000
0100
0000
,
1000
0000
0000
1000
0000
0000
0001
0000
0000
0001
0000
0000
0010
0000
0000
0010
,
0000
0000
0100
0000
0000
0100
0000
0000
2000
0000
0000
0000
3001
0000
1000
0000
,
1002
0000
1003
0001
2000
0000
3001
1000
,
0001
0000
0000
0001
0000
0000
0001
0000
0002
0000
0000
0000
0103
0000
0001
0000
,
0200
0000
0310
0100
0020
0000
0130
0010
,
0100
0000
0000
0100
0000
0000
0100
0000
0200
0000
0000
0000
0301
0000
1000
0000
,
0002
0000
1003
0001
2000
0000
3001
1000
,
0001
0000
0000
0001
0000
0000
0001
0000
0002
0000
0000
0000
1003
0000
0001
0000
,
0020
0000
0130
0010
0200
0000
0310
0100
,
0010
0001
1000
0100
0001
0100
0010
0001
,
0021
0000
0031
0010
0200
0000
1300
0010
,
0100
0000
0000
0100
0000
0000
0100
0000
0200
0000
0000
0000
0301
0000
0100
0000
,
2000
0000
3100
0001
2000
0000
3001
0010
,
0100
0000
0000
0100
0000
0000
0100
0000
0200
0000
0000
0000
0310
0000
0100
0000
,
2000
0000
3010
0100
0002
0000
1003
0100
,
0010
0000
0000
0010
0000
0000
0010
0000
0020
0000
0000
0000
1030
0000
0010
0000
,
0002
0000
1003
0100
0020
0000
0031
0010
,
0001
1000
0001
1000
0100
0010
0100
0010
,
0120
0000
0000
0000
0031
0000
2000
0000
0000
0001
0000
0000
0100
0000
0000
0001
,
0000
0000
0010
0000
3000
0001
0000
0000
1000
0000
0000
0000
0001
0000
0100
0000
,
0020
0000
0130
0002
0003
2000
0000
3002
,
0000
1000
0003
0000
1000
0100
0010
0001
,
2000
0000
0000
0000
3001
0000
0020
0000
0000
0100
0000
0000
0001
0000
0000
0100
,
0000
0000
1000
0000
0000
0100
0030
0000
0010
0000
0000
0000
0001
0000
0010
0000
,
0100
0000
1000
0200
0300
2000
3000
0002
,
0000
0000
1000
0000
0003
0001
0000
0000
1000
0000
0000
0000
0010
0000
0100
0000
,
0110
0000
0000
0100
0000
0000
0001
0000
0000
0100
0000
0000
1000
0000
0000
0100
,
0000
0000
0001
0000
0000
0100
0000
0000
0010
0000
0000
0000
1000
0000
0100
0000
,
1000
0000
0000
1000
0000
0000
0100
0000
0000
0100
0000
0000
0010
0000
0000
0010
,
0000
0000
0001
0000
0000
0001
0000
0000
2000
0000
0000
0000
3100
0000
1000
0000
,
1100
0000
0001
1000
0010
0001
0010
0100
,
0001
0000
0000
0100
0000
0000
0001
0000
0100
0000
0000
0000
0001
0000
1000
0000
,
0001
0000
1000
0100
0001
0100
1000
0010
,
0100
0000
0000
0010
0000
0000
0100
0000
0010
0000
0000
0000
1000
0000
0100
0000
,
0010
0000
0001
0100
1000
0001
0010
1000
,
0001
0000
0000
0100
0000
0000
0001
0000
0100
0000
0000
0000
0001
0000
0010
0000
,
0100
0000
1000
0100
0001
0100
0010
0001
,
1000
0000
0000
0100
0000
0000
1000
0000
0100
0000
0000
0000
0010
0000
0001
0000
,
1000
0000
0001
0100
1000
0100
0001
1000
,
0001
0000
0000
0100
0000
0000
0010
0000
0100
0000
0010
0000
0001
0000
0010
0000
,
0100
0000
0001
0100
1000
0001
0010
1000
,
0001
0000
0000
1000
0000
0000
0100
0000
1000
0000
0100
0000
0001
0000
0100
0000
,
1000
0000
0001
0100
0010
0100
0001
1000
,
0100
0000
0000
1000
0000
0000
0001
0000
0100
0000
0010
0000
0001
0000
0010
0000
,
0100
0000
0001
0100
0010
1000
0010
0100
,
0001
0000
0000
1000
0000
0000
0010
0000
1000
0010
0000
0000
1000
0010
0000
0000
,
1010
0000
0000
0001
0000
0000
0010
0000
0000
0100
0000
0000
0010
0000
0000
0001
,
0000
0000
1000
0000
0000
0100
0000
0000
0010
0000
0000
0000
0001
0000
1000
0000
,
0001
0000
0000
0001
0000
0000
0010
0000
0000
0010
0000
0000
0100
0000
0000
0100
,
0000
0000
1000
0000
0000
1000
0000
0000
2002
0000
0000
0000
3003
0000
0000
0000
;

//---------------dance-single - ----------------
#NOTEDATA:;
#CHARTNAME:X-Scale 6;
#STEPSTYPE:dance-single;
#DESCRIPTION:;
#CHARTSTYLE:;
#DIFFICULTY:Easy;
#METER:4;
#RADARVALUES:0.334597,0.372330,0.067889,0.127292,0.025458,276.000000,268.000000,8.000000,15.000000,0.000000,0.000000,0.000000,0.000000,0.000000,0.334597,0.372330,0.067889,0.127292,0.025458,276.000000,268.000000,8.000000,15.000000,0.000000,0.000000,0.000000,0.000000,0.000000;
#CREDIT:;
#NOTES:
0000
0000
0000
0000
,
0000
0000
0000
0000
,
0000
0000
0000
0000
,
0000
0000
0000
0000
,
1001
0000
0000
1000
0000
0000
0001
0000
,
0000
0000
0010
0100
,
0010
0000
0000
0001
0000
0000
1000
0000
,
0000
0001
0000
0000
0010
0000
0100
0000
,
1000
0000
0000
0001
0000
0000
1000
0000
,
0000
0000
0100
0010
,
0001
0000
0000
1000
0000
0000
0100
0000
,
0000
1000
0000
0000
0001
0000
0100
0000
,
0101
0000
0000
0001
0000
0000
1000
0000
,
0000
0000
0100
0000
0000
1000
0000
0000
0001
0000
0000
0000
1000
0000
0000
0000
,
0100
0000
0000
0010
0000
0000
0001
0000
,
0000
0000
1000
0000
0000
0001
0000
0000
1000
0000
0000
0000
0010
0000
0000
0000
,
1010
0000
0000
1000
0000
0000
0001
0000
,
0000
0000
0010
0000
0000
0001
0000
0000
0010
0000
0000
0000
0100
0000
0000
0000
,
2000
0000
0000
0001
0000
0000
0100
0000
,
0000
0001
0000
0000
3002
0000
0003
0000
,
1001
1000
0010
1000
,
0001
0000
0010
0100
0010
0000
0001
0000
,
1000
0010
0100
0001
,
0010
0000
0100
1000
0100
0000
1000
0000
,
0001
0100
0010
1000
,
0100
0000
0010
0001
0010
0000
0001
0000
,
1000
0001
0100
0010
,
1000
0000
0001
0010
0001
0000
2000
3000
,
1100
0100
1000
0001
,
1000
0000
0100
0000
0010
0100
0010
0000
,
0001
1000
0100
1000
,
0001
0000
0100
0010
0100
0000
0001
0000
,
0010
0001
1000
0010
,
1000
0000
0100
1000
0100
0000
1000
0000
,
0001
0000
0010
0000
0001
0000
1000
0200
,
1300
0000
0001
0000
0010
0100
1000
0001
,
1001
0000
1000
0200
0000
0000
0010
0000
,
0000
1000
0300
0000
0100
0000
1000
0001
,
1000
0000
0100
0020
0000
0032
0000
2003
,
0000
3001
0000
1000
0100
0000
1000
0001
,
1000
0000
0010
0200
0000
0000
1000
0000
,
0000
0301
0000
0000
0100
0000
0001
0100
,
0001
0000
0010
0200
0000
2300
0000
3002
,
0000
1000
0003
0000
0001
0000
0010
0100
,
1100
0000
0000
1000
0000
0000
0001
0000
,
0000
0000
0010
0000
0000
0001
0000
0000
0010
0000
0000
0000
0100
0000
1000
0000
,
0100
0000
0000
1000
0000
0000
0001
0000
,
2000
0000
0020
3030
,
1010
0000
0000
0001
0010
0100
1000
0000
,
0001
0000
0100
0001
0100
0000
0010
0100
,
0010
0000
0000
1000
0010
0100
0001
0000
,
1000
0000
0100
1000
0100
0000
1000
0001
,
1000
0000
0000
0001
0010
0100
1000
0000
,
0001
0000
0100
0001
0100
0000
0010
0100
,
0010
0000
0000
1000
0010
0100
0001
0000
,
1000
0000
0100
1000
0100
0000
2000
3001
,
1000
0100
0010
0001
,
1000
0000
0010
0100
0010
0000
1000
0001
,
1000
0001
0100
0010
,
1000
0000
0001
0010
0001
0000
1000
0010
,
1000
0001
0010
0100
,
1000
0000
0001
0100
0001
0000
1000
0100
,
1000
0001
0100
0010
,
1000
0000
0001
0010
0001
0000
1000
0010
,
1000
0000
0000
0100
0000
0000
0010
0000
,
0000
0000
0001
0000
0000
0010
0000
0000
0001
0000
0000
0000
1000
0000
0001
0000
,
1000
0000
0000
0100
0000
0000
1000
0000
,
0000
0000
0001
0000
0000
1000
0000
0000
0001
0000
0000
0000
0000
0000
0000
0000
;

//---------------dance-single - ----------------
#NOTEDATA:;
#CHARTNAME:X-Scale 2;
#STEPSTYPE:dance-single;
#DESCRIPTION:;
#CHARTSTYLE:;
#DIFFICULTY:Beginner;
#METER:1;
#RADARVALUES:0.121231,0.171845,0.025458,0.016972,0.000000,100.000000,97.000000,3.000000,2.000000,0.000000,0.000000,0.000000,0.000000,0.000000,0.121231,0.171845,0.025458,0.016972,0.000000,100.000000,97.000000,3.000000,2.000000,0.000000,0.000000,0.000000,0.000000,0.000000;
#CREDIT:;
#NOTES:
0000
0000
0000
0000
,
0000
0000
0000
0000
,
0000
0000
0000
0000
,
0000
0000
0000
0000
,
1000
0000
0000
0000
,
0000
0000
0000
0000
,
0100
0000
0000
0000
,
0000
0000
0000
0000
,
0010
0000
0000
0000
,
0000
0000
0000
0000
,
0001
0000
0000
0000
,
0000
0000
0000
0000
,
1000
0000
0000
0000
,
0000
0000
0000
0000
,
0010
0000
0000
0000
,
0000
0000
0000
0000
,
0100
0000
0000
0000
,
0000
0000
0000
0000
,
0001
0000
0000
0010
,
0000
0000
0001
0000
,
0011
0000
0010
0000
,
0100
0000
1000
0000
,
0001
0000
0100
0000
,
0010
0000
0100
0000
,
0001
0000
1000
0000
,
0100
0000
0010
0000
,
0001
0000
1000
0000
,
0010
0000
0100
0000
,
0001
0000
1000
0000
,
0001
0000
0100
0000
,
0010
0000
0100
0000
,
0001
0000
0010
0000
,
0100
0000
1000
0000
,
0001
0000
1000
0000
,
0100
0000
1000
0000
,
0001
0000
0100
0000
,
0101
0000
0000
0001
,
0000
0000
1000
0000
,
0100
0000
0000
1000
,
0000
0000
0001
0000
,
0010
0000
0000
0001
,
0000
0000
1000
0000
,
0010
0000
0000
0100
,
0000
0000
0001
0000
,
1000
0000
0000
0001
,
0000
0000
1000
0000
,
2000
0000
0000
0000
,
0002
0000
0000
3003
,
1001
0000
1000
0000
,
0001
0000
1000
0000
,
0001
0000
0010
0000
,
0100
0000
0010
0000
,
0100
0000
1000
0000
,
0001
0000
1000
0000
,
0001
0000
0100
0000
,
0010
0000
0100
0000
,
0010
0000
1000
0000
,
0001
0000
1000
0000
,
0100
0000
1000
0000
,
0001
0000
0010
0000
,
0100
0000
0010
0000
,
0001
0000
1000
0000
,
0001
0000
0100
0000
,
0010
0000
1000
1000
,
1000
0000
0000
0000
,
0100
0000
0000
0000
,
0010
0000
0000
0001
,
0000
0000
1000
0000
;
