#TITLE:MARENOL;
#SUBTITLE:;
#ARTIST:LeaF;
#TITLETRANSLIT:;
#SUBTITLETRANSLIT:;
#ARTISTTRANSLIT:;
#GENRE:Dubstep;
#CREDIT:;
#BANNER:MARENOL-bn.png;
#BACKGROUND:MARENOL-bg.png;
#LYRICSPATH:;
#CDTITLE:cdtitle.png;
#MUSIC:MARENOL.ogg;
#OFFSET:-0.004000;
#SAMPLESTART:51.432999;
#SAMPLELENGTH:13.714000;
#SELECTABLE:YES;
#BPMS:0.000000=70.000000
,4.000000=140.000000
,28.000000=280.000000
,36.000000=70.000000
,38.000000=140.000000
,78.000000=70.000000
,94.000000=280.000000
,110.000000=560.000000
,126.000000=35.000000
,127.000000=70.000000
,155.000000=35.000000
,157.000000=70.000000
,158.000000=140.000000
,160.000000=70.000000
,161.000000=140.000000
,163.000000=70.000000
,164.000000=140.000000
,166.000000=70.000000
,167.000000=140.000000
,169.000000=70.000000
,171.000000=140.000000
,207.000000=70.000000
,219.000000=35.000000
,220.000000=140.000000
,224.000000=70.000000
;
#STOPS:69.500000=-3.428571,
79.750000=-6.857143,
134.750000=-6.857143,
198.500000=-3.428571,
224.000000=-6.857143
;
#BGCHANGES:;
#KEYSOUNDS:;
#ATTACKS:;

//---------------dance-single - ----------------
#NOTES:
     dance-single:
     X-Scale 16:
     Hard:
     11:
     0.554198,0.902025,0.176336,0.142425,0.834204,572.000000,546.000000,26.000000,21.000000,50.000000,0.000000,0.554198,0.902025,0.176336,0.142425,0.834204,572.000000,546.000000,26.000000,21.000000,50.000000,0.000000:
// measure 0
0000
0000
0000
0000
,  // measure 1
1000
0100
0010
0001
1000
0010
0001
0010
,  // measure 2
1000
0001
0100
0010
1000
0100
0001
0100
,  // measure 3
1000
0001
0100
0010
0100
1000
0100
0001
,  // measure 4
0010
0000
0100
0000
1000
0000
0100
0010
0001
1000
0001
0000
0010
0000
0001
0010
,  // measure 5
0100
0000
0010
0000
0001
0000
1000
0001
0010
0001
1000
0000
0001
0000
0010
0100
,  // measure 6
1000
0000
0010
0000
0100
0000
0001
0010
0100
0010
0001
0000
1000
0000
0010
1000
,  // measure 7
0004
4000
0000
0000
0000
0000
0000
0000
00M0
0000
0000
0000
0000
0000
0000
0000
0M00
0000
0000
0000
0000
0000
0000
0000
00M0
0000
0M00
0000
00M0
0000
0000
0000
,  // measure 8
0M00
0000
0000
0000
0000
0000
0000
0000
0000
0000
0000
0000
0000
0000
0000
3003
,  // measure 9
2001
0000
0000
0000
3010
1000
0100
1000
1010
0000
0000
1000
0100
0000
0010
0000
,  // measure 10
0100
0000
1000
0100
0010
0000
0001
0000
1000
0000
0000
0010
1000
0000
0001
0000
,  // measure 11
0010
0000
1000
0000
0100
0000
0001
0000
1000
0000
0000
0100
1000
0000
0001
0000
,  // measure 12
0010
0000
0000
0100
0010
0100
0010
0000
0000
0100
0000
0000
1000
0000
0000
0100
0000
0000
0001
0000
0000
1000
0000
0000
,  // measure 13
0010
0000
0001
0000
4000
0000
0010
0000
3010
0000
0000
1000
0100
0000
0010
0000
,  // measure 14
0100
0000
1000
0001
0010
0000
0001
0000
0100
0000
0001
1000
0100
0000
0010
0000
,  // measure 15
0001
0000
0000
0000
0000
0000
1000
0000
0000
0001
0000
0000
0100
0000
0000
0000
0000
0000
0010
0000
0000
0000
0000
0000
0100
0000
0000
0000
0000
0000
0000
0000
0000
0001
0000
0000
1000
0000
0100
0000
1000
0000
0100
0000
1000
0000
0100
0000
,  // measure 16
1000
0000
0010
0000
1000
0000
0001
0000
0010
0000
0100
0010
0100
0000
1000
0000
,  // measure 17
0004
0000
0203
M0MM
0301
0100
0010
1000
,  // measure 18
0001
0100
0010
1000
0001
0100
0010
0000
,  // measure 19
0000
0000
0000
M0MM
0100
0010
1000
0001
,  // measure 20
M1MM
0010
1000
0001
0100
0010
1000
0001
,  // measure 21
0100
0010
1000
0001
M1MM
0010
1000
0001
,  // measure 22
0100
0000
0010
0000
1000
0000
0001
0010
0001
1000
0010
0100
0001
0000
0000
0000
1000
0000
0010
0000
0100
0000
0001
0010
0100
0010
0001
1000
0010
0000
0000
0000
,  // measure 23
1000
0000
0001
0000
0100
0000
0001
0010
0200
0000
0000
0000
0000
0000
0000
0000
430M
0000
0000
0000
0000
0000
0000
0000
0000
0000
0000
0000
0000
0000
0000
0000
,  // measure 24
0M00
0000
00M0
0000
,  // measure 25
000M
0000
04M0
0000
,  // measure 26
000M
0000
00M0
0000
,  // measure 27
000M
3000
M040
0000
,  // measure 28
0000
0000
M000
0000
,  // measure 29
0000
0000
000M
0000
,  // measure 30
0000
0000
M000
0000
,  // measure 31
0000
0000
0000
0000
0300
0000
0000
0000
0031
0010
0100
1000
1100
0000
0000
1000
,  // measure 32
0100
0010
0001
0000
1000
0010
0100
0010
0001
0010
1000
0100
1000
0000
0000
0000
,  // measure 33
0010
0000
1000
0100
0001
1000
0010
0001
0000
0001
1000
MMMM
1001
0000
0001
0000
,  // measure 34
1000
0000
0100
0000
0001
0000
1000
0000
0010
0000
0001
0000
4000
0000
0000
3010
0000
0000
4000
0000
0000
3000
0000
0000
0400
0000
0000
0000
0000
0000
0000
0000
0000
0300
0000
0000
0040
0000
0000
0000
0000
0000
0031
0000
0000
0001
0000
0000
,  // measure 35
0011
0000
0000
0000
0000
0000
0001
0000
0010
0000
0100
0000
4000
0000
0000
3000
0000
0000
0000
0000
0000
0000
0000
0000
0000
0000
0000
0000
0000
0000
0000
0000
0000
MMMM
0000
0000
1001
0000
0000
0000
0000
0000
1000
0000
0000
0000
0000
0000
,  // measure 36
0001
0000
0100
0000
0010
0000
0100
0000
0001
0000
1000
0000
0010
0000
0000
0000
0000
0000
0100
0000
0010
0000
0100
0000
0004
0000
0000
1003
0000
0000
0004
0000
0000
0003
0000
0000
0040
0000
0000
0000
0000
0000
0000
0000
0000
0030
0000
0000
,  // measure 37
0400
0000
0000
0000
0000
0000
1300
0000
0000
1000
0000
0000
1100
0000
0000
0000
0000
0000
1000
0000
0001
0000
0100
0000
0040
0000
0000
0130
0000
0000
0040
0000
0000
0030
0000
0000
0102
0000
0000
0000
0000
0000
0000
0000
0000
0000
0000
0000
,  // measure 38
1003
0000
0000
0000
0000
0000
0000
0000
0001
0000
0000
0000
0000
0000
0000
0000
0010
0000
0000
0000
0000
0000
0000
0000
1000
0000
0000
0000
0000
0000
0000
0000
0010
0000
0000
0000
0000
0000
0000
0000
0100
0000
0000
0000
0000
0000
0000
0000
1000
0000
0000
0000
0000
0000
0000
0000
0000
0000
0000
0000
0000
0000
0000
0000
0000
0000
0000
0000
0000
0000
0000
0000
0001
0000
0000
0000
0000
0000
0000
0000
1000
0000
0000
0000
0000
0000
0000
0000
0100
0000
0000
0000
0000
0000
0000
0000
4000
0000
0000
0000
0000
0000
0000
0000
0000
0000
0000
0000
3001
0000
0000
0000
0000
0000
0000
0000
0000
0000
0000
0000
4000
0000
0000
0000
0000
0000
0000
0000
0000
0000
0000
0000
3000
0000
0000
0000
0000
0000
0000
0000
0000
0000
0000
0000
1001
0000
0000
0000
0000
0000
0000
0000
0000
0000
0000
0000
0000
0000
0000
0000
0000
0000
0000
0000
0000
0000
0000
0000
1000
0000
0000
0000
0000
0000
0100
0000
0000
0000
0000
0000
1000
0000
0000
0000
0000
0000
0001
0000
0000
0000
0000
0000
,  // measure 39
10M0
00M0
00M0
00M0
0100
0000
0000
0000
001M
000M
00M0
0M00
M001
0000
MMMM
0000
1001
0000
0000
0000
0000
0000
0000
0000
0000
0000
0000
0000
0000
0000
0000
0000
0040
0000
0000
0000
0000
0000
0000
0000
0000
0000
0000
0000
0000
0000
0000
0000
0000
0000
0000
0000
0000
0000
0000
0000
0000
0000
0000
0000
0030
0000
0000
0000
,  // measure 40
0110
0000
0000
0100
0000
0000
0001
0000
2000
0000
0000
0000
0000
0000
0000
0000
0400
0000
0000
0000
0000
0000
3300
0000
1100
0000
0000
1000
0000
0000
0001
0000
,  // measure 41
0040
0000
0000
0000
0000
0000
0000
0000
0000
0000
0000
0000
0000
0000
0030
0000
0101
0000
0000
0001
0000
0000
1000
0000
0040
0000
0000
0000
0000
0000
0000
0000
,  // measure 42
0000
0000
0000
0000
0000
0000
0030
0000
1001
0000
0000
0000
1000
0000
0100
0010
0001
0000
1000
0000
0001
0000
0000
0000
0011
0000
0000
0000
0000
0000
0000
0000
,  // measure 43
0001
0000
0100
0000
0010
0000
4000
0000
0000
3001
0000
0000
4000
0000
0000
0000
0100
0000
3400
0000
0000
0000
0000
0000
,  // measure 44
0310
0000
0100
0000
0010
0000
0100
0000
0000
0010
0000
0000
0001
0000
0000
0000
0000
0000
0100
0000
0000
0000
0000
0000
0010
0000
0000
0000
0000
0000
1000
0000
0000
0000
0000
0000
0001
0000
0000
0000
0000
0000
0000
0000
0010
0000
0000
0000
,  // measure 45
0001
1000
0001
0400
0000
0000
0340
0000
0000
1030
0000
0000
,  // measure 46
0001
0010
0001
0010
0001
0010
0001
1000
0001
1000
0001
1000
0001
0000
1000
0000
0100
0000
0010
0000
0000
0000
0001
0000
,  // measure 47
0100
0001
0100
0001
0100
0001
0100
0000
0000
0010
0000
0000
0400
0000
0000
0000
0000
0000
0301
0000
0000
0100
0000
0000
,  // measure 48
0001
0000
0000
0000
0100
0000
0001
0000
0100
0000
0001
0000
0100
0000
0000
0000
0000
0000
0001
0000
1000
0000
0001
0000
1000
0000
0000
0000
0001
0000
0000
0000
0010
0000
0000
0000
0100
0000
0000
0000
0000
0000
1000
0000
0000
0100
0000
0000
,  // measure 49
0010
0000
0000
0000
0100
0000
0010
0000
0002
0000
0000
0000
0000
0000
0000
0000
0003
0000
0000
0000
MMMM
0000
0000
0000
0011
0000
0001
0000
0100
0000
0010
0100
,  // measure 50
0001
0000
0010
0000
0100
0000
0000
0000
1010
0000
1000
0000
0001
0000
1000
0100
0010
0000
0100
0000
0010
0000
0000
0000
0101
0000
0001
0000
0100
0000
0100
0000
,  // measure 51
0010
0000
0010
0000
1000
0000
1000
0000
0000
0000
0000
0000
0000
0000
0000
0000
0000
0000
0000
0000
MMMM
0000
0000
0000
0011
0000
0010
0000
0001
0000
0100
0001
,  // measure 52
1000
0000
0001
0000
0100
0000
0000
0000
0101
0000
0100
0000
0010
0000
0001
0010
0100
0000
0010
0000
0100
0000
0000
0000
1001
0000
1000
0000
0100
0000
0001
0000
,  // measure 53
0100
0000
1000
0000
0100
0000
0010
0000
0001
0000
0001
0000
0100
0000
0100
0000
0010
0000
0010
0000
1000
0000
0000
0000
1001
0000
0001
0000
0100
0000
0010
0100
,  // measure 54
0001
0000
1000
0000
0010
0000
0000
0000
0101
0000
0001
0000
1000
0000
0100
0010
0001
0000
1000
0000
0001
0000
0000
0000
0011
0001
00M0
0M00
M000
000M
M000
00M0
,  // measure 55
4000
0004
0000
0000
0000
0000
0000
0000
0000
0000
0000
0000
0000
0000
0000
0000
0000
0000
0000
0000
0000
0000
0000
0000
0000
0000
0000
0000
0000
0000
0000
0000
,  // measure 56
3003
0000
0000
0000
,  // measure 57
4004
0000
0000
0000
,  // measure 58
3003
0000
0000
0000
1000
0000
0001
0100
0001
0000
0010
0000
0100
0000
0000
0000
0110
0000
0010
0000
0001
0000
1000
0010
0100
0000
0010
0000
0100
0000
0000
0000
,  // measure 59
1001
0000
1000
0000
0100
0000
0001
0000
0100
0000
1000
0000
0001
1000
0001
1000
0001
0000
0010
0000
1000
0000
0001
0000
0100
0000
1000
0000
0001
0000
0000
0000
,  // measure 60
1001
0000
0001
0000
1000
0000
0010
1000
0001
0000
0010
0000
0100
0000
0000
0000
0110
0000
0010
0000
0100
0000
0010
0100
1000
0000
0001
0000
0100
0000
0000
0000
,  // measure 61
0101
0100
1000
0100
0001
0100
0010
1000
0001
0010
1000
0001
0100
1000
0001
0000
,  // measure 62
0101
0000
0000
0001
0100
0000
0010
0100
0000
0001
1000
0000
0100
0010
0000
0000
0100
0000
1000
0000
0100
0000
0000
0000
1000
0000
0000
0000
0001
0000
0000
0000
,  // measure 63
0010
0000
0000
0100
1000
0000
0001
0100
0000
0010
0100
0000
0001
1000
0000
0000
0100
0000
0001
0000
0100
0000
0000
0000
1000
0000
0000
0000
0001
0000
0000
0000
,  // measure 64
0100
0000
0000
0010
0100
0000
0001
1000
0000
0010
0100
0000
0001
0010
0000
0000
0100
0000
0010
0000
0100
0000
0000
0000
1000
0000
0000
0000
0001
0000
0000
0000
,  // measure 65
0100
0000
0000
0010
0100
0000
1000
0100
0000
0010
1000
0000
0100
0010
0000
0000
0001
0000
0010
0000
0001
0000
0000
0000
1000
0000
0000
0000
0010
0000
0000
0000
,  // measure 66
2010
0000
0001
0000
3100
1000
0020
0000
0001
0000
1030
0000
0100
0010
0200
0000
,  // measure 67
M000
0000
0001
0000
0300
1000
0020
0000
0230
0000
0302
0000
0023
0000
0230
0000
,  // measure 68
2300
0000
0001
0000
3010
1000
0200
0000
0001
0000
0310
0000
0100
0010
0002
0000
,  // measure 69
M000
0000
0000
0000
1003
0100
0001
0010
2000
0000
3200
0000
0320
0000
0032
0000
,  // measure 70
1003
0000
0000
0000
;

//---------------dance-single - ----------------
#NOTES:
     dance-single:
     X-Scale 11:
     Medium:
     8:
     0.395302,0.688388,0.108514,0.345889,0.318761,408.000000,392.000000,16.000000,51.000000,0.000000,0.000000,0.395302,0.688388,0.108514,0.345889,0.318761,408.000000,392.000000,16.000000,51.000000,0.000000,0.000000:
// measure 0
0000
0000
0000
0000
,  // measure 1
1000
0000
0001
0000
0010
0100
1000
0100
,  // measure 2
0010
0000
0001
0000
1000
0010
0100
0010
,  // measure 3
1000
0000
0001
0000
0010
0100
1000
0100
,  // measure 4
0010
0000
0001
0000
1000
0010
0100
0010
,  // measure 5
1000
0000
0001
0000
0010
0100
1000
0100
,  // measure 6
0010
0000
0001
0000
1000
0010
0100
0010
,  // measure 7
2000
0000
0001
0020
,  // measure 8
0000
0000
0000
0000
0000
0000
0000
3030
,  // measure 9
2000
0000
3000
0000
0011
0000
0010
0100
,  // measure 10
0010
0001
1000
0001
0100
0000
0010
0100
,  // measure 11
1000
0100
0010
0100
0001
0000
1000
0100
,  // measure 12
0001
0000
1000
0010
0002
0000
0023
0000
,  // measure 13
0230
0000
2300
0000
3001
0000
1000
0100
,  // measure 14
0001
0100
0010
0001
1000
0000
0010
0100
,  // measure 15
0001
0010
0100
0010
0001
0000
1000
0100
,  // measure 16
0001
0000
1000
0010
0002
0000
0203
0000
,  // measure 17
0320
0000
2030
0000
3000
0000
0001
0100
,  // measure 18
0010
1000
0001
0100
0010
1000
0001
0100
,  // measure 19
0000
0000
0000
0000
1000
0100
0010
0001
,  // measure 20
0100
0010
1000
0001
0010
1000
0010
0001
,  // measure 21
0100
0010
1000
0001
0000
0000
0000
0000
,  // measure 22
1000
0100
0010
0001
1000
0010
0100
0001
,  // measure 23
0010
0100
2000
0000
3002
0000
0000
0000
,  // measure 24
0100
0000
1000
0000
,  // measure 25
0100
0000
2003
0000
,  // measure 26
0010
0000
0001
0000
,  // measure 27
0010
0000
3002
0000
,  // measure 28
0000
0000
1000
0000
,  // measure 29
0000
0000
0100
0000
,  // measure 30
0000
0000
1000
0000
,  // measure 31
0000
0000
0000
0000
0000
0000
0000
0000
0000
0000
0000
0000
0000
0000
0000
0000
0023
0000
0000
0000
0000
0000
0000
0030
0011
0000
0000
0000
0000
0000
0001
0000
,  // measure 32
1000
0010
0100
0000
0001
0000
0000
0000
0001
0010
1000
0010
0001
0000
0000
0000
,  // measure 33
1000
0000
0100
0010
0000
0100
1000
0001
0000
0100
0001
0000
0101
0000
0001
0000
,  // measure 34
1000
0010
0200
0000
0010
0000
0310
0000
0100
0001
2000
0000
0010
0000
0000
0000
,  // measure 35
3010
1000
0001
1000
0100
0000
0000
0000
0000
0000
0000
0000
0101
0000
0100
0000
,  // measure 36
0001
0010
0200
0000
1000
0000
1300
0000
0010
1000
0002
0000
0010
0000
0000
0000
,  // measure 37
0023
0000
0130
0100
0200
0000
0302
0000
0203
0000
2300
0000
3002
0000
0000
0000
,  // measure 38
1003
0100
0020
0000
0100
0000
0230
0000
1300
0001
0200
0000
0302
0000
1000
0000
,  // measure 39
1003
0010
0100
0001
1001
0000
0000
0000
0002
0000
0000
0000
0000
0000
0000
0003
,  // measure 40
1001
0000
0000
0001
0000
0000
1000
0000
0200
0000
0000
0000
0000
0000
0000
0000
0020
0000
0000
0000
0000
0000
0330
0000
0101
0000
0000
0000
0000
0000
0000
0000
,  // measure 41
0002
0000
0000
0000
0000
0000
0000
0000
0000
0000
0000
0000
0000
0000
0003
0000
1001
0000
0000
1000
0000
0000
0001
0000
0200
0000
0000
0000
0000
0000
0000
0000
,  // measure 42
0000
0000
0000
0300
1100
0000
1000
0000
0001
0010
0100
0000
0110
0000
0000
0000
,  // measure 43
1000
0000
0000
0000
0010
0000
0000
0000
0100
0000
0000
0000
0001
0000
0000
0000
0000
0000
1000
0000
0000
0000
0000
0000
0001
0000
0000
0000
0000
0000
0000
0000
0000
0010
0000
0000
0100
0000
0000
0000
0000
0000
0000
0000
0000
0000
0000
0000
,  // measure 44
1000
0000
0001
1000
0001
0000
0010
0000
0100
0000
0000
0000
1000
0000
0000
0010
,  // measure 45
1000
0001
0100
0020
0000
0000
2030
0000
0000
3001
0000
0000
,  // measure 46
1000
0000
0000
0000
0000
0000
0100
0000
0000
0010
0000
0000
0001
0000
0000
0000
0000
0000
1000
0000
0000
0000
0000
0000
0001
0000
0000
0000
0100
0000
0000
0000
0010
0000
0000
0000
1000
0000
0000
0000
0000
0000
0000
0000
0000
0010
0000
0000
,  // measure 47
0100
0000
0001
0010
0100
0000
0010
0000
0002
0000
0000
0000
1003
0000
0000
0000
,  // measure 48
0100
0000
0010
0100
1000
0000
0001
0000
1000
0000
0000
0000
0010
0000
0100
0010
,  // measure 49
0100
0000
0001
0100
0002
0000
0000
0000
0003
0000
0000
0000
1001
0000
1000
0000
,  // measure 50
0001
0100
0001
0000
1000
0100
0001
0100
0010
0001
1000
0000
0001
0100
1000
0010
,  // measure 51
0001
0010
0000
0000
0000
0000
1001
1000
,  // measure 52
0010
0100
0010
0000
0110
0000
0100
0000
0001
0100
0001
0000
1000
0100
0010
0001
,  // measure 53
1000
0100
0010
0001
1000
0000
0010
0000
0100
0000
0001
0000
1001
0000
1000
0000
,  // measure 54
0001
0100
0001
0000
0110
0000
0010
0000
1000
0100
1000
0000
1100
0000
0000
0000
,  // measure 55
2002
0000
0000
0000
,  // measure 56
3003
0000
0000
0000
,  // measure 57
2002
0000
0000
0000
,  // measure 58
3003
0000
0001
0000
0100
0010
0100
0000
0001
0000
0010
0000
0001
1000
0001
0000
,  // measure 59
1000
0100
0010
0100
1000
0010
0100
0001
0010
1000
0010
0100
1000
0001
0100
0000
,  // measure 60
1000
0000
0100
0000
0010
0001
0010
0000
0001
0010
0100
0010
0001
1000
0010
0100
,  // measure 61
0010
1000
0100
0001
1000
0010
0001
1000
0001
0000
0010
0000
0100
0000
1000
0000
,  // measure 62
1100
0000
0000
0100
0000
0000
0010
0000
0000
0100
0000
0000
1000
0000
0000
0000
0001
0000
1000
0000
0001
0000
0000
0000
0010
0000
0000
0000
0100
0000
0000
0000
,  // measure 63
1000
0000
0000
0010
0000
0000
0001
0000
0000
0010
0000
0000
1000
0000
0000
0000
0001
0000
1000
0000
0001
0000
0000
0000
0100
0000
0000
0000
0010
0000
0000
0000
,  // measure 64
0100
0000
0000
0001
0000
0000
0010
0000
0000
1000
0000
0000
0100
0000
0000
0000
0001
0000
0100
0000
0001
0000
0000
0000
1000
0000
0000
0000
0100
0000
0000
0000
,  // measure 65
0010
0000
0000
0100
0000
0000
1000
0000
0000
0001
0000
0000
0100
0000
0000
0000
0010
0000
0100
0000
0010
0000
0000
0000
1000
0000
0000
0000
0001
0000
0000
0000
,  // measure 66
0200
0000
0000
0000
0310
0100
0020
0000
0000
0000
2030
0000
3100
0010
0200
0000
,  // measure 67
0000
0000
0000
0000
0300
1000
0010
0000
0100
0000
1000
0000
0100
0000
0010
0000
,  // measure 68
0200
0000
0000
0000
0301
0100
0020
0000
0000
0000
2030
0000
3100
0010
0002
0000
,  // measure 69
0000
0000
0000
0000
1003
0100
0001
0100
2000
0000
3200
0000
0320
0000
0032
0000
,  // measure 70
0003
0000
0000
0000
;

//---------------dance-single - ----------------
#NOTES:
     dance-single:
     X-Scale 7:
     Easy:
     5:
     0.291632,0.403538,0.203464,0.230593,0.003391,301.000000,271.000000,30.000000,34.000000,0.000000,0.000000,0.291632,0.403538,0.203464,0.230593,0.003391,301.000000,271.000000,30.000000,34.000000,0.000000,0.000000:
// measure 0
0000
0000
0000
0000
,  // measure 1
0001
0010
0001
0010
,  // measure 2
0100
1000
0100
1000
,  // measure 3
0100
0010
0100
0010
,  // measure 4
0001
0000
0010
0000
0100
0010
0100
0000
,  // measure 5
1000
0000
0001
0000
0100
0010
0100
0000
,  // measure 6
0001
0000
1000
0000
0010
0100
0010
0000
,  // measure 7
1000
0000
0000
0000
,  // measure 8
0010
0000
0000
0000
,  // measure 9
2020
0000
3030
0000
1001
0000
1000
0100
,  // measure 10
0010
0000
0100
0010
0001
0000
1000
0001
,  // measure 11
0100
0000
0010
0100
0001
0000
0010
0100
,  // measure 12
1000
0000
0001
1000
1001
0000
0011
0000
,  // measure 13
1010
0000
2200
3300
1001
0000
0001
0010
,  // measure 14
0100
0000
0010
0001
1000
0001
0100
0010
,  // measure 15
1000
0100
0020
0000
0032
0000
0013
0100
,  // measure 16
1000
0001
0100
0100
0110
0000
1001
1000
,  // measure 17
1100
0000
0101
0000
0001
0010
0100
1000
,  // measure 18
0001
0010
0100
1000
0001
0010
0100
1000
,  // measure 19
0000
0000
0000
0000
0001
0010
0100
1000
,  // measure 20
0001
0010
0100
1000
0001
0010
0100
1000
,  // measure 21
0001
0010
0100
1000
0000
0000
0000
0000
,  // measure 22
0001
0010
0100
1000
0001
0010
0100
1000
,  // measure 23
0001
0010
0200
0000
1300
0000
0000
0000
,  // measure 24
0100
0000
0010
0000
,  // measure 25
0001
0000
1000
0000
,  // measure 26
0100
0000
0010
0000
,  // measure 27
0001
0000
1000
0000
,  // measure 28
0000
0000
0100
0000
,  // measure 29
0000
0000
0010
0000
,  // measure 30
0000
0000
0001
0000
,  // measure 31
0000
0000
0011
1001
,  // measure 32
0100
1000
0001
0010
,  // measure 33
0100
0010
0001
0011
,  // measure 34
0000
0000
0000
0000
,  // measure 35
0000
0000
0000
0011
,  // measure 36
0010
0200
1000
0300
0100
2000
0002
3000
,  // measure 37
1003
0000
0001
1000
0001
0000
0010
0000
0100
0000
1000
0000
1100
0000
0000
0000
,  // measure 38
0001
2000
0010
3000
1000
0200
1300
0001
,  // measure 39
1000
0001
1001
0000
0210
0000
0000
0000
,  // measure 40
1300
1002
0100
1003
,  // measure 41
1020
0000
0130
0021
,  // measure 42
0000
0130
0000
1001
,  // measure 43
1000
0100
1000
0001
,  // measure 44
0020
0000
0130
0010
0100
0000
1000
0000
,  // measure 45
0001
0000
0100
0010
0100
0000
0002
0000
,  // measure 46
0023
0000
0130
0010
0100
0000
1000
0000
,  // measure 47
0002
0000
1003
0001
1000
0000
0100
0020
,  // measure 48
0000
0000
0031
0010
0100
0000
0220
0000
,  // measure 49
0000
0000
0000
0000
0000
0330
0000
0000
,  // measure 50
0000
0000
0000
0000
,  // measure 51
0000
0000
0000
0110
,  // measure 52
0100
1010
1000
1001
,  // measure 53
0001
0000
0011
0010
0100
0010
0011
0000
,  // measure 54
0001
1001
1000
1100
,  // measure 55
2000
0000
0000
0000
,  // measure 56
3000
0000
0000
0000
,  // measure 57
2000
0000
0000
0000
,  // measure 58
3000
0000
0100
1000
0100
0000
0010
0001
,  // measure 59
0010
0000
0001
0100
0010
1000
0100
0010
,  // measure 60
0001
0000
0100
0010
0100
0000
0001
0010
,  // measure 61
0001
0000
1000
0010
0100
0001
0010
0100
,  // measure 62
1000
0100
0010
0002
1000
0013
0100
2000
,  // measure 63
0010
0000
3000
1000
0100
0001
0100
0010
,  // measure 64
0001
0100
0010
2000
0100
3100
1000
0002
,  // measure 65
0010
0003
0001
0010
0100
0010
0100
1000
,  // measure 66
2100
0000
3100
0020
0000
0031
1000
0020
,  // measure 67
0000
0000
0030
0100
0001
0010
0001
1000
,  // measure 68
0200
0000
0310
0002
0000
1003
0010
0200
,  // measure 69
0000
0000
0310
0100
0001
1000
0100
0010
,  // measure 70
0001
0000
0000
0000
;

//---------------dance-single - ----------------
#NOTES:
     dance-single:
     X-Scale 4:
     Beginner:
     2:
     0.162771,0.308588,0.128861,0.000000,0.000000,168.000000,149.000000,19.000000,0.000000,0.000000,0.000000,0.162771,0.308588,0.128861,0.000000,0.000000,168.000000,149.000000,19.000000,0.000000,0.000000,0.000000:
// measure 0
0000
0000
0000
0000
,  // measure 1
1000
0000
0000
0000
,  // measure 2
0100
0000
0000
0000
,  // measure 3
0010
0000
0000
0000
,  // measure 4
0001
0000
0010
0000
,  // measure 5
0100
0000
1000
0000
,  // measure 6
0001
0000
0100
0000
,  // measure 7
0010
0000
0000
0000
,  // measure 8
0000
0000
0000
0000
,  // measure 9
0000
0000
1000
0100
,  // measure 10
1000
0000
0001
0100
,  // measure 11
0001
0000
1000
0100
,  // measure 12
1000
0000
0001
0100
,  // measure 13
0001
0000
0010
0100
,  // measure 14
0010
0000
0001
1000
,  // measure 15
0001
0000
0100
0010
,  // measure 16
0100
0000
0001
1000
,  // measure 17
0001
0000
1000
0000
,  // measure 18
0000
0000
0000
0000
,  // measure 19
0000
0000
1000
0000
,  // measure 20
0001
0000
0000
0000
,  // measure 21
0000
0000
0000
0000
,  // measure 22
0001
0000
0010
0000
,  // measure 23
0100
0000
1000
0000
,  // measure 24
0000
0000
0000
0000
,  // measure 25
0000
0000
0100
0000
,  // measure 26
0000
0000
0000
0000
,  // measure 27
0000
0000
1000
0000
,  // measure 28
0000
0000
0000
0000
,  // measure 29
0000
0000
0000
0000
,  // measure 30
0000
0000
0000
0000
,  // measure 31
0000
0000
0000
0001
,  // measure 32
0010
0001
0010
0100
,  // measure 33
1000
0100
1000
1001
,  // measure 34
0000
0000
0000
0000
,  // measure 35
0000
0000
0000
1001
,  // measure 36
0100
0000
0001
0000
1000
0010
1000
0000
,  // measure 37
0001
0000
0010
0000
0100
0010
0100
0000
,  // measure 38
1000
0000
0010
0000
0100
0010
0100
0000
,  // measure 39
0010
0100
1001
0000
,  // measure 40
1000
1001
0000
0001
,  // measure 41
0110
0000
0010
1001
,  // measure 42
0000
1000
0000
1001
,  // measure 43
0000
0001
0010
0001
,  // measure 44
0000
1000
0010
1000
,  // measure 45
0000
0001
0010
0001
,  // measure 46
0000
0100
0010
0100
,  // measure 47
0000
0001
1000
0001
,  // measure 48
0000
0010
0100
1000
,  // measure 49
0000
0000
0000
1001
,  // measure 50
0000
0000
0000
0000
,  // measure 51
0000
0000
0000
1001
,  // measure 52
0000
0110
0000
1001
,  // measure 53
0000
0110
0000
1001
,  // measure 54
0000
0110
0000
1001
,  // measure 55
0000
0000
0000
0000
,  // measure 56
0000
0000
0000
0000
,  // measure 57
0000
0000
0000
0000
,  // measure 58
0000
0100
1100
0001
,  // measure 59
0101
0001
1000
0100
,  // measure 60
1010
0100
1001
0001
,  // measure 61
0110
0100
1001
0001
,  // measure 62
0010
0000
0100
0000
1000
0001
0100
0001
,  // measure 63
1000
0000
0010
0000
0100
0010
1000
0010
,  // measure 64
0100
0000
0001
0000
0010
0100
1000
0100
,  // measure 65
0010
0000
0001
0000
1000
0001
0010
0001
,  // measure 66
1000
0000
0000
0100
,  // measure 67
0000
0000
0010
0000
,  // measure 68
0001
0000
0000
0010
,  // measure 69
0000
0100
1000
0001
,  // measure 70
1000
0000
0000
0000
;
