#VERSION:0.83;
#TITLE:Love Druggie;
#SUBTITLE:(Addict);
#ARTIST:MENDOZA;
#TITLETRANSLIT:;
#SUBTITLETRANSLIT:;
#ARTISTTRANSLIT:;
#GENRE:Dance;
#ORIGIN:;
#CREDIT:;
#BANNER:love druggie-bn.png;
#BACKGROUND:love druggie-bg.png;
#PREVIEWVID:;
#JACKET:love druggie-jacket.png;
#CDIMAGE:;
#DISCIMAGE:;
#LYRICSPATH:;
#CDTITLE:cdtitle.png;
#MUSIC:love druggie.ogg;
#OFFSET:-0.002000;
#SAMPLESTART:29.540001;
#SAMPLELENGTH:29.539000;
#SELECTABLE:YES;
#BPMS:0.000=65.000,
16.000=130.000,
48.000=65.000,
64.000=130.000,
96.000=65.000,
130.000=130.000,
161.500=65.000;
#STOPS:;
#DELAYS:;
#WARPS:;
#TIMESIGNATURES:0.000=4=4;
#TICKCOUNTS:0.000=4;
#COMBOS:0.000=1;
#SPEEDS:0.000=1.000=0.000=0;
#SCROLLS:0.000=1.000;
#FAKES:;
#LABELS:0.000=Song Start;
#BGCHANGES:
;
#KEYSOUNDS:;
#ATTACKS:
;

//---------------dance-single - ----------------
#NOTEDATA:;
#CHARTNAME:X-Scale 12;
#STEPSTYPE:dance-single;
#DESCRIPTION:;
#CHARTSTYLE:;
#DIFFICULTY:Hard;
#METER:9;
#RADARVALUES:0.532689,0.718460,0.054836,0.118810,0.699154,408.000000,402.000000,6.000000,13.000000,0.000000,0.000000,0.000000,0.000000,0.000000,0.532689,0.718460,0.054836,0.118810,0.699154,408.000000,402.000000,6.000000,13.000000,0.000000,0.000000,0.000000,0.000000,0.000000;
#CREDIT:;
#NOTES:
0000
0000
0000
0000
,
0000
0000
0000
0000
,
1000
0000
0000
0100
0000
0000
1000
0000
0100
0000
0010
0000
0001
0000
2000
0001
0000
0000
3010
0000
0020
1000
0000
0000
0130
0000
0000
0000
0010
0000
1000
0000
,
0100
0000
0010
0000
0001
0000
0100
0000
0001
0100
0000
0000
0001
0000
0010
0000
1000
0000
0001
0000
0100
0000
1000
0000
0010
0000
0000
1000
0000
0000
0010
0000
,
1010
0000
0010
1000
0001
0010
0100
2000
,
0001
3000
0002
0000
1003
0000
0100
0010
,
0001
1000
0001
0010
1000
0010
0100
1000
,
0001
0010
0100
0010
0001
1000
0020
0000
,
1030
0000
0001
0010
0001
1000
0100
2000
,
0010
3000
0002
0000
0103
0000
0001
0010
,
1000
0010
0100
1000
0001
0000
1000
0100
,
0001
1000
0010
0001
1000
0000
0100
0000
,
1100
0000
0000
0000
1000
0000
0001
0000
1000
0000
0000
0000
0100
0000
0010
0000
0001
0000
1000
0000
0001
0000
0010
0000
0100
0000
0000
0010
0000
0000
0100
0000
,
1000
0000
0000
0000
0100
0000
0010
0000
0001
0000
0000
0000
1000
0000
0001
0000
0010
0000
0100
0000
1000
0100
0010
0001
1000
0000
0000
0001
0000
0000
0001
0000
,
0010
0000
0100
0000
1000
0000
0001
0000
0100
0000
0010
0100
0010
0000
1000
0000
0100
0000
0010
0000
0001
0000
1000
0000
0010
0000
0100
0000
0001
0000
1000
0000
,
1000
0000
0010
0000
0100
0010
1000
0001
0100
0000
0000
0000
0010
0000
0100
0000
0001
0000
1000
0010
1000
0000
0010
0000
0100
0000
0001
0010
0001
0000
0010
0000
,
0011
0000
0000
1000
0001
0000
0010
0000
0001
0000
0000
0001
0100
0000
0010
0000
,
1000
0000
0001
0000
0010
0000
0001
0000
1000
0000
0000
0100
1000
0000
0100
0000
,
0010
0000
0000
0001
1000
0000
0001
0000
0100
0000
0000
0010
0100
0000
0001
0000
,
0010
0000
0001
0000
0100
0010
1000
0010
0100
0000
0000
0001
1000
0000
0001
0000
,
0010
0000
0100
0000
1000
0000
0001
0000
0100
0000
0010
0100
0010
0000
1000
0000
,
1000
0100
0001
1000
0010
0001
1000
0100
,
1000
0000
0001
0000
1000
0100
0010
0001
1000
0000
0000
0001
0100
0000
0001
0000
,
0010
0000
0100
0010
0100
0000
1000
0000
0100
0000
0010
0100
0010
0000
0001
0000
,
2001
0000
0000
0000
0000
0000
0000
0010
3000
0000
1000
0000
0000
0001
0000
0000
0010
0001
0000
2000
0000
0000
0000
0000
3000
0000
0000
0000
0100
0000
0010
0000
,
0001
1000
0001
0100
0001
0000
0001
0010
1000
0010
0001
0010
0100
0000
0010
0100
,
0010
0000
0000
0000
0000
0000
0001
0000
0000
1000
0000
0000
0010
0000
0000
0000
1000
0000
0000
0020
0000
0000
0000
0000
0030
0000
0000
0000
1000
0000
0100
0000
,
1000
0000
1000
0100
1000
0000
0001
0000
0200
0000
0000
0000
0000
0000
0000
0000
,
0300
0000
0000
0000
0000
0000
0000
0000
0000
0000
1000
0100
0001
0000
0001
0100
,
1000
0000
0001
0000
0100
0000
0001
0000
1000
0000
0000
0000
0100
0000
0010
0000
0110
0000
0000
0000
1000
0000
0010
0000
0100
0000
0000
0010
0000
0000
0100
0000
,
0001
0000
0010
0000
0001
0010
0100
1000
0001
0000
0000
0010
0000
0000
0010
0000
0001
0000
1000
0000
0001
0000
0010
0000
0001
0000
0010
0100
0010
0000
0001
0000
,
1000
0000
0100
0000
0010
0000
0001
0000
1000
0000
0010
0000
0100
0000
0001
0000
1000
0000
0010
0000
0100
0010
1000
0001
0100
0000
0000
0000
0001
0000
0010
0001
,
0000
0000
1000
0001
1000
0000
0001
0000
0010
0000
0100
0010
0100
0000
1000
0000
1100
0000
0000
0000
0000
0000
1000
0000
0001
0000
0000
0000
0001
0000
0010
0000
,
0000
0010
0100
0000
0100
1000
0000
0001
0100
0000
0100
0010
0000
0010
1000
0000
,
1000
0001
0000
1000
0100
0000
0010
0000
0001
0000
0000
1000
0010
0000
0010
0100
,
0000
0100
0001
0000
0001
1000
0000
0010
0100
0000
0100
0001
0000
0001
1000
0000
,
1000
0100
0000
0100
0010
0000
0001
0000
1000
0000
0000
0010
1000
0000
1000
0001
,
0000
0001
0010
0000
0010
0100
0000
1000
0001
0000
0001
0010
0000
0010
1000
0000
,
1000
0001
0000
0100
0001
0000
0010
0000
0001
0000
0000
1000
0100
0000
0100
0001
,
0000
0001
1000
0000
1000
0100
0000
0100
0010
0000
0001
0010
0001
0000
1000
0000
,
0010
0000
0100
0010
0100
0000
0001
0000
0000
0000
0010
0100
1000
0001
0020
0000
,
0030
0002
0000
0000
0000
0000
0003
0000
0000
0000
0000
0000
0000
0000
0000
0000
;

//---------------dance-single - ----------------
#NOTEDATA:;
#CHARTNAME:X-Scale 10;
#STEPSTYPE:dance-single;
#DESCRIPTION:;
#CHARTSTYLE:;
#DIFFICULTY:Medium;
#METER:7;
#RADARVALUES:0.432157,0.642833,0.475242,0.109671,0.333583,331.000000,279.000000,52.000000,12.000000,0.000000,0.000000,0.000000,0.000000,0.000000,0.432157,0.642833,0.475242,0.109671,0.333583,331.000000,279.000000,52.000000,12.000000,0.000000,0.000000,0.000000,0.000000,0.000000;
#CREDIT:;
#NOTES:
0000
0000
0000
0000
,
0000
0000
0000
0000
,
1000
0000
0000
0100
0000
0000
0010
0000
0000
0001
0000
0000
1000
0000
0000
0100
0000
0000
0010
0000
0000
0001
0000
0000
1000
0000
0000
0000
0001
0000
1000
0000
,
0001
0000
0000
0100
0000
0000
0010
0000
0000
1000
0000
0000
0001
0000
0000
0100
0000
0000
0010
0000
0000
1000
0000
0000
0001
0000
0000
0000
0100
0000
0010
0000
,
0100
0000
0001
0100
0010
0001
0010
0100
,
0001
0000
0000
0000
1000
0000
0100
0000
0000
1000
0000
0000
0100
0000
0010
0000
,
0001
0000
1000
0000
0001
0100
0001
0000
,
1000
0000
0100
0000
0010
0001
0010
0000
,
0001
0000
1000
0010
0100
1000
0100
0020
,
1000
0030
2000
0000
3001
0000
1000
0000
,
0001
0100
0001
0000
0100
0000
0010
0000
,
1000
0010
1000
0000
0001
0000
0001
0000
,
0011
0000
0000
0000
1000
0000
0000
0000
0001
0000
0000
0001
0000
0000
0001
0000
0100
0000
0000
0000
0010
0000
0000
0000
1000
0000
0000
1000
0000
0000
1000
0000
,
0100
0000
0000
0000
0010
0000
0000
0000
0001
0000
0000
0001
0000
0000
0001
0000
0100
0000
0000
0000
0010
0000
0000
0000
1000
0000
0000
1000
0000
0000
1000
0000
,
0100
0000
0000
0000
1000
0000
0000
0000
0001
0000
0000
0001
0000
0000
0001
0000
0010
0000
0000
0000
0001
0000
0000
0000
0100
0000
0000
0100
0000
0000
0100
0000
,
0010
0000
0000
0000
1000
0000
0000
0000
0100
0000
0000
0100
0000
0000
0100
0000
0000
0000
1000
0000
0100
0000
1000
0000
0100
0000
0010
0000
0001
0000
0010
0000
,
0011
0000
0000
0000
0010
0000
0100
0000
1100
0000
0000
1001
0000
0000
0101
0000
,
0100
0000
0010
0000
1000
0000
0001
0000
1001
0000
0000
0110
0000
0000
1010
0000
,
0001
0000
0000
0000
1000
0000
0100
0000
1100
0000
0000
0110
0000
0000
0101
0000
,
0001
0000
0000
0000
0010
0000
0100
0000
0110
0000
0000
1001
0000
0000
1100
0000
,
0001
0000
0010
0000
0100
0000
1000
0000
1100
0000
0000
1001
0000
0000
1100
0000
,
1000
0100
0010
0100
1000
0001
0100
0010
,
1000
0000
0000
0000
0001
0000
0100
0000
0101
0000
0000
1100
0000
0000
1001
0000
,
0010
0000
0001
0000
1000
0000
0001
0000
1001
0000
0000
1100
0000
0000
1001
0000
,
2000
0000
0000
0000
0000
0000
0000
3000
0020
0000
0000
0000
0000
0000
0000
0030
,
0200
0000
0000
0000
0001
0000
0000
0300
0002
0000
0000
0000
0010
0000
0010
0003
,
0020
0000
0000
0000
0000
0000
0000
0030
0002
0000
0000
0000
0000
0000
0100
0003
,
0200
0000
0000
0000
0010
0000
0001
0300
0020
0000
0000
0000
0000
0000
0000
0000
,
0030
0000
0000
0000
0000
0000
0000
0000
0000
0000
0001
0000
0010
0000
0100
0010
,
0001
0000
0000
0000
1000
0000
0100
0000
0010
0000
0000
0000
0100
0000
1000
0000
1001
0000
0000
0000
0011
0000
0000
0000
1010
0000
0000
1001
0000
0000
1010
0000
,
1010
0000
0000
0000
0110
0000
0000
0000
0011
0000
0000
1001
0000
0000
0011
0000
0011
0000
0000
0100
0000
0000
0001
0000
0000
1000
0000
0000
0001
0000
0000
0010
,
0000
0000
0001
0000
0000
0010
0000
0000
0100
0000
0000
1000
0000
0000
0100
0000
1000
0000
0000
0100
0000
0000
0010
0000
0000
0001
0000
0000
0100
0000
0000
0001
,
0000
0000
1000
0010
0001
0000
0001
0010
1000
0000
0000
0000
1000
0000
0001
0000
,
1001
0000
0000
0101
0000
0000
1100
0000
0100
0000
1000
0000
0001
0000
1000
0000
,
1100
0000
0000
1001
0000
0000
0101
0000
0001
0000
0000
0100
0001
0000
0010
0000
,
0110
0000
0000
1001
0000
0000
1100
0000
0001
0000
1000
0000
0100
0000
1000
0000
,
1001
0000
0000
0011
0000
0000
0110
0000
0100
0000
1000
0000
0001
0000
0010
0000
,
0011
0000
0000
1010
0000
0000
1001
0000
0010
0000
0001
0000
0010
0000
0100
0000
,
1000
0000
0001
0000
1000
0000
0010
0000
0100
0000
0000
0001
0000
0000
1000
0000
,
1001
0000
0000
1100
0000
0000
1001
0000
0000
0000
1000
0000
0010
0000
0100
0000
,
0001
0000
0100
0010
0100
0000
0001
0000
0000
0000
0001
0010
0100
1000
0002
0000
,
0003
2000
0000
0000
0000
0000
3000
0000
0000
0000
0000
0000
0000
0000
0000
0000
;

//---------------dance-single - ----------------
#NOTEDATA:;
#CHARTNAME:X-Scale 6;
#STEPSTYPE:dance-single;
#DESCRIPTION:;
#CHARTSTYLE:;
#DIFFICULTY:Easy;
#METER:4;
#RADARVALUES:0.258511,0.434201,0.073114,0.109671,0.077684,198.000000,190.000000,8.000000,12.000000,0.000000,0.000000,0.000000,0.000000,0.000000,0.258511,0.434201,0.073114,0.109671,0.077684,198.000000,190.000000,8.000000,12.000000,0.000000,0.000000,0.000000,0.000000,0.000000;
#CREDIT:;
#NOTES:
// measure 0
0000
0000
0000
0000
,  // measure 1
0000
0000
0000
0000
,  // measure 2
0001
0000
0000
0100
0000
0000
0001
0000
0000
0100
0000
0000
0001
0000
0010
0000
,  // measure 3
0100
0000
0000
1000
0000
0000
0100
0000
0000
1000
0000
0000
0100
0000
0010
0000
,  // measure 4
0001
1000
0001
1000
,  // measure 5
0100
0010
0100
0010
,  // measure 6
0001
0100
0001
0100
,  // measure 7
0010
1000
0010
1000
,  // measure 8
0100
0010
0100
0010
,  // measure 9
0001
1000
0001
1000
,  // measure 10
0100
0010
0100
0010
,  // measure 11
0001
1000
0002
2003
,  // measure 12
3001
0000
1000
0000
0010
0000
0000
1000
0010
0000
0100
0000
0001
0000
0000
0100
,  // measure 13
0001
0000
0010
0000
0100
0000
0000
0010
0100
0000
1000
0000
0001
0000
0000
1000
,  // measure 14
0001
0000
0010
0000
0100
0000
0000
0010
0100
0000
1000
0000
0001
0000
0000
1000
,  // measure 15
0001
0000
0100
0000
0010
0000
0000
0100
0010
0000
1000
0000
0100
0000
1000
0000
,  // measure 16
1100
0000
0001
0000
1000
0000
0001
0010
,  // measure 17
0001
0000
0100
0000
0010
0000
1000
0010
,  // measure 18
1000
0000
0100
0000
0010
0000
0001
0010
,  // measure 19
0001
0000
1000
0000
0010
0000
1000
0010
,  // measure 20
1000
0000
0100
0000
0010
0000
0001
0010
,  // measure 21
0001
0000
1000
0000
0010
0000
1000
0001
,  // measure 22
1000
0000
0100
0000
0010
0000
0001
0100
,  // measure 23
0001
0000
0010
0000
0001
0000
1000
0010
,  // measure 24
2000
0000
3200
0000
,  // measure 25
0320
0000
0032
0000
,  // measure 26
2003
0000
3020
0000
,  // measure 27
0230
0000
0302
0000
,  // measure 28
0003
0000
0000
0000
,  // measure 29
0000
0000
0000
0000
0000
0000
0000
0000
1100
0000
1001
0000
1100
0000
0000
0001
,  // measure 30
0101
0000
1001
0000
0101
0000
0000
0100
0001
0000
1000
0000
0001
0000
0000
0010
,  // measure 31
0001
0000
1000
0000
0010
0000
0000
1000
0001
0000
0010
0000
0100
0000
0000
1000
,  // measure 32
0100
1000
0001
1000
1001
0000
0100
0000
,  // measure 33
0001
0000
1000
0100
1000
0000
0010
0000
,  // measure 34
0100
0000
0001
0100
0001
0000
0010
0000
,  // measure 35
0100
0000
1000
0100
1000
0000
0001
0000
,  // measure 36
0100
0000
0010
0100
0010
0000
1000
0000
,  // measure 37
0100
0000
0010
0001
0010
0000
0100
0000
,  // measure 38
1000
0000
0001
0100
0001
0000
1000
0000
,  // measure 39
0100
0000
0010
0100
0010
0000
0001
0000
,  // measure 40
1000
0000
0010
1000
0000
0000
0000
2000
,  // measure 41
0000
3002
0000
0000
0000
0003
0000
0000
0000
0000
0000
0000
0000
0000
0000
0000
;

//---------------dance-single - ----------------
#NOTEDATA:;
#CHARTNAME:X-Scale 2;
#STEPSTYPE:dance-single;
#DESCRIPTION:;
#CHARTSTYLE:;
#DIFFICULTY:Beginner;
#METER:1;
#RADARVALUES:0.096615,0.184499,0.045696,0.000000,0.000000,74.000000,69.000000,5.000000,0.000000,0.000000,0.000000,0.000000,0.000000,0.000000,0.096615,0.184499,0.045696,0.000000,0.000000,74.000000,69.000000,5.000000,0.000000,0.000000,0.000000,0.000000,0.000000,0.000000;
#CREDIT:;
#NOTES:
// measure 0
0000
0000
0000
0000
,  // measure 1
0000
0000
0000
0000
,  // measure 2
0000
0000
0000
0000
,  // measure 3
0000
0000
0000
0000
,  // measure 4
1000
0000
0100
0000
,  // measure 5
0010
0000
0001
0000
,  // measure 6
1000
0000
0010
0000
,  // measure 7
0100
0000
0001
0000
,  // measure 8
1000
0000
0100
0000
,  // measure 9
0010
0000
0001
0000
,  // measure 10
1000
0000
0010
0000
,  // measure 11
0100
0000
0001
0000
,  // measure 12
1000
0000
0100
0000
,  // measure 13
1000
0000
0001
0000
,  // measure 14
0010
0000
0001
0000
,  // measure 15
1000
0000
0001
0000
,  // measure 16
1001
0000
0100
0000
,  // measure 17
1000
0000
0001
0000
,  // measure 18
1000
0000
0100
0000
,  // measure 19
0010
0000
0001
0000
,  // measure 20
1000
0000
0001
0000
,  // measure 21
0010
0000
0100
0000
,  // measure 22
1000
0000
0001
0000
,  // measure 23
0100
0000
0010
0000
,  // measure 24
1000
0000
0000
0000
,  // measure 25
0100
0000
0000
0000
,  // measure 26
0010
0000
0000
0000
,  // measure 27
0001
0000
0000
0000
,  // measure 28
0000
0000
0000
0000
,  // measure 29
0000
0000
1001
1000
,  // measure 30
1001
0001
1001
0000
,  // measure 31
1000
0000
0100
0000
,  // measure 32
0010
0000
0011
0000
,  // measure 33
1000
0000
0001
0000
,  // measure 34
0010
0000
0001
0000
,  // measure 35
1000
0000
0100
0000
,  // measure 36
0010
0000
0100
0000
,  // measure 37
1000
0000
0001
0000
,  // measure 38
0100
0000
0010
0000
,  // measure 39
1000
0000
0100
0000
,  // measure 40
1000
0000
0000
1000
0000
0000
0000
0000
;
