#VERSION:0.83;
#TITLE:Love Cherry Motion (Choerry);
#SUBTITLE:;
#ARTIST:이달의 소녀;
#TITLETRANSLIT:;
#SUBTITLETRANSLIT:;
#ARTISTTRANSLIT:LOOΠΔ;
#GENRE:K-Pop;
#ORIGIN:;
#CREDIT:;
#BANNER:Love Cherry Motion (Choerry)-bn.png;
#BACKGROUND:Love Cherry Motion (Choerry)-bg.png;
#PREVIEWVID:;
#JACKET:Love Cherry Motion (Choerry)-jacket.png;
#CDIMAGE:;
#DISCIMAGE:;
#LYRICSPATH:;
#CDTITLE:cdtitle.png;
#MUSIC:Love Cherry Motion (Choerry).ogg;
#OFFSET:-0.008000;
#SAMPLESTART:42.051998;
#SAMPLELENGTH:28.028999;
#SELECTABLE:YES;
#BPMS:0.000=137.000;
#STOPS:;
#DELAYS:;
#WARPS:;
#TIMESIGNATURES:0.000=4=4;
#TICKCOUNTS:0.000=4;
#COMBOS:0.000=1;
#SPEEDS:0.000=1.000=0.000=0;
#SCROLLS:0.000=1.000;
#FAKES:;
#LABELS:0.000=Song Start;
#BGCHANGES:
;
#KEYSOUNDS:;
#ATTACKS:
;

//---------------dance-single - ----------------
#NOTEDATA:;
#CHARTNAME:X-Scale 12;
#STEPSTYPE:dance-single;
#DESCRIPTION:;
#CHARTSTYLE:;
#DIFFICULTY:Hard;
#METER:8;
#RADARVALUES:0.515458,0.597495,0.065870,0.519640,0.080508,493.000000,484.000000,9.000000,71.000000,0.000000,0.000000,2.000000,0.000000,0.000000,0.515458,0.597495,0.065870,0.519640,0.080508,493.000000,484.000000,9.000000,71.000000,0.000000,0.000000,2.000000,0.000000,0.000000;
#CREDIT:;
#NOTES:
// measure 0
0000
0000
0000
0000
,  // measure 1
0000
0000
0000
0000
,  // measure 2
0000
0000
0000
0000
,  // measure 3
0000
0000
0000
0000
,  // measure 4
1100
1000
0100
0010
0001
1000
0001
0000
,  // measure 5
0010
1000
0010
0001
0200
0000
0302
0000
,  // measure 6
1003
0000
0000
0100
1000
0000
0100
0000
0010
0000
0001
0000
0010
0000
0000
0000
,  // measure 7
0001
0000
1000
0000
0001
0000
1000
0000
0100
0010
0001
0000
0100
0000
0000
0000
,  // measure 8
0001
0010
1000
0001
0100
1000
0010
0000
,  // measure 9
1000
0100
0010
0001
0100
0010
2000
0000
,  // measure 10
3001
0000
0000
1000
0010
0000
0100
0000
1000
0000
0100
0000
0001
0000
0000
0000
,  // measure 11
1000
0000
1001
0001
0000
0100
0010
1000
,  // measure 12
0001
0010
0100
1000
0002
0000
1003
0001
,  // measure 13
0000
0010
0001
0100
0001
0000
0010
0100
,  // measure 14
1000
0010
1000
0100
0020
0000
0031
0010
,  // measure 15
0000
0000
0100
0000
1000
0000
0001
0000
1000
0100
0010
0000
0002
0000
0010
0000
,  // measure 16
0013
0001
1000
0001
0010
0100
1000
0000
,  // measure 17
0010
1000
0100
0010
0002
0000
2003
0000
,  // measure 18
3100
0000
0000
0100
0001
0000
1000
0000
0001
0000
0010
0000
0100
0000
0000
0000
,  // measure 19
1000
0000
0010
1000
0000
0001
2000
0000
,  // measure 20
3200
0000
0001
0000
1300
0000
0001
0010
,  // measure 21
1000
0001
0100
1000
0010
0100
0001
0020
,  // measure 22
1000
0000
0100
0000
0031
0000
0001
1000
,  // measure 23
0001
1000
0100
0010
0100
0010
0001
0000
,  // measure 24
1001
1000
0010
0100
0001
0100
0001
0020
,  // measure 25
0000
0130
1000
0002
0003
1000
0100
0010
,  // measure 26
0001
0000
0100
0002
0000
2003
0000
3001
,  // measure 27
0010
0100
0010
0100
1000
0010
1000
0010
,  // measure 28
0100
0001
0001
0010
0100
1000
0001
2000
,  // measure 29
0000
3010
0100
0001
0000
1000
0001
0010
,  // measure 30
0100
0010
0001
2000
0000
3002
0000
2003
,  // measure 31
0001
0000
3100
1000
0010
0100
0000
0001
,  // measure 32
0100
1000
0000
0001
0010
1000
0000
0200
,  // measure 33
0000
1300
0001
0200
0000
0300
0001
1000
,  // measure 34
0100
0001
0000
1000
0010
0001
0000
2000
,  // measure 35
0000
3001
1000
0100
0010
0001
1000
0000
,  // measure 36
0001
0100
0001
0010
0100
1000
0001
0000
,  // measure 37
1000
0100
0010
0001
0000
1000
0010
1000
,  // measure 38
1010
0000
1001
0000
0011
0000
1000
0001
,  // measure 39
1000
0000
1000
0000
1000
0000
1000
0000
1000
0100
0010
0001
2000
0000
3000
0000
,  // measure 40
1001
0000
0001
0000
1000
0100
0010
0000
0001
0000
0100
0010
1000
0000
0001
0000
,  // measure 41
0100
0010
0010
1000
0001
0010
0100
0100
,  // measure 42
1000
0000
0001
0000
1000
0100
0010
0000
0001
0000
0100
0010
1000
0000
0001
0000
,  // measure 43
0100
0010
0010
1000
0001
0010
0100
0100
,  // measure 44
1000
0000
0010
0000
1000
0100
0010
0000
0001
0000
0100
0010
1000
0000
0001
0000
,  // measure 45
0100
0010
0010
1000
0001
0010
0100
0100
,  // measure 46
1000
0000
0010
0000
1000
0100
0010
0000
0001
0000
0100
0010
1000
0000
0001
0000
,  // measure 47
0000
0000
0000
1000
0000
0000
0100
0000
0000
0010
0000
0000
0001
0000
1000
0000
0001
0000
4000
0000
0000
0000
0000
0000
,  // measure 48
3100
1000
0001
1000
0200
0000
0320
0000
,  // measure 49
0032
0000
0203
0000
0320
0000
2030
0010
,  // measure 50
3010
1000
0001
1000
0020
0000
0032
0000
,  // measure 51
0023
0000
2030
0000
3002
0010
0013
0010
,  // measure 52
0010
1000
0010
0001
0200
0000
0302
0000
,  // measure 53
2003
0000
3200
0000
0320
0000
0032
0010
,  // measure 54
0013
0001
1000
0001
0010
0100
1000
0001
,  // measure 55
0001
0000
1000
0000
0001
0010
0100
1000
0001
0010
0100
1000
0004
0000
0000
0000
,  // measure 56
0023
0000
0000
0000
0000
0030
0200
0000
,  // measure 57
1300
0100
0001
0100
0010
0001
1000
0002
,  // measure 58
0200
0000
0000
0000
0000
0000
0000
0000
0300
0000
0000
0000
0003
0000
1000
0100
,  // measure 59
0020
0000
0000
0000
0030
0001
0100
0001
,  // measure 60
0101
0001
1000
0100
0010
0001
0000
2000
,  // measure 61
0000
3010
1000
0002
0003
1000
0100
0020
,  // measure 62
0000
0030
0001
0200
0000
0302
0000
1003
,  // measure 63
0001
0010
0100
2000
0000
0000
3001
0000
,  // measure 64
1001
0001
1000
0100
0010
0001
1000
0020
,  // measure 65
0000
0031
0010
1000
0000
0001
0100
0010
,  // measure 66
1000
0000
0001
0020
0000
0230
0000
2300
,  // measure 67
0001
0000
3001
1000
0100
0010
0001
1000
,  // measure 68
0010
0001
0000
1000
0100
0001
0010
0002
,  // measure 69
0000
1003
0100
0020
0001
0000
0030
0001
,  // measure 70
0010
1000
0000
0001
0100
1000
0001
2000
,  // measure 71
0000
3100
0010
0002
0000
1003
0001
1000
,  // measure 72
0100
0001
0100
1000
0010
0100
0001
2000
,  // measure 73
0000
3100
1000
0001
1000
0100
0010
0001
,  // measure 74
0100
0000
0001
0020
0000
0230
0000
2300
,  // measure 75
0010
0000
0100
0000
3010
1000
0002
0000
,  // measure 76
0203
0000
0300
0200
0000
0300
0200
0000
,  // measure 77
0300
0001
0002
0023
0230
2300
3000
0000
;

//---------------dance-single - ----------------
#NOTEDATA:;
#CHARTNAME:X-Scale 9;
#STEPSTYPE:dance-single;
#DESCRIPTION:;
#CHARTSTYLE:;
#DIFFICULTY:Medium;
#METER:7;
#RADARVALUES:0.450634,0.568128,0.036594,0.307393,0.014638,431.000000,426.000000,5.000000,42.000000,0.000000,0.000000,0.000000,0.000000,0.000000,0.450634,0.568128,0.036594,0.307393,0.014638,431.000000,426.000000,5.000000,42.000000,0.000000,0.000000,0.000000,0.000000,0.000000;
#CREDIT:;
#NOTES:
// measure 0
0000
0000
0000
0000
,  // measure 1
0000
0000
0000
0000
,  // measure 2
0000
0000
0000
0000
,  // measure 3
0000
0000
0000
0000
,  // measure 4
1001
1000
0001
1000
0100
0010
0001
0000
,  // measure 5
1000
0010
0100
0001
2000
0000
3002
0000
,  // measure 6
0013
0000
0001
0010
0100
0010
0001
0000
,  // measure 7
1000
0100
1000
0000
0002
0000
0013
0001
,  // measure 8
0010
0100
1000
0001
0100
0010
1000
0000
,  // measure 9
0001
0010
1000
0010
0100
1000
0002
0000
,  // measure 10
1003
0000
0100
1000
0001
1000
0010
0000
,  // measure 11
0100
0000
0001
1000
0000
0010
1000
0001
,  // measure 12
1000
0100
0010
0001
2000
0000
3010
2000
,  // measure 13
3000
0002
0003
0020
0030
0100
1000
0001
,  // measure 14
1000
0010
1000
0001
0020
0000
0130
2000
,  // measure 15
0001
3000
1000
0100
0020
0000
0031
0010
,  // measure 16
0001
0100
1000
0100
0001
0010
0001
0000
,  // measure 17
1000
0010
0100
0001
2000
0000
3002
0000
,  // measure 18
0103
0000
0001
0010
0000
0010
0100
0000
,  // measure 19
1000
0000
0001
0100
0010
0100
0002
0000
,  // measure 20
2003
0000
0010
0000
3100
0000
1000
0100
,  // measure 21
0010
0001
1000
0001
0100
0010
1000
0002
,  // measure 22
0010
0000
1000
0000
0100
0000
1003
0200
,  // measure 23
0001
0000
0010
0000
1300
0100
0000
1000
,  // measure 24
1001
0001
0100
0010
1000
0001
0000
0100
,  // measure 25
0000
0010
0100
0001
0000
1000
0100
0020
,  // measure 26
0000
0000
0031
1000
0000
0100
0000
1000
,  // measure 27
0001
0100
0001
1000
0001
0100
0001
0000
,  // measure 28
0010
0100
1000
0001
1000
0010
0000
1000
,  // measure 29
0000
0100
0010
0001
0000
1000
0010
0200
,  // measure 30
0000
0000
0301
1000
0000
0100
0000
1000
,  // measure 31
0001
0000
0010
0001
1000
0001
0010
0000
,  // measure 32
0100
2000
3000
0001
0010
0200
0300
2000
,  // measure 33
0000
3001
0100
0020
0000
1030
1000
0001
,  // measure 34
0100
0020
0030
1000
0100
0020
0030
0001
,  // measure 35
0000
1000
0010
1000
0000
0001
0010
0000
,  // measure 36
0001
0100
0010
0001
0010
1000
0000
0002
,  // measure 37
0000
1003
0100
0010
0000
0001
1000
0001
,  // measure 38
0010
0000
0100
0000
0010
0000
0100
1000
,  // measure 39
0001
1000
0100
1000
0001
1000
0100
0010
,  // measure 40
0110
0000
0100
0000
0010
0001
0010
0000
0001
0000
1000
0010
1000
0000
0001
0000
,  // measure 41
0000
0100
0100
0010
0001
0010
0100
0100
,  // measure 42
0001
0000
1000
0000
0100
0010
0100
0000
1000
0000
0001
0100
0001
0000
1000
0000
,  // measure 43
0000
0010
0010
0100
1000
0100
0010
0010
,  // measure 44
1000
0000
0001
0100
1000
0000
1000
0100
,  // measure 45
0001
1000
1000
0100
0010
0100
1000
1000
,  // measure 46
0001
0000
0100
0010
0001
0000
0001
0010
,  // measure 47
0100
0001
1000
0001
0010
0100
2000
0000
,  // measure 48
3100
0000
1000
0001
0100
0000
0010
0000
,  // measure 49
0001
0000
0010
0000
1000
0000
0001
0001
,  // measure 50
1000
0000
0100
0010
0001
0000
0100
0000
,  // measure 51
1000
0000
0100
0000
0001
0010
0100
0010
,  // measure 52
0100
0000
1000
0001
0100
0000
0010
0000
,  // measure 53
0001
0000
0010
0000
1000
0000
0001
0001
,  // measure 54
0010
0000
0100
1000
0001
0000
0100
0010
,  // measure 55
1000
0001
0200
0000
1000
0000
0302
0000
,  // measure 56
0023
0000
0000
0000
0000
0030
0200
0000
,  // measure 57
0300
1000
0100
0010
0001
1000
0001
0020
,  // measure 58
0000
0000
0000
0000
0000
0000
0000
0200
,  // measure 59
0300
0000
0000
0000
0000
0000
0000
0030
,  // measure 60
0100
0100
0010
0001
1000
0001
0000
0100
,  // measure 61
0000
0010
1000
0001
0000
0010
0100
1000
,  // measure 62
0000
0000
0001
0100
0000
0010
0000
0200
,  // measure 63
0300
0002
0003
0002
0000
0000
1000
0003
,  // measure 64
1001
0000
1000
0100
0010
0001
0000
1000
,  // measure 65
0000
0010
0100
0001
0000
0010
0100
1000
,  // measure 66
0001
0000
1000
0100
0000
1000
0000
0001
,  // measure 67
0010
0000
0001
0010
0000
0100
0000
1000
,  // measure 68
0001
1000
0000
0100
0010
0100
0000
1000
,  // measure 69
0000
0010
0100
0002
0000
0003
1000
0001
,  // measure 70
1000
0100
0000
0010
0001
1000
0000
0001
,  // measure 71
0000
0100
0001
1000
0000
0010
0100
0010
,  // measure 72
0110
0000
0001
0010
0100
1000
0000
0001
,  // measure 73
0000
1000
0010
0100
0000
0001
0010
0200
,  // measure 74
0000
0300
1000
0020
0030
2000
3000
0002
,  // measure 75
0010
0000
0100
0000
0013
0001
2000
0000
,  // measure 76
3010
0000
0000
0010
0000
0000
0010
0000
,  // measure 77
0000
0010
0010
0100
0001
1000
0000
0000
;

//---------------dance-single - ----------------
#NOTEDATA:;
#CHARTNAME:X-Scale 6;
#STEPSTYPE:dance-single;
#DESCRIPTION:;
#CHARTSTYLE:;
#DIFFICULTY:Easy;
#METER:4;
#RADARVALUES:0.362807,0.426096,0.051232,0.329349,0.000000,347.000000,340.000000,7.000000,45.000000,0.000000,0.000000,0.000000,0.000000,0.000000,0.362807,0.426096,0.051232,0.329349,0.000000,347.000000,340.000000,7.000000,45.000000,0.000000,0.000000,0.000000,0.000000,0.000000;
#CREDIT:;
#NOTES:
// measure 0
0000
0000
0000
0000
,  // measure 1
0000
0000
0000
0000
,  // measure 2
0000
0000
0000
0000
,  // measure 3
0000
0000
0000
0000
,  // measure 4
1100
0000
1000
0010
0000
1000
0001
0000
,  // measure 5
0010
0000
0100
0010
0200
0000
2300
0000
,  // measure 6
3001
0000
1000
0010
0000
1000
0001
0000
,  // measure 7
0010
0000
0100
0010
0000
0001
0000
1000
,  // measure 8
0001
0000
1000
0001
0000
1000
0010
0000
,  // measure 9
0100
0000
0001
0010
0100
0010
0002
0000
,  // measure 10
1003
0000
0001
0100
0000
0010
1000
0000
,  // measure 11
0100
0000
1000
0100
0000
1000
0001
1000
,  // measure 12
0100
0000
0010
0001
0000
1000
0001
0020
,  // measure 13
0030
0200
0300
2000
3000
0001
1000
0100
,  // measure 14
1000
0000
0010
0100
0000
0001
1000
0000
,  // measure 15
0100
0000
0010
0001
0000
1000
0001
1000
,  // measure 16
0100
0000
0010
0001
0000
1000
0001
0000
,  // measure 17
0100
0010
0000
1000
0002
0000
0023
0000
,  // measure 18
0130
0000
0010
0001
0000
1000
0001
0000
,  // measure 19
0100
0000
0010
0100
0000
0001
2000
0000
,  // measure 20
3002
1000
0013
0200
,  // measure 21
1300
0000
0100
0000
0010
0000
0001
2000
,  // measure 22
0010
0000
0001
0000
3100
0000
0010
0002
,  // measure 23
1000
0010
1003
0001
,  // measure 24
0011
0000
0010
0100
0000
0010
0100
2000
,  // measure 25
0000
3001
1000
0100
0000
0010
0001
1000
,  // measure 26
0001
0000
0100
0010
0000
1000
0000
0001
,  // measure 27
0010
0001
1000
0001
,  // measure 28
0010
0000
0100
1000
0000
0001
1000
0200
,  // measure 29
0000
0310
0100
1000
0000
0001
0010
0100
,  // measure 30
1000
0000
0001
0100
0000
0010
0000
0100
,  // measure 31
0001
1000
0001
0010
,  // measure 32
0100
1000
0000
0000
0001
0100
0000
0002
,  // measure 33
0000
1003
0001
2000
0000
3000
0010
0000
,  // measure 34
1000
0100
0000
0000
0010
0001
0000
2000
,  // measure 35
0000
3001
1000
0002
0000
0003
0000
0000
,  // measure 36
0100
0000
0001
0100
0000
0010
1000
0002
,  // measure 37
0000
0013
0001
1000
0000
0010
1000
0000
,  // measure 38
0001
0010
0100
1000
,  // measure 39
0001
0010
0100
1000
0002
0000
2003
3000
,  // measure 40
1001
0000
1000
0100
1000
0000
0001
0000
,  // measure 41
0000
0000
0010
0000
0001
0000
1000
0010
,  // measure 42
1000
0000
0100
0010
0100
0000
1000
0000
,  // measure 43
0000
0000
0001
0000
0100
0000
0010
0100
,  // measure 44
0010
1000
1001
0001
,  // measure 45
0100
0010
0100
0010
1000
0001
1000
0001
,  // measure 46
1000
0100
0110
0010
,  // measure 47
0000
0000
0001
1000
0001
0000
0002
0000
,  // measure 48
0013
0001
1000
0100
,  // measure 49
0010
0000
0100
0000
1000
0000
0001
0100
,  // measure 50
0001
0010
0100
1000
,  // measure 51
0010
0000
0100
0000
0001
0000
1000
0001
,  // measure 52
1000
0001
0100
0001
,  // measure 53
1000
0000
0100
0000
0010
0000
0100
1000
,  // measure 54
0100
1000
0001
0010
,  // measure 55
0001
0000
1000
0100
0010
0001
2000
0000
,  // measure 56
3200
0000
0300
0020
,  // measure 57
0000
0000
0000
0000
0000
0030
0000
0000
,  // measure 58
0002
0000
0000
0000
,  // measure 59
2003
0000
0000
0000
,  // measure 60
3010
0000
1000
0000
0001
0010
0000
0002
,  // measure 61
0000
1003
0000
0001
0000
0010
0000
0200
,  // measure 62
0000
0000
1300
0001
0000
1000
0000
0002
,  // measure 63
0000
1000
0000
0010
0003
0000
0011
0000
,  // measure 64
1001
0000
1000
0100
0000
0010
0001
2000
,  // measure 65
0000
3100
1000
0001
0000
0010
0100
2000
,  // measure 66
0000
0000
3001
0020
0030
0200
0300
0020
,  // measure 67
0001
0000
0000
0001
0030
0010
0001
0000
,  // measure 68
1000
0010
0000
1000
0001
1000
0000
0020
,  // measure 69
0000
1030
0010
2000
0000
0000
3001
0000
,  // measure 70
0010
0100
0000
1000
0001
1000
0000
0020
,  // measure 71
0030
0100
0010
2000
0000
0000
3001
0000
,  // measure 72
1000
0000
0001
0100
0000
0001
1000
0200
,  // measure 73
0000
0301
0100
1000
0000
0001
0010
0200
,  // measure 74
0000
0000
1300
0002
0003
0200
0300
0002
,  // measure 75
0000
1000
0003
0001
,  // measure 76
1000
0000
0000
1000
0000
0000
1000
0000
,  // measure 77
0000
0000
1000
0000
0000
0001
0000
0000
;

//---------------dance-single - ----------------
#NOTEDATA:;
#CHARTNAME:X-Scale 3;
#STEPSTYPE:dance-single;
#DESCRIPTION:;
#CHARTSTYLE:;
#DIFFICULTY:Beginner;
#METER:3;
#RADARVALUES:0.192382,0.312470,0.021957,0.000000,0.000000,184.000000,181.000000,3.000000,0.000000,0.000000,0.000000,0.000000,0.000000,0.000000,0.192382,0.312470,0.021957,0.000000,0.000000,184.000000,181.000000,3.000000,0.000000,0.000000,0.000000,0.000000,0.000000,0.000000;
#CREDIT:;
#NOTES:
// measure 0
0000
0000
0000
0000
,  // measure 1
0000
0000
0000
0000
,  // measure 2
0000
0000
0000
0000
,  // measure 3
0000
0000
0000
0000
,  // measure 4
0001
0000
0000
0000
,  // measure 5
1000
0000
0000
0000
,  // measure 6
0001
0000
0000
0000
,  // measure 7
1000
0000
0000
0000
,  // measure 8
0100
0000
0000
0000
,  // measure 9
0010
0000
0000
0000
,  // measure 10
0100
0000
0000
0000
,  // measure 11
0010
0000
0000
0000
,  // measure 12
0001
0000
0000
0000
,  // measure 13
0100
0000
0000
0000
,  // measure 14
0001
0000
0000
0000
,  // measure 15
0100
0000
0000
0000
,  // measure 16
0010
0000
0000
0000
,  // measure 17
1000
0000
0000
0000
,  // measure 18
0010
0000
0000
0000
,  // measure 19
1000
0000
0000
0000
,  // measure 20
0001
0000
0010
0000
,  // measure 21
0100
0000
1000
0000
,  // measure 22
0001
0000
0010
0000
,  // measure 23
0100
0000
1000
0000
,  // measure 24
1001
0000
0000
0001
0000
0000
0010
0000
,  // measure 25
0010
0000
0000
0001
0000
0000
1000
0000
,  // measure 26
1000
0000
0000
0010
0000
0000
0100
0000
,  // measure 27
0100
0000
0000
0001
0000
0000
1000
0000
,  // measure 28
1000
0000
0000
0010
0000
0000
1000
0000
,  // measure 29
1000
0000
0000
0100
0000
0000
0010
0000
,  // measure 30
0010
0000
0000
0001
0000
0000
1000
0000
,  // measure 31
1000
0000
0000
0010
0000
0000
1000
0000
,  // measure 32
1000
0000
0000
0000
0001
0000
0000
0010
,  // measure 33
0000
0000
0000
0001
0000
0000
1000
0000
,  // measure 34
1000
0000
0000
0000
0100
0000
0000
0010
,  // measure 35
0000
0000
0000
0001
0000
0000
1000
0000
,  // measure 36
1000
0000
0000
0010
0000
0000
0100
0000
,  // measure 37
0100
0000
0000
0001
0000
0000
0010
0000
,  // measure 38
0010
0000
0100
0000
,  // measure 39
0010
0100
0010
0100
,  // measure 40
0110
0000
0010
0001
,  // measure 41
0000
0001
1000
0000
,  // measure 42
0010
0000
0100
0010
,  // measure 43
0000
0010
1000
0000
,  // measure 44
0001
0000
0010
0100
,  // measure 45
0000
0100
1000
0000
,  // measure 46
0001
0000
0100
0010
,  // measure 47
0000
0010
1000
0010
,  // measure 48
1000
0000
0001
0000
,  // measure 49
0010
0000
0001
1000
,  // measure 50
0001
0000
0010
0000
,  // measure 51
0100
1000
0100
0000
,  // measure 52
1000
0000
0001
0000
,  // measure 53
0100
0010
0100
0000
,  // measure 54
0001
0000
0010
0000
,  // measure 55
0100
1000
0100
0000
,  // measure 56
1000
0000
0000
0000
,  // measure 57
0001
0000
0000
0000
,  // measure 58
1000
0000
0000
0000
,  // measure 59
0001
0000
0000
0000
,  // measure 60
0100
0000
0000
0000
,  // measure 61
0010
0000
0000
0000
,  // measure 62
0100
0000
0000
0000
,  // measure 63
0010
0000
0000
0000
,  // measure 64
0110
0000
0100
0001
0000
0000
1000
0000
,  // measure 65
0001
0000
0010
0100
0000
0000
0010
0000
,  // measure 66
0001
0000
1000
0001
0000
0000
0010
0000
,  // measure 67
0100
0000
1000
0100
0000
1000
0100
0000
,  // measure 68
0010
0000
0001
1000
0000
0010
1000
0000
,  // measure 69
0001
0000
0010
0001
0000
1000
0001
0000
,  // measure 70
0010
0000
0100
1000
0000
0001
1000
0000
,  // measure 71
0100
0000
1000
0001
0000
0100
0001
0000
,  // measure 72
0010
0000
0001
1000
0000
0100
1000
0000
,  // measure 73
0001
0000
0010
0100
0000
0010
0001
0000
,  // measure 74
1000
0000
0010
1000
0000
0001
1000
0000
,  // measure 75
0100
0000
0010
0001
0000
1000
0001
0000
,  // measure 76
1000
0000
0000
0001
0000
0000
1000
0000
,  // measure 77
0000
0000
0001
0000
0000
0001
0000
0000
;
