#TITLE:Love At First Sight;
#SUBTITLE:;
#ARTIST:Kylie Minogue;
#TITLETRANSLIT:;
#SUBTITLETRANSLIT:;
#ARTISTTRANSLIT:;
#GENRE:Disco Pop;
#CREDIT:;
#BANNER:Love At First Sight-bn.png;
#BACKGROUND:Love At First Sight-bg.png;
#LYRICSPATH:;
#CDTITLE:cdtitle.png;
#MUSIC:Love At First Sight.ogg;
#OFFSET:-0.002000;
#SAMPLESTART:53.762001;
#SAMPLELENGTH:15.360000;
#SELECTABLE:YES;
#BPMS:0.000000=124.999992
;
#STOPS:
;
#BGCHANGES:0.000=Love At First Sight.avi=1.000=1=0=0=StretchNoLoop==CrossFade==,
99999=-nosongbg-=1.000=0=0=0 // don't automatically add -songbackground-
;
#KEYSOUNDS:;
#ATTACKS:;

//---------------dance-single - ----------------
#NOTES:
     dance-single:
     X-Scale 3:
     Beginner:
     2:
     0.141308,0.173103,0.019022,0.000000,0.000000,104.000000,102.000000,2.000000,0.000000,0.000000,0.000000,0.141308,0.173103,0.019022,0.000000,0.000000,104.000000,102.000000,2.000000,0.000000,0.000000,0.000000:
// measure 0
0000
0000
0000
0000
,  // measure 1
0000
0000
0000
0000
,  // measure 2
0000
0000
0000
0000
,  // measure 3
0000
0000
0000
0000
,  // measure 4
0000
0001
0000
0001
,  // measure 5
0000
1000
0000
1000
,  // measure 6
0000
0010
0000
0010
,  // measure 7
0000
0100
0000
0100
,  // measure 8
0000
0001
0000
0001
,  // measure 9
0000
1000
0000
1000
,  // measure 10
0000
0100
0000
0100
,  // measure 11
0000
0010
0000
0010
,  // measure 12
0000
0001
0001
0000
,  // measure 13
1000
0000
0001
0000
,  // measure 14
1000
0100
0100
0000
,  // measure 15
0010
0000
0001
0000
,  // measure 16
0010
0001
0001
0000
,  // measure 17
1000
0000
0001
0000
,  // measure 18
0100
0010
0010
0000
,  // measure 19
1000
0000
0100
0000
,  // measure 20
0010
0000
0000
0000
,  // measure 21
0100
0000
0000
0000
,  // measure 22
1000
0000
0000
0000
,  // measure 23
0001
0000
0000
0000
,  // measure 24
0100
0000
0000
0000
,  // measure 25
0010
0000
0000
0000
,  // measure 26
1000
0000
0000
0000
,  // measure 27
0001
0000
0000
0000
,  // measure 28
1001
0000
1000
0000
,  // measure 29
0001
0000
1000
0010
,  // measure 30
1000
0000
0100
0000
,  // measure 31
0010
0000
0001
0010
,  // measure 32
0001
0000
1000
0000
,  // measure 33
0001
0000
0100
0010
,  // measure 34
0100
0000
0001
0000
,  // measure 35
1000
0000
0001
0000
,  // measure 36
0100
0000
0001
0000
,  // measure 37
1000
0000
0100
0010
,  // measure 38
0100
0000
1000
0000
,  // measure 39
0001
0000
0100
0001
,  // measure 40
0100
0000
0010
0000
,  // measure 41
1000
0000
0001
1000
,  // measure 42
0001
0000
0010
0000
,  // measure 43
0100
0000
1000
0000
,  // measure 44
1001
0000
0100
0000
,  // measure 45
1000
0001
1000
0000
,  // measure 46
0100
0000
0010
0000
,  // measure 47
0001
1000
0001
0000
,  // measure 48
0100
0000
0010
0000
,  // measure 49
1000
0001
1000
0000
,  // measure 50
0100
0000
0010
0000
,  // measure 51
0001
0010
0001
0000
,  // measure 52
1000
0000
0000
0000
;

//---------------dance-single - ----------------
#NOTES:
     dance-single:
     X-Scale 5:
     Easy:
     3:
     0.258159,0.370934,0.123645,0.114134,0.000000,190.000000,177.000000,13.000000,12.000000,0.000000,0.000000,0.258159,0.370934,0.123645,0.114134,0.000000,190.000000,177.000000,13.000000,12.000000,0.000000,0.000000:
// measure 0
0000
0000
0000
0000
,  // measure 1
0000
0000
0000
0000
,  // measure 2
0000
0000
0000
0000
,  // measure 3
0000
0000
0000
0000
,  // measure 4
2100
0000
3001
0100
,  // measure 5
0001
0000
0000
0100
0000
0000
0010
0100
,  // measure 6
0020
0000
1030
0100
,  // measure 7
0010
0000
0000
0001
0000
0000
0100
0010
,  // measure 8
0200
0000
0301
1000
,  // measure 9
0001
0000
0000
0010
0000
0000
0100
1000
,  // measure 10
0200
0000
1300
0001
,  // measure 11
0100
0000
0000
0001
0000
0000
0010
0100
,  // measure 12
0010
0000
0001
0000
,  // measure 13
1000
0000
0000
0002
0000
0000
0203
0000
,  // measure 14
0301
0000
0010
0000
,  // measure 15
0100
0000
0000
2000
0000
0000
3200
0000
,  // measure 16
0310
0000
0001
0000
,  // measure 17
1000
0000
0000
0002
0000
0000
0103
0000
,  // measure 18
0001
0000
0010
0000
0100
2000
3000
0002
,  // measure 19
0000
0000
0000
0203
0000
0000
0310
0000
,  // measure 20
1000
0000
0000
0001
0000
0010
0000
0000
,  // measure 21
0100
0000
0000
1000
0000
0000
0000
0000
,  // measure 22
0001
0000
0000
0100
0000
0010
0000
0000
,  // measure 23
1000
0000
0000
0001
0000
0000
0000
0000
,  // measure 24
0010
0000
0000
0100
0000
1000
0000
0000
,  // measure 25
0001
0000
0000
1000
0000
0000
0000
0000
,  // measure 26
0010
0000
0000
0100
0000
0001
0000
0000
,  // measure 27
1000
0000
0000
0010
0000
0000
0000
0000
,  // measure 28
0110
0000
0000
0010
0000
0000
1000
0000
,  // measure 29
0001
0010
0000
0010
0100
0000
0010
0000
,  // measure 30
0001
0000
0000
1000
0000
0000
0010
0000
,  // measure 31
1000
0100
0000
0100
0010
0000
0100
0000
,  // measure 32
1000
0000
0000
0001
0000
0000
0100
0000
,  // measure 33
0001
0100
0000
0100
0010
0000
1000
0000
,  // measure 34
0001
0001
1000
1000
,  // measure 35
0001
0001
1000
1000
,  // measure 36
1001
0000
0100
1000
0000
0001
0100
0000
,  // measure 37
0001
1000
0001
0000
1001
0000
0110
0000
,  // measure 38
1001
0000
1000
0001
0000
0010
0100
0000
,  // measure 39
1000
0001
0100
0000
0101
0000
1100
0000
,  // measure 40
0101
0000
0001
0010
0000
0100
1000
0000
,  // measure 41
0001
0100
0001
0000
0101
0000
1100
0000
,  // measure 42
1000
1000
0001
0001
,  // measure 43
1000
1000
0001
0001
,  // measure 44
1001
0100
1000
0001
,  // measure 45
1000
0000
0100
1000
0001
0000
1000
0000
,  // measure 46
0100
0010
0100
1000
,  // measure 47
0001
0000
0100
0001
1000
0000
0001
0000
,  // measure 48
0010
0100
0010
0001
,  // measure 49
1000
0000
0010
0000
0100
0010
1000
0000
,  // measure 50
0001
0000
0010
0000
0100
0000
0010
0100
,  // measure 51
1000
0001
1000
0001
,  // measure 52
1001
0000
0000
0000
;

//---------------dance-single - ----------------
#NOTES:
     dance-single:
     X-Scale 7:
     Medium:
     5:
     0.346477,0.420392,0.152178,0.408979,0.085600,255.000000,239.000000,16.000000,43.000000,0.000000,0.000000,0.346477,0.420392,0.152178,0.408979,0.085600,255.000000,239.000000,16.000000,43.000000,0.000000,0.000000:
// measure 0
0000
0000
0000
0000
,  // measure 1
0000
0000
0000
0000
,  // measure 2
0000
0000
0000
0000
,  // measure 3
0000
0000
0000
0000
,  // measure 4
1001
1000
0010
1000
,  // measure 5
0001
0000
0000
0001
0000
0000
0200
0000
0001
0000
0000
0000
1000
0000
0000
0000
,  // measure 6
0301
0100
0010
1000
,  // measure 7
0100
0000
0000
0100
0000
0000
0020
0000
0001
0000
0000
0000
1000
0000
0000
0000
,  // measure 8
0031
0100
0010
1000
,  // measure 9
0001
0000
0000
0001
0000
0000
0200
0000
0010
0000
0000
0000
1000
0000
0000
0000
,  // measure 10
0310
0100
0001
1000
,  // measure 11
0100
0000
0000
0100
0000
0000
2000
0000
0200
0000
0300
0002
0000
0003
0010
0000
,  // measure 12
3010
0000
1000
0000
0001
0010
0001
0000
,  // measure 13
1000
0000
0100
0020
0000
0000
0230
0000
,  // measure 14
1300
0000
0001
0000
0100
0000
0001
1000
,  // measure 15
0001
0000
0010
0200
0000
0000
2300
0000
,  // measure 16
3001
0000
1000
0000
0010
0100
0010
0000
,  // measure 17
1000
0000
0100
0020
0000
0000
0001
0001
,  // measure 18
0031
0000
1000
0000
0001
0010
0000
0200
,  // measure 19
0010
0000
0000
1000
0000
0000
2300
0000
0000
0000
0000
0000
3001
0000
0000
0000
,  // measure 20
1000
0100
0002
0000
0023
0000
2030
0000
,  // measure 21
3002
0000
0013
0200
0000
0300
1100
1000
,  // measure 22
0002
0203
2300
3020
,  // measure 23
0032
0000
0000
0000
1003
0000
0200
0000
0000
0000
0000
0000
0310
0000
0000
0010
,  // measure 24
0001
0100
0002
0000
1003
0010
0001
0010
,  // measure 25
2000
0000
3001
0200
0000
0301
0100
0010
,  // measure 26
1000
0000
1000
0100
0000
1000
0000
0000
,  // measure 27
0001
0000
0000
0001
0000
0000
0100
0000
0000
0000
0000
0000
0101
0000
0000
0000
,  // measure 28
1200
0000
0000
2300
0000
0000
3002
0000
,  // measure 29
0103
0020
0000
0030
0110
0000
1001
0000
,  // measure 30
2000
0000
0000
3020
0000
0000
0230
0000
,  // measure 31
0301
0020
0000
0030
0011
0000
1010
0000
,  // measure 32
0020
0000
0000
2030
0000
0000
3002
0000
,  // measure 33
1003
0200
0000
0300
0110
0000
0011
0000
,  // measure 34
0001
1000
0001
0000
0100
0010
0100
0000
,  // measure 35
0001
1000
0001
0000
0100
0010
0100
0000
,  // measure 36
1001
0000
1000
0001
0100
0000
0010
0000
,  // measure 37
0100
0001
0010
0000
0011
0000
1010
0000
,  // measure 38
0001
0000
1000
0001
0100
0000
0001
0000
,  // measure 39
0010
0100
1000
0000
1100
0000
0101
0000
,  // measure 40
0001
0000
0010
0100
1000
0000
0001
0000
,  // measure 41
0100
0001
1000
0000
0100
0000
0010
0000
,  // measure 42
0001
0010
1000
0010
0001
0010
1000
0010
,  // measure 43
0001
0100
1000
0100
0001
0100
1000
0100
,  // measure 44
0001
0000
0000
0000
1000
0000
0000
1000
0010
0000
1000
0000
0001
0000
0000
0000
,  // measure 45
0010
0000
0000
0010
0000
0000
0200
0000
0000
0000
0000
0000
1000
0000
1000
0000
,  // measure 46
1300
0000
0100
0000
0010
0000
0000
0000
0001
0000
0000
0001
0100
0000
0001
0000
,  // measure 47
1000
0000
0000
1000
0000
0000
0200
0000
0000
0000
0000
0000
0010
0000
0300
0100
,  // measure 48
1000
0000
0001
0000
0100
0000
0000
0100
0001
0000
1000
0000
0100
0000
0000
0100
,  // measure 49
0010
0000
0000
0010
0000
0000
0002
0000
0000
0000
0000
0000
1000
0000
1000
0000
,  // measure 50
1003
0000
0000
0001
0100
0000
0001
0000
1000
0000
0000
0000
0001
0000
0000
0000
,  // measure 51
0100
0000
0000
0100
0000
0000
0200
0000
0000
0000
0000
0000
0300
0000
0000
0000
,  // measure 52
0101
0000
0000
0000
;

//---------------dance-single - ----------------
#NOTES:
     dance-single:
     X-Scale 11:
     Hard:
     8:
     0.429359,0.445121,0.076089,0.456534,0.137911,316.000000,308.000000,8.000000,48.000000,0.000000,0.000000,0.429359,0.445121,0.076089,0.456534,0.137911,316.000000,308.000000,8.000000,48.000000,0.000000,0.000000:
// measure 0
0000
0000
0000
0000
,  // measure 1
0000
0000
0000
0000
,  // measure 2
0000
0000
0000
0000
,  // measure 3
0000
0000
0000
0000
,  // measure 4
1000
0000
0000
0010
0000
0000
0100
0000
0001
0000
0000
0000
0010
0000
0100
0000
,  // measure 5
1000
0000
0000
0001
0000
0000
0010
0000
0001
0000
0000
0000
0100
0000
0100
0000
,  // measure 6
0100
0000
0000
0001
0000
0000
0010
0000
0100
0000
0000
0000
1000
0000
0001
0000
,  // measure 7
0100
0000
0000
0010
0000
0000
1000
0000
0001
0000
0000
0000
0100
0000
0100
0010
,  // measure 8
0100
0000
0000
0010
0000
0000
1000
0000
0001
0000
0000
0000
0100
0000
0001
0000
,  // measure 9
0010
0000
0000
0100
0000
0000
1000
0000
0010
0000
0000
0000
1000
0000
1000
0000
,  // measure 10
1000
0000
0000
0001
0000
0000
0010
0000
0100
0000
0000
0000
0010
0000
0100
0000
,  // measure 11
1000
0000
0000
0001
0000
0000
1000
0000
0100
0000
0000
0010
0000
0000
0001
0010
,  // measure 12
0001
0000
1000
0000
0001
0010
1000
0010
,  // measure 13
0002
0000
0103
0020
0001
0000
0230
0000
,  // measure 14
0301
0000
0010
0000
1000
0010
0001
1000
,  // measure 15
0001
0100
0010
2000
0001
0000
3020
0000
,  // measure 16
0031
0000
0010
0000
1000
0100
0001
0100
,  // measure 17
2000
0000
3010
0200
1000
0000
0010
0000
,  // measure 18
0301
0000
0100
0000
0001
0010
0001
0200
,  // measure 19
1000
0000
0000
0010
0000
0000
0302
0000
0100
0000
0000
0000
1003
0000
0001
1000
,  // measure 20
0001
0010
0100
2000
0001
0000
3010
1000
,  // measure 21
0020
0000
0000
2030
0000
0000
3002
0000
0000
0000
0000
0000
0010
0000
0010
0000
,  // measure 22
0013
0100
1000
0002
0000
0203
0000
0000
,  // measure 23
2300
0000
0000
3200
0000
0000
0320
0000
0001
0000
0000
0000
1030
0000
0010
0100
,  // measure 24
0001
0010
0100
2000
0010
0000
3001
0000
,  // measure 25
0200
0000
0000
0302
0000
0000
2003
0000
0000
0000
0000
0000
0100
0000
0100
0000
,  // measure 26
3100
0010
0001
2000
0000
3020
0000
0000
,  // measure 27
0032
0000
0000
0203
0000
0000
2300
0000
0100
0000
0000
0000
3001
0000
0001
0100
,  // measure 28
0002
0000
0103
0200
0001
0300
0002
1000
,  // measure 29
1003
0200
0010
0300
0110
0000
1001
0000
,  // measure 30
2000
0000
3100
0200
0010
0300
0020
0001
,  // measure 31
0031
2000
0010
3000
1010
0000
0101
0000
,  // measure 32
0002
0000
0103
0200
0010
0300
0002
1000
,  // measure 33
1003
0200
0010
0300
0110
0000
0011
0000
,  // measure 34
0001
0010
0100
0001
1000
0010
0100
1000
,  // measure 35
0010
0001
1000
0100
0010
1000
0001
1000
,  // measure 36
1010
0000
1000
0100
0010
0001
1000
0001
,  // measure 37
0100
0000
0000
0001
1000
0000
0001
0000
0010
0000
0100
0000
1000
0000
0100
0010
,  // measure 38
0100
0000
1000
0001
0100
0010
0100
0001
,  // measure 39
0010
0000
0000
0100
1000
0000
0001
0000
1000
0000
0100
0000
0010
0000
0001
0010
,  // measure 40
0001
0000
0100
0001
1000
0100
0010
0100
,  // measure 41
1000
0000
0000
0001
0010
0000
0001
0000
1000
0000
0100
0000
1000
0000
0001
1000
,  // measure 42
0001
0010
0100
0001
1000
0010
0100
1000
,  // measure 43
0010
0000
0001
0000
0010
0000
1000
0000
0001
0000
0100
0000
0001
0000
0100
0001
,  // measure 44
0100
0010
1000
0200
0000
0301
0010
2000
,  // measure 45
0000
3001
0010
0200
0010
0000
1300
0001
,  // measure 46
0100
0010
0100
0002
0100
0000
1003
0001
,  // measure 47
0100
0000
0000
0100
0001
0000
1000
0000
0100
0000
0000
0000
1000
0000
0002
0000
,  // measure 48
0000
0013
1000
0200
0000
0301
1000
0020
,  // measure 49
0000
0000
0031
0000
0010
0000
2000
0000
0010
0000
0000
0000
3001
0000
1000
0001
,  // measure 50
1000
0000
0100
0000
0010
0000
0001
0100
,  // measure 51
0001
0000
0000
0010
0000
0000
0200
0000
0000
0000
0000
0000
1300
0000
0000
0000
,  // measure 52
1100
0000
0000
0000
;
