#TITLE:Lost Soul;
#SUBTITLE:;
#ARTIST:Sandro Silva x STVW;
#TITLETRANSLIT:;
#SUBTITLETRANSLIT:;
#ARTISTTRANSLIT:;
#GENRE:Big Room House;
#CREDIT:;
#BANNER:Lost Soul-bn.png;
#BACKGROUND:Lost Soul-bg.png;
#LYRICSPATH:;
#CDTITLE:cdtitle.png;
#MUSIC:Lost Soul.ogg;
#OFFSET:-0.002000;
#SAMPLESTART:60.924999;
#SAMPLELENGTH:14.769000;
#SELECTABLE:YES;
#BPMS:0.000000=130.000000
;
#STOPS:
;
#BGCHANGES:3.833=Lost Soul.avi=1.000=1=0=0=StretchNoLoop==CrossFade==,
196.000=Lost Soul-bg.png=1.000=1=0=1===CrossFade==,
99999=-nosongbg-=1.000=0=0=0 // don't automatically add -songbackground-
;
#KEYSOUNDS:;
#ATTACKS:;

//---------------dance-single - ----------------
#NOTES:
     dance-single:
     X-Scale 1:
     Beginner:
     1:
     0.099028,0.155969,0.010831,0.000000,0.000000,64.000000,63.000000,1.000000,0.000000,0.000000,0.000000,0.099028,0.155969,0.010831,0.000000,0.000000,64.000000,63.000000,1.000000,0.000000,0.000000,0.000000:
0000
0000
0000
0000
,
0000
0000
0000
0000
,
0000
0000
0000
0000
,
0000
0000
0000
0000
,
0000
0000
0000
0000
,
1000
0000
0000
0000
,
0100
0000
0000
0000
,
0010
0000
0000
0000
,
0001
0000
0000
0000
,
0000
0000
0001
0000
,
0000
0000
0100
0000
,
0000
0000
0010
0000
,
0000
0000
1000
0000
,
0000
0000
0100
0000
,
0000
0000
0010
0000
,
0000
0000
0001
0000
,
0000
0000
0000
0000
,
0100
0000
0000
0000
,
0001
0000
1000
0000
,
0001
0000
0000
0000
,
0100
0000
0010
0000
,
0100
0000
0001
0000
,
1000
0000
0001
0000
,
0010
0000
0100
0000
,
1000
0000
0001
0000
,
1000
0000
0000
0000
,
0100
0000
0000
0000
,
0010
0000
0000
0000
,
0001
0000
0000
0000
,
0100
0000
0000
0000
,
0010
0000
0000
0000
,
1000
0000
0000
0000
,
0001
0000
0000
0000
,
1001
0000
1000
0000
,
0001
0000
0100
0000
,
0001
0000
0010
0000
,
0100
0000
0010
0000
,
0001
0000
1000
0000
,
0010
0000
1000
0000
,
0100
0000
0010
0000
,
0001
0000
1000
0000
,
0001
0000
0000
0000
,
0100
0000
0001
0000
,
1000
0000
0001
0000
,
0010
0000
0100
0000
,
0010
0000
0001
0000
,
1000
0000
0001
0000
,
0100
0000
0010
0000
,
1000
0000
0000
0000
;

//---------------dance-single - ----------------
#NOTES:
     dance-single:
     X-Scale 5:
     Easy:
     3:
     0.252212,0.344973,0.043325,0.108312,0.000000,163.000000,159.000000,4.000000,10.000000,0.000000,0.000000,0.252212,0.344973,0.043325,0.108312,0.000000,163.000000,159.000000,4.000000,10.000000,0.000000,0.000000:
0000
0000
0000
0000
,
0000
0000
0000
0000
,
0000
0000
0000
0000
,
0000
0000
0000
0000
,
0000
0000
0000
0000
,
0002
0000
0000
0000
,
2003
0000
3020
0000
,
0230
0000
0000
0000
,
0302
0000
0023
0000
,
0130
1000
0100
0000
,
0010
0001
0010
0000
,
0001
0100
0001
0000
,
1000
0010
1000
0000
,
0010
0100
0010
0000
,
1000
0100
1000
0000
,
0001
0100
0001
0000
,
2002
0000
0000
3003
,
0001
0100
0000
0001
1000
0000
0001
0100
,
0001
0001
1000
1000
,
0100
0010
0000
0001
0010
0000
0100
1000
,
0100
0000
0100
0000
0010
0001
1000
0001
,
0010
0100
0000
0010
0001
0000
1000
0001
,
1000
1000
0010
0010
,
0100
0001
0000
1000
0001
0000
0010
0100
,
0010
0100
0000
1000
0010
0000
1000
0000
,
0001
0010
0100
1000
0000
0000
0000
0000
,
0001
0000
1000
0000
,
0100
0000
0010
0000
,
0001
0000
1000
0000
,
0001
0010
0100
1000
0000
0000
0000
0000
,
0010
0000
1000
0000
,
0001
0000
0100
0000
,
0002
0000
0003
0000
,
1001
1000
0001
0100
,
0001
0010
0100
0010
,
0001
1000
0100
1000
,
0001
0000
0010
0000
0001
0000
0100
0010
,
0100
0000
0001
0000
1000
0000
0001
0100
,
0001
0000
1000
0000
0001
0000
0100
0010
,
0100
0000
0001
0000
0010
0000
0100
1000
,
0100
0010
0001
0002
,
0003
0000
0000
0000
,
0110
0000
0001
0000
1000
0000
0100
1000
,
0100
0000
0010
0000
0001
0000
0100
0010
,
0100
0000
0001
0000
0010
0000
0100
1000
,
0100
0000
0010
0000
0001
0000
0100
0001
,
0100
0000
0010
0000
1000
0000
0001
0100
,
0001
0000
0010
0000
0100
0000
1000
0100
,
1000
0000
0001
0000
,
1001
0000
0000
0000
;

//---------------dance-single - ----------------
#NOTES:
     dance-single:
     X-Scale 11:
     Medium:
     8:
     0.456457,0.530051,0.108312,0.205793,0.173299,295.000000,285.000000,10.000000,19.000000,0.000000,0.000000,0.456457,0.530051,0.108312,0.205793,0.173299,295.000000,285.000000,10.000000,19.000000,0.000000,0.000000:
0000
0000
0000
0000
,
0000
0000
0000
0000
,
0000
0000
0000
0000
,
0000
0000
0000
0000
,
0000
0000
0000
0000
,
2001
0000
3000
0002
0000
0000
0000
0003
,
0020
0000
0230
0000
,
1300
0100
0001
0100
1000
0000
0001
0200
,
0000
0302
0000
0000
2003
0000
0000
0000
,
3100
1000
0000
0001
0100
0000
0010
0100
,
0001
1000
0100
0001
1000
0010
0001
0100
,
0001
0010
0000
0100
1000
0000
0001
0100
,
0010
0001
0010
1000
0001
0100
0010
1000
,
0100
0010
0000
0100
1000
0000
0001
0100
,
0010
0100
0001
1000
0010
0100
1000
0100
,
0001
0010
0000
0100
1000
0000
0001
1000
,
2002
0000
3003
0000
1000
0100
0010
0000
,
0021
0001
0000
0100
0100
0000
0001
0001
,
0031
0010
0100
2000
0100
0000
3001
0000
,
0102
0100
0000
1000
1000
0000
0010
0010
,
0013
0100
2000
0000
3001
0100
1000
0100
,
0001
1000
0100
1000
0001
0010
0100
0010
,
0001
0000
1000
0000
0010
0000
0100
0010
0100
0000
0001
0000
0010
0000
0100
1000
,
0100
1000
0001
0100
1000
0100
0001
0010
,
0100
2000
0000
3001
2000
0000
3100
0000
,
1100
0000
1000
0000
0000
0000
0010
0100
0010
0000
0000
0000
0000
0000
0000
0000
,
0001
0000
1000
0000
0000
0000
0100
0010
0100
0000
0000
0000
0000
0000
0000
0000
,
1000
0000
0001
0000
0000
0000
0010
0100
0010
0000
0000
0000
0000
0000
0000
0000
,
1000
0000
0001
0000
0000
0000
0100
0010
0100
0000
0000
0000
0000
0000
0000
0000
,
1000
0001
1000
0001
,
0010
0100
0010
0100
,
1000
0000
0100
0000
0010
0000
0001
0000
1000
0001
1000
0001
1000
0001
1000
0001
,
2000
0000
3000
1001
,
0110
0000
0100
0001
1000
0001
0010
0100
,
1000
0000
0001
0100
0010
1000
0100
0010
,
0001
0000
0100
0001
1000
0001
0010
0100
,
1000
0000
0001
0100
1000
0100
0001
0001
,
0001
0000
0000
0010
0100
0000
1000
0000
0001
0000
0000
0100
0001
0000
1000
0000
,
0100
0000
0000
0010
0001
0000
1000
0000
0010
0000
0100
0010
0000
0000
0010
0000
,
1000
0000
0000
0001
0100
0000
0001
0000
0010
0000
0000
0100
0010
0000
0001
0000
,
1000
0000
0000
0100
0010
0000
0001
0000
0011
0000
0000
2002
0000
0000
0000
0000
,
3003
0000
0000
0000
0001
0010
0100
1000
,
1100
0000
0000
0100
1000
0000
0001
1000
0001
0000
0100
0000
0010
0000
1000
0000
,
0001
0000
0000
0100
0001
0000
1000
0001
1000
0000
0100
0000
0001
0000
0100
0000
,
1000
0000
0000
0010
1000
0000
0001
1000
0001
0000
0100
0000
0010
0000
0100
0000
,
0001
0000
0000
0010
0100
0000
1000
0100
1000
0000
0010
0000
0100
0000
0100
0000
,
0100
0000
0000
0001
0100
0000
0001
0100
0001
0000
0010
0000
1000
0000
0010
0000
,
0001
0000
0000
1000
0001
0000
1000
0100
1000
0000
0010
0000
0100
0000
0001
0000
,
0020
0000
0000
0000
0030
0000
0010
0100
0000
0000
0000
0000
0010
0000
0001
1000
;

//---------------dance-single - ----------------
#NOTES:
     dance-single:
     X-Scale 13:
     Hard:
     9:
     0.533823,0.663410,0.119143,0.151637,0.324936,345.000000,334.000000,11.000000,14.000000,0.000000,0.000000,0.533823,0.663410,0.119143,0.151637,0.324936,345.000000,334.000000,11.000000,14.000000,0.000000,0.000000:
// measure 0
0000
0000
0000
0000
,  // measure 1
0000
0000
0000
0000
,  // measure 2
0000
0000
0000
0000
,  // measure 3
0000
0000
0000
0000
,  // measure 4
0000
0000
0000
0000
,  // measure 5
2000
0010
0001
0010
,  // measure 6
3002
0100
2003
0100
,  // measure 7
3020
0001
0100
1000
,  // measure 8
2030
0010
3002
0010
,  // measure 9
0103
0000
0000
0000
0001
0000
0000
0000
0101
0000
0000
0000
0001
0000
0010
0100
,  // measure 10
1000
0000
0010
0000
0100
0000
1000
0100
0010
0000
1000
0000
0001
0000
0100
0001
,  // measure 11
1000
0000
0000
0000
0100
0000
0000
0000
1001
0000
0000
0000
0001
0000
0100
0001
,  // measure 12
1000
0000
0100
0000
0001
0000
0100
0000
0010
0000
0001
0000
1000
0001
1000
0001
,  // measure 13
0100
0000
0000
0000
0010
0000
0000
0000
1001
0000
0000
0000
1000
0000
0001
1000
,  // measure 14
0010
0000
1000
0000
0001
0000
0100
0001
1000
0000
0100
0000
0001
0000
0100
0010
,  // measure 15
0001
0000
0000
0000
0010
0000
0000
0000
1001
0000
0000
0000
1000
0000
0010
1000
,  // measure 16
0001
0010
0000
0010
1000
0000
0010
0000
,  // measure 17
1001
0000
1000
0000
0100
0000
0001
0000
0100
0000
0010
0000
0001
0000
1000
0001
,  // measure 18
1000
0100
0001
0100
2000
0000
3002
0000
,  // measure 19
0103
0000
0001
0000
0010
0000
0100
0000
0001
0000
0100
0000
1000
0000
0001
1000
,  // measure 20
0001
0100
0010
0100
0002
0000
2003
0000
,  // measure 21
3001
0000
1000
0000
0010
0000
1000
0000
0001
0000
0010
0000
0100
0000
1000
0100
,  // measure 22
1000
0000
0010
0000
0100
0000
0001
0100
0001
0000
0010
0000
0100
0000
1000
0100
,  // measure 23
1000
0000
0010
0000
0100
0000
0010
0000
0001
0000
0010
0000
1000
0000
0100
1000
,  // measure 24
0001
0100
0000
0100
1000
0000
0010
0000
,  // measure 25
1001
0000
1000
0000
0001
0000
0010
0100
1000
0000
0000
0000
0100
0000
0000
0000
,  // measure 26
0100
0000
0001
0000
1000
0000
0010
1000
0001
0000
0000
0000
0100
0000
0000
0000
,  // measure 27
0100
0000
1000
0000
0001
0000
0100
0001
1000
0000
0000
0000
0100
0000
0000
0000
,  // measure 28
0100
0000
0001
0000
1000
0000
0100
0010
0001
0000
0000
0000
1000
0000
0000
0000
,  // measure 29
0001
0100
1000
0100
0001
0100
1000
0100
,  // measure 30
0001
1000
0001
0010
0100
1000
0010
1000
,  // measure 31
0100
0010
0100
0010
0100
0010
0100
0010
0001
0010
0001
0010
0001
0010
0001
0010
,  // measure 32
0002
0000
0003
1001
,  // measure 33
0110
0000
0000
0000
0001
0000
0100
0001
0100
0000
0010
0000
1000
0100
1000
0000
,  // measure 34
0001
0000
0000
0000
0010
0000
0100
0010
0100
0000
1000
0000
0001
0000
0100
0000
,  // measure 35
0020
0000
0000
0000
0031
0000
0010
0100
0010
0000
1000
0000
1000
0100
1000
0000
,  // measure 36
0010
0000
0000
0000
0010
0000
1000
0001
1000
0000
0010
0000
0100
0000
0100
0000
,  // measure 37
0100
0000
0000
0001
0010
0000
0001
0000
1000
0000
0100
0000
0010
0100
1000
0000
,  // measure 38
0001
0000
0000
0100
0001
0000
1000
0000
0010
0000
0100
0010
0000
0000
1000
0000
,  // measure 39
1000
0000
0000
0001
0100
0000
0001
0000
0010
0000
0100
0000
1000
0001
0100
0000
,  // measure 40
0001
0000
0000
1000
0010
0000
1000
0000
1100
0000
0000
1100
0000
0000
0100
0010
,  // measure 41
0001
0000
0000
0000
0000
0100
0010
1000
0001
0000
0010
0000
0100
0010
0001
0000
,  // measure 42
1001
0000
0000
0001
0100
0000
0001
0000
0010
0000
0000
0100
1000
0000
0001
0000
,  // measure 43
1000
0000
0000
0010
0100
0000
0010
0000
0001
0000
0000
0010
1000
0000
0001
0000
,  // measure 44
0100
0000
1000
0000
0100
0000
0001
0100
0001
0000
1000
0000
0100
0000
0010
0100
,  // measure 45
1000
0000
0000
0001
0100
0000
0001
0000
0010
0000
0000
0100
0010
0000
0010
0000
,  // measure 46
0010
0000
0000
0001
0100
0000
0001
0000
1000
0000
0000
0100
0010
0000
0100
0000
,  // measure 47
1000
0000
0000
0001
0100
0000
0010
0000
0100
0000
0000
0001
0010
0000
0100
0000
,  // measure 48
2000
0000
0000
0000
3000
0000
0001
0020
0000
0000
0030
0000
0001
0000
1000
0001
,  // measure 49
1000
0000
0000
0000
;

//---------------dance-single - DANCERUSH Special----------------
#NOTES:
     dance-single:
     X-Scale 12:
     Challenge:
     8:
     0.352787,0.451119,0.075818,0.119143,0.054156,228.000000,221.000000,7.000000,11.000000,137.000000,0.000000,0.352787,0.451119,0.075818,0.119143,0.054156,228.000000,221.000000,7.000000,11.000000,137.000000,0.000000:
// measure 0
0000
0000
0000
0000
,  // measure 1
0000
0000
0000
0000
,  // measure 2
0000
0000
0000
0000
,  // measure 3
0000
0000
0000
0000
,  // measure 4
0000
0000
0000
0000
,  // measure 5
0001
0010
0100
1000
,  // measure 6
0010
0000
0001
0010
1000
0000
0100
0010
,  // measure 7
0001
0000
0000
0000
0100
0000
0001
0000
1000
0000
0000
0001
0000
0000
0200
0000
,  // measure 8
0000
0020
0000
0000
0330
0000
0000
0000
,  // measure 9
1000
MMMM
1000
MMMM
,  // measure 10
1000
0000
0010
0100
1000
0000
1000
0100
,  // measure 11
0001
MMMM
0001
MMMM
,  // measure 12
0001
0000
0100
0000
1000
0100
0010
0100
,  // measure 13
0001
MMMM
0001
MMMM
,  // measure 14
0001
0000
0100
0001
0010
0000
0010
0100
,  // measure 15
1000
MMMM
1000
MMMM
,  // measure 16
2000
0000
0000
0000
0002
3003
L00L
0000
,  // measure 17
1000
0100
00M0
0001
0010
0M00
1000
0000
,  // measure 18
0001
1000
0010
0200
0000
0000
0300
0000
,  // measure 19
0001
0100
00M0
1000
0010
0M00
0001
1000
,  // measure 20
1001
0000
1000
0000
0010
1000
0001
1000
,  // measure 21
0100
0010
000M
1000
0010
0M00
0001
0000
,  // measure 22
0100
0010
1000
0000
0001
0010
0100
0000
,  // measure 23
1000
0100
0001
0100
1000
0100
0001
0100
,  // measure 24
1000
0010
0M00
0001
0100
0000
0001
0000
,  // measure 25
1001
0000
1000
0000
0000
0000
0001
0010
0100
0000
0000
0000
MMMM
0000
0000
0000
,  // measure 26
0001
0000
1000
0000
0000
0000
0010
1000
0100
0000
0000
0000
MMMM
0000
0000
0000
,  // measure 27
0001
0000
0100
0000
0000
0000
0001
1000
0010
0000
0000
0000
MMMM
0000
0000
0000
,  // measure 28
0001
0000
1000
0000
0000
0000
0100
1000
0010
0000
0000
0000
MMMM
0000
0000
0000
,  // measure 29
0001
0010
0100
1000
0010
0100
0001
0010
,  // measure 30
0100
1000
0010
0100
0001
1000
0100
0010
,  // measure 31
0002
0100
1000
0100
,  // measure 32
2000
0000
3003
L00L
,  // measure 33
0001
MMMM
0001
MMMM
0001
0000
0010
0100
,  // measure 34
1000
MMMM
1000
MMMM
1000
0000
0010
1000
,  // measure 35
0001
MMMM
0001
MMMM
0001
0000
0100
0001
,  // measure 36
1000
MMMM
1000
MMMM
1000
0000
0001
0001
,  // measure 37
0001
0000
0000
0000
1000
0000
0010
0000
0001
0000
0010
0000
1000
0010
1000
0000
,  // measure 38
0001
0000
0100
0001
1000
0001
0010
0100
,  // measure 39
1000
0000
0000
0000
0001
0000
0010
0000
1000
0000
0010
0000
0001
0010
0001
0000
,  // measure 40
1000
0000
0000
0100
0000
0000
0100
0000
1100
0000
0000
2002
0000
0000
3003
0000
,  // measure 41
L00L
0000
0000
0000
1000
0001
0100
0001
,  // measure 42
1000
MMMM
1000
MMMM
1000
0000
0010
1000
,  // measure 43
0001
MMMM
0001
MMMM
0001
0000
0010
0001
,  // measure 44
1000
MMMM
1000
MMMM
1000
0000
0100
0010
,  // measure 45
0001
MMMM
0001
MMMM
0001
0000
0M10
0010
,  // measure 46
1000
MMMM
1000
MMMM
1000
0000
0100
1000
,  // measure 47
0001
MMMM
0001
MMMM
0001
0000
0100
0010
,  // measure 48
1000
0000
0000
0000
0000
0000
0001
0100
M000
0000
0000
0000
2000
0000
0002
0000
,  // measure 49
3003
0000
0000
0000
;
