#VERSION:0.83;
#TITLE:Long shot;
#SUBTITLE:;
#ARTIST:前島麻由;
#TITLETRANSLIT:;
#SUBTITLETRANSLIT:;
#ARTISTTRANSLIT:Mayu Maeshima;
#GENRE:Electropop;
#ORIGIN:;
#CREDIT:;
#BANNER:Long shot-bn.png;
#BACKGROUND:Long shot-bg.png;
#PREVIEWVID:;
#JACKET:Long shot-jacket.png;
#CDIMAGE:;
#DISCIMAGE:;
#LYRICSPATH:;
#CDTITLE:cdtitle.png;
#MUSIC:Long shot.ogg;
#OFFSET:0.000000;
#SAMPLESTART:60.000000;
#SAMPLELENGTH:14.222000;
#SELECTABLE:YES;
#BPMS:0.000=135.000;
#STOPS:;
#DELAYS:;
#WARPS:;
#TIMESIGNATURES:0.000=4=4;
#TICKCOUNTS:0.000=4;
#COMBOS:0.000=1;
#SPEEDS:0.000=1.000=0.000=0;
#SCROLLS:0.000=1.000;
#FAKES:;
#LABELS:0.000=Song Start;
#BGCHANGES:0.000=Long shot.avi=1.000=0=0=0=StretchNoLoop==CrossFade_Fastest==,
99999=-nosongbg-=1.000=0=0=0 // don't automatically add -songbackground-
;
#KEYSOUNDS:;
#ATTACKS:
;

//---------------dance-single - ----------------
#NOTEDATA:;
#CHARTNAME:X-Scale 7;
#STEPSTYPE:dance-single;
#DESCRIPTION:;
#CHARTSTYLE:;
#DIFFICULTY:Easy;
#METER:5;
#RADARVALUES:0.301588,0.319339,0.142522,0.133615,0.000000,237.000000,221.000000,16.000000,15.000000,0.000000,0.000000,0.000000,0.000000,0.000000,0.301588,0.319339,0.142522,0.133615,0.000000,237.000000,221.000000,16.000000,15.000000,0.000000,0.000000,0.000000,0.000000,0.000000;
#CREDIT:iamthek3n;
#NOTES:
0000
0000
0000
0000
,
0000
0000
0000
0000
,
0100
1000
0001
0100
,
0001
0000
0020
0000
0130
0010
0001
0000
,
1000
0000
0001
0000
0100
0001
0020
0000
,
0130
0010
0001
0000
,
1001
1000
0010
0100
,
0001
0000
2000
0000
3100
0010
0001
0000
,
0100
0000
0001
0000
0010
0100
2000
0000
,
3001
0000
0100
0000
,
1001
0000
1000
0000
0010
0000
1000
0100
,
0000
0100
0010
0000
0001
0100
0001
0000
,
1000
0001
0100
0001
,
1000
1100
0001
0101
,
0100
0000
0001
0000
1000
0000
0001
0010
,
0000
0010
0100
0000
1000
0010
1000
0000
,
0001
0100
0010
1000
,
0100
0110
0001
1001
,
0100
0000
0000
0000
1000
0000
0000
1100
,
0000
0000
0000
0000
0001
0000
0000
0101
,
0000
0000
0001
0000
,
0100
0000
0010
0000
,
1000
0000
0010
0000
0100
0000
0001
0100
,
0001
0000
1000
0000
0100
0000
0010
0100
,
0010
0000
0000
0000
,
1000
0000
0000
0001
0000
0000
1000
0000
,
1001
0001
0000
0100
,
0001
1000
0000
0100
,
0010
0100
0000
1000
,
0001
0000
0100
0000
,
0001
0100
0010
1000
,
0010
0100
0001
1000
,
0001
0000
1000
0001
0100
0000
0001
0010
,
0100
0000
0010
0000
,
1001
0000
0000
0000
0000
0000
0000
0101
,
0000
0000
0110
0000
,
0000
1100
0100
0010
,
0100
0000
1000
0001
0100
0000
0001
0000
,
0020
0000
0100
0000
0031
0000
0010
0002
,
0000
0203
0000
0302
0000
1003
0001
2000
,
0010
0001
0010
0001
,
3010
1000
0002
0000
,
0013
0000
0100
0000
1000
0000
0001
0100
,
0010
0000
1000
0000
0100
0010
0001
0000
,
1000
0000
0001
0000
0100
0000
0001
1000
,
0100
0000
0010
0000
0001
0000
1000
0010
,
0200
0000
0010
0000
0301
0000
1000
0002
,
0000
0203
0000
0320
0000
1030
0010
1000
,
0002
0100
1003
0001
,
1001
0000
0000
0000
,
1100
0000
0100
1000
0100
0000
1000
0000
,
0001
0100
0001
0010
,
0100
0000
0010
0001
0010
0000
0001
0000
,
1000
0001
0100
0001
,
1000
0000
0010
1000
0010
0000
0100
0000
,
0001
1000
0100
0010
,
0001
0000
0100
0001
0100
0000
0010
0000
,
1000
0001
0100
0001
,
0101
0000
0000
0000
,
0001
0000
0000
1000
0000
0000
0001
0000
;

//---------------dance-single - ----------------
#NOTEDATA:;
#CHARTNAME:X-Scale 12;
#STEPSTYPE:dance-single;
#DESCRIPTION:;
#CHARTSTYLE:;
#DIFFICULTY:Medium;
#METER:8;
#RADARVALUES:0.526824,0.560013,0.285045,0.124707,0.267230,414.000000,382.000000,32.000000,14.000000,0.000000,0.000000,0.000000,0.000000,0.000000,0.526824,0.560013,0.285045,0.124707,0.267230,414.000000,382.000000,32.000000,14.000000,0.000000,0.000000,0.000000,0.000000,0.000000;
#CREDIT:iamthek3n;
#NOTES:
// measure 0
0000
0000
0000
0000
,  // measure 1
0000
0000
0000
0000
,  // measure 2
1001
0100
0001
1000
0001
0010
1000
0001
,  // measure 3
0100
0000
0010
0000
0001
0000
1000
0000
0010
1000
0010
0000
0100
0000
0001
0000
,  // measure 4
1000
0100
0001
0100
1000
0001
0100
0001
,  // measure 5
1000
0000
0000
1000
0001
0000
0100
0000
0001
0000
1000
0001
0100
0000
0100
0000
,  // measure 6
0101
0001
1000
0001
0100
1000
0100
0001
,  // measure 7
1000
0000
0100
0000
0010
0000
0100
0000
1000
0100
1000
0000
0001
0000
0100
0000
,  // measure 8
0001
0000
1000
0000
0010
0000
0001
0000
1000
0000
0100
0000
0001
1000
0001
1000
,  // measure 9
0001
0000
0000
1001
0000
0000
1000
0010
1000
0000
0000
1010
0000
0000
0001
0000
,  // measure 10
1001
0000
0000
0000
0100
0000
0000
0000
0001
0000
0000
1000
0000
0000
0010
0000
,  // measure 11
0000
0100
0010
0001
0010
1000
0001
0000
,  // measure 12
1000
0000
0000
0000
0010
0000
0000
0000
1000
0000
0000
0100
0000
0000
0010
0000
,  // measure 13
0001
1000
0001
0000
1000
0000
1010
0000
,  // measure 14
0010
0000
0000
0000
1000
0000
0000
0000
0001
0000
0000
0010
0000
0000
0100
0000
,  // measure 15
0000
0100
1000
0000
0010
0000
0001
0000
1000
0000
0100
0000
0001
0000
0000
0000
,  // measure 16
1000
0000
0000
0000
0010
0000
0000
0000
0100
0000
0000
0001
0000
0000
1000
0000
,  // measure 17
0010
0100
0010
0000
1000
0000
0001
0000
,  // measure 18
1001
0000
0000
0000
0000
0000
0000
0000
1100
0000
0000
0110
0000
0000
0101
0000
,  // measure 19
0000
0000
0000
0000
0000
0000
0000
0000
0011
0000
0000
0110
0000
0000
1001
0000
,  // measure 20
0000
1000
0001
0000
1000
0000
0010
0000
1000
0000
0000
0001
0000
0000
0010
0100
,  // measure 21
1000
0000
0001
1000
0010
0000
1000
0000
1010
0000
0000
0000
0001
0000
0000
0000
,  // measure 22
1001
0000
0000
0000
1000
0000
0000
0000
0010
0000
0000
1000
0001
0000
1000
0000
,  // measure 23
0100
0000
0001
0000
0100
0000
0010
0000
0001
0000
0000
1000
0002
0000
0200
0000
,  // measure 24
0303
0000
0001
0000
0100
0000
0010
0100
0000
0001
0000
1000
0100
0000
1000
0000
,  // measure 25
1100
0000
0000
0110
0000
0000
0101
0000
0000
0011
0000
0000
1001
0000
0000
0000
,  // measure 26
1000
1000
0001
0000
0100
0000
0001
0000
,  // measure 27
1000
1000
0001
0000
0010
0000
0100
0000
,  // measure 28
1000
1000
0001
0000
0100
0000
0001
0000
,  // measure 29
2000
3200
0302
0023
,  // measure 30
1030
0010
0100
0001
0010
0100
1000
0001
,  // measure 31
0100
0000
0000
0001
0000
0000
1000
0000
0000
0100
0000
0000
0010
0000
0000
0000
,  // measure 32
0100
1000
0001
0100
0010
0100
0001
1000
,  // measure 33
0100
0000
0000
0000
1000
0001
0200
0000
,  // measure 34
0301
0000
0000
0000
0100
0000
0000
0000
0001
0000
0000
1000
0000
0000
1001
0000
,  // measure 35
0000
0000
0101
0000
0000
0110
0000
0000
1001
0000
0000
0000
0001
0000
2000
0000
,  // measure 36
0000
3010
2000
0000
3001
0000
1000
0200
,  // measure 37
0000
0310
0001
1000
0001
0000
1001
0000
,  // measure 38
2000
0000
0000
0000
0010
0000
0000
0000
3001
0000
1000
0000
0010
1000
0010
0000
,  // measure 39
1000
0000
0001
0000
0010
0000
1000
0000
0010
0000
0001
1000
0001
0000
0100
0000
,  // measure 40
0010
0000
0000
0000
0100
0000
0000
0000
0001
0000
0000
0001
1000
0000
0010
0000
,  // measure 41
0010
0100
0010
0000
1000
0000
0001
1000
0001
0000
0100
0010
0100
0000
0001
0000
,  // measure 42
1001
1000
1100
0000
0100
0000
0010
0001
,  // measure 43
1000
0000
0001
0010
0100
0000
1000
0001
,  // measure 44
0100
0000
0000
0000
0001
0000
0000
0000
1000
0000
0000
0001
0100
0000
0001
0000
,  // measure 45
0010
0100
0000
0000
0100
0000
0010
0000
0001
0000
1000
0000
0001
0000
0100
0000
,  // measure 46
0020
0000
0000
0000
0001
0000
0000
0000
1030
0000
0010
0000
0100
0000
0001
0010
,  // measure 47
0100
0000
0010
0000
0001
0000
1000
0000
0001
0000
0000
0001
0100
0000
0010
0000
,  // measure 48
1000
0000
0000
1000
0010
0000
0100
0000
0001
0100
0000
0000
0001
0000
1000
0000
,  // measure 49
2020
3030
0000
0000
,  // measure 50
1001
0000
0000
0000
0100
0000
0001
0000
1000
0000
0000
0100
0000
0000
0001
0000
,  // measure 51
0001
0100
0000
0000
1000
0000
0001
0000
0100
0000
0010
0100
0001
0000
1000
0000
,  // measure 52
0001
0000
0000
0000
0100
0000
0001
0000
1000
0000
0000
1000
0010
0000
1000
0000
,  // measure 53
0001
0010
0000
0000
0001
0000
1000
0000
0100
0000
0100
0010
0001
0000
1000
0000
,  // measure 54
0001
0000
0000
0000
0100
0000
0001
0000
1000
0000
0000
0100
1000
0000
0001
0000
,  // measure 55
0100
0001
0000
0000
1000
0000
0010
0000
0100
0010
0100
0000
0001
0000
0010
0000
,  // measure 56
0001
0000
0000
0001
1000
0000
0010
0000
0100
0000
0000
0100
0001
0000
1000
0000
,  // measure 57
0001
0100
0000
0000
1000
0000
0100
0000
0001
0100
0001
0000
1000
0000
0100
0000
,  // measure 58
1100
0000
0000
0000
0000
0000
0000
0000
0000
0000
0000
0000
1000
0100
0010
0001
,  // measure 59
1000
0000
0000
1000
0000
0000
0001
0000
0000
0001
0000
0000
1001
0000
1001
0000
;

//---------------dance-single - ----------------
#NOTEDATA:;
#CHARTNAME:X-Scale 15;
#STEPSTYPE:dance-single;
#DESCRIPTION:;
#CHARTSTYLE:;
#DIFFICULTY:Hard;
#METER:10;
#RADARVALUES:0.664257,0.694797,0.427567,0.276137,0.538913,522.000000,474.000000,48.000000,31.000000,0.000000,0.000000,0.000000,0.000000,0.000000,0.664257,0.694797,0.427567,0.276137,0.538913,522.000000,474.000000,48.000000,31.000000,0.000000,0.000000,0.000000,0.000000,0.000000;
#CREDIT:iamthek3n;
#NOTES:
// measure 0
0000
0000
0000
0000
,  // measure 1
0000
0000
0000
0000
,  // measure 2
1001
0000
0001
0000
0100
0000
0001
0000
1000
0100
0010
0000
0001
0000
0010
0000
,  // measure 3
1000
0000
0010
0000
0001
0100
0010
1000
0001
0000
0100
0000
0010
0000
0001
0000
,  // measure 4
0010
0000
1000
0000
0001
0010
0100
0000
1000
0000
0001
0000
1000
0001
0100
0001
,  // measure 5
1000
0000
0010
0100
0000
0001
0000
0010
0001
0010
0001
0010
0100
0010
0100
0010
,  // measure 6
0001
0000
0001
0000
0010
0001
0100
0000
1000
0100
0001
0000
0010
0000
1000
0000
,  // measure 7
0010
0000
0100
0000
1000
0100
0010
0100
1000
0000
0010
0000
0001
0000
0010
0000
,  // measure 8
1000
0000
0001
0000
0010
0100
1000
0000
0001
0000
0100
0000
0010
0100
0001
0100
,  // measure 9
0010
0000
0010
1000
0000
0001
0000
1000
0001
0000
0000
1001
0000
0000
0100
0000
,  // measure 10
0110
0000
1000
0000
1010
0000
0000
0000
1100
0000
0100
1000
0000
0001
0100
0001
,  // measure 11
1000
0000
1000
0000
1100
0000
0000
0000
0101
0000
0001
0100
0002
0000
0000
0000
,  // measure 12
1003
0000
0010
0000
1010
0000
0000
0000
0101
0000
0001
0100
0000
0001
1000
0000
,  // measure 13
2200
3300
0202
0303
0022
0033
2020
3030
,  // measure 14
1001
0000
1000
0000
0100
1000
0001
0000
0001
0000
0000
0001
0100
0000
0001
1000
,  // measure 15
0100
0000
1000
0000
0001
0010
0100
0000
0010
0000
0001
0000
2000
0000
0000
0000
,  // measure 16
3010
0000
1000
0000
0001
0000
0100
0000
0001
0000
0000
0000
0010
0000
0100
0010
,  // measure 17
0001
1000
0010
1000
0001
0000
0010
0100
,  // measure 18
2001
0000
0000
0000
3002
0000
0000
0000
0103
0000
0000
0110
0000
0000
2000
0000
,  // measure 19
3000
0010
1000
0000
0001
0000
0100
0000
0010
0000
0000
1001
0000
0000
0002
0000
,  // measure 20
0003
0010
0100
0000
1000
0000
0100
0000
1100
0000
0000
1000
0000
0100
0010
0001
,  // measure 21
0000
0100
0001
0000
1000
0000
0001
0000
0011
0000
0001
0010
0100
1000
0010
0100
,  // measure 22
0001
0000
1000
0000
0010
0000
1000
0000
0001
0000
0010
0000
0100
0000
0010
0001
,  // measure 23
0000
0001
1000
0000
0010
0000
0001
0000
0010
0000
0100
0000
0010
0000
1000
0000
,  // measure 24
0000
0000
0001
0000
1000
0000
0001
0100
0000
0010
0000
0100
0001
0000
1000
0000
,  // measure 25
1001
0000
0000
0101
0000
0000
0011
0000
0000
0110
0000
0000
1001
0000
0000
0000
,  // measure 26
1010
0000
1010
0000
1000
0010
1000
0000
0001
0000
1000
0000
0010
0100
0010
0000
,  // measure 27
0110
0120
0000
2030
0000
3100
0020
0030
,  // measure 28
0011
0000
0011
0000
0010
0001
0010
0000
0001
0000
1000
0000
0001
0100
0001
0000
,  // measure 29
0200
2300
3200
0302
,  // measure 30
1003
0000
0000
0001
0000
1000
0001
0100
0001
0000
0000
0010
0000
0100
0010
0100
,  // measure 31
1000
0000
0000
0001
0000
1000
0010
0100
0001
0000
0000
0010
0000
1000
0010
0100
,  // measure 32
0010
0100
1000
0001
0100
0010
0001
0010
,  // measure 33
1000
0000
0000
0010
0000
0000
1000
0000
0001
0000
1000
0000
0100
0000
0000
0000
,  // measure 34
1200
0000
0000
0000
0001
0000
0000
0000
1300
0000
0000
0100
0000
0000
0110
0000
,  // measure 35
0000
0000
1001
0000
0000
0101
0000
0000
2001
0000
0000
0000
0000
0000
0200
0000
,  // measure 36
3300
0000
0000
0000
1001
0000
0000
0000
0001
0010
0100
1000
0010
0100
0001
1000
,  // measure 37
0100
0001
0100
1000
0010
0100
0010
0000
,  // measure 38
1001
0000
0000
0000
0010
0000
0001
0000
1000
0000
0001
1000
0010
1000
0001
0000
,  // measure 39
0100
0001
0000
0000
0101
0000
0001
1000
0001
0000
0100
0000
0010
0000
0001
0000
,  // measure 40
0010
0000
1000
0001
0100
0000
0001
0000
1000
0100
0000
0100
0001
0000
0100
0000
,  // measure 41
1000
0000
0010
0000
0100
0000
0001
0100
0010
1000
0100
0010
0001
0100
0010
1000
,  // measure 42
0001
0000
1000
0000
1001
0000
0001
0000
0100
0000
1000
0100
0010
0000
0100
0000
,  // measure 43
0001
0000
1000
0000
0001
0000
0100
0000
0010
0000
0001
0010
0100
0000
0001
0000
,  // measure 44
1000
0000
0001
0000
0100
0000
0001
0000
0010
0000
1000
0010
0001
0000
1000
0000
,  // measure 45
0010
0001
0010
1000
0001
0100
0010
0100
,  // measure 46
0002
0000
0000
0000
1000
0000
0000
0000
0103
0000
0000
0100
0001
0000
0010
0000
,  // measure 47
0100
0000
0001
0000
0100
0000
1000
0000
0001
0000
0000
0001
1000
0000
0010
0000
,  // measure 48
1000
0000
0000
1000
0001
0000
0100
0000
0001
1000
0001
0000
0010
0000
0100
0000
,  // measure 49
2200
3300
0000
0000
,  // measure 50
1001
0000
0000
0000
0100
0000
0001
0000
1000
0000
0000
1000
0001
0000
0010
0100
,  // measure 51
0000
0100
1000
0000
0001
0000
1000
0010
0000
0010
0001
0000
0010
0000
1000
0000
,  // measure 52
0001
0000
0000
0001
0100
0000
0001
0000
1000
0000
0000
1000
0001
0000
0100
0010
,  // measure 53
0000
0010
0001
0000
0010
0000
1000
0100
0000
0100
0010
0000
0100
0000
1000
0000
,  // measure 54
0001
0000
0000
0000
0100
0000
0001
0000
1000
0000
0000
1000
0010
0000
0100
0010
,  // measure 55
0000
0010
0001
0000
0010
0000
1000
0001
0000
0001
0100
0000
0001
0000
0010
0000
,  // measure 56
0100
0000
0000
0010
0001
0000
1000
0000
0001
0000
0000
0100
0010
0000
1000
0010
,  // measure 57
0000
0010
0001
0000
0010
0000
1000
0001
0000
0001
0100
0000
0010
0000
0100
0000
,  // measure 58
2002
0000
0000
0000
0000
0000
0000
0000
3003
0000
0000
0000
0100
0010
1000
0001
,  // measure 59
1001
0000
0000
1100
0000
0000
0110
0000
0000
0101
0000
0000
1001
0000
2002
0000
,  // measure 60
3003
0000
0000
0000
;

//---------------dance-single - ----------------
#NOTEDATA:;
#CHARTNAME:X-Scale 14 (DANCERUSH Special);
#STEPSTYPE:dance-single;
#DESCRIPTION:;
#CHARTSTYLE:;
#DIFFICULTY:Challenge;
#METER:9;
#RADARVALUES:0.403389,0.453344,0.347399,0.302860,0.106892,317.000000,278.000000,39.000000,34.000000,112.000000,0.000000,0.000000,10.000000,0.000000,0.403389,0.453344,0.347399,0.302860,0.106892,317.000000,278.000000,39.000000,34.000000,112.000000,0.000000,0.000000,10.000000,0.000000;
#CREDIT:k3n -SUBARU-;
#NOTES:
// measure 0
0000
0000
0000
0000
,  // measure 1
0000
0000
0000
0000
,  // measure 2
0001
MMMM
0001
MMMM
0001
0000
0100
0010
,  // measure 3
1000
MMMM
1000
MMMM
1000
0010
0001
0010
,  // measure 4
1000
MMMM
1000
MMMM
1000
0000
0200
0000
,  // measure 5
0301
0000
0100
0010
0001
0000
1000
0000
,  // measure 6
0001
MMMM
0001
MMMM
0001
0000
0010
0100
,  // measure 7
1000
MMMM
1000
MMMM
1000
0010
0001
0010
,  // measure 8
1000
MMMM
1000
MMMM
1000
0000
0002
0000
,  // measure 9
0103
0000
0000
0001
0000
1000
0000
0000
1001
0000
0000
0110
0000
0000
1010
0000
,  // measure 10
1000
0000
0001
0000
1000
0000
0100
0010
,  // measure 11
000M
0010
1000
0000
0001
0010
0100
0000
,  // measure 12
1000
0000
0010
0000
0100
0000
0001
0010
,  // measure 13
0M00
0010
1000
0000
1001
0000
0100
0000
,  // measure 14
0110
0000
0010
0000
0001
0000
0010
0100
,  // measure 15
M000
0100
0001
0000
1000
0100
0010
0000
,  // measure 16
0001
0000
0100
0000
0010
0000
1000
0100
,  // measure 17
00M0
0100
0002
0000
0100
0000
1003
0000
,  // measure 18
1001
0000
0000
0000
0000
0000
0000
0000
1100
0000
0000
0110
0000
0000
0101
0000
,  // measure 19
0000
0000
0000
0000
0000
0000
0000
0000
0110
0000
0000
0101
0000
0000
1001
0000
,  // measure 20
0000
0001
0101
1000
,  // measure 21
1001
0100
2100
3002
,  // measure 22
0103
0000
0000
0000
0010
0000
0000
0000
1000
0000
0000
0100
0000
0000
0010
0000
,  // measure 23
0000
0000
0001
0000
0100
0000
0001
0000
1000
0000
0000
0001
0000
0000
0100
0000
,  // measure 24
0000
0000
0000
0000
,  // measure 25
0011
0000
0000
0110
0000
0000
1001
0000
0000
1010
0000
0000
1100
0000
0000
0000
,  // measure 26
0100
0100
1000
0000
0001
0000
1000
0000
,  // measure 27
0010
0010
0100
0002
0000
0013
0200
0000
,  // measure 28
1300
1000
0001
0000
0100
0000
0010
0000
,  // measure 29
2000
3200
0302
0203
,  // measure 30
1300
0000
0100
0010
0001
0000
1000
0000
,  // measure 31
0001
0000
0100
0001
1000
0000
0010
0000
,  // measure 32
0100
0010
1000
0001
0010
0100
2000
0002
,  // measure 33
0000
0000
0000
0000
0000
3003
L00L
0000
,  // measure 34
0220
0000
0000
0000
0330
0LL0
0000
1001
,  // measure 35
0000
0000
1100
0000
0000
0101
0000
0000
0220
0000
0000
0000
0000
0000
0330
0000
,  // measure 36
0LL0
0000
0001
MMMM
0001
MMMM
0001
0200
,  // measure 37
0000
1300
0100
0010
0200
0000
0302
0000
,  // measure 38
1003
MMMM
1000
MMMM
1000
0010
0100
0002
,  // measure 39
0000
2003
0000
3020
0000
0130
0010
0001
,  // measure 40
0020
1000
0100
1000
,  // measure 41
0130
0000
0010
0000
1000
0000
0100
0010
,  // measure 42
0001
MMMM
0001
MMMM
0001
0100
0010
0000
,  // measure 43
1000
MMMM
1000
MMMM
1000
0001
0100
0000
,  // measure 44
0001
MMMM
0001
MMMM
0002
0000
0013
0200
,  // measure 45
0010
0000
1300
0100
0001
0100
0010
0001
,  // measure 46
0200
0000
1000
0000
0301
0000
1000
MMMM
,  // measure 47
1000
MMMM
1000
MMMM
1000
MMMM
1000
0001
,  // measure 48
0020
0000
0100
0000
0031
0000
1000
0001
,  // measure 49
2002
0000
3003
0000
0220
0000
0000
0330
,  // measure 50
0LL0
0000
0000
0000
1000
0000
0010
0000
1000
0000
0000
0001
0000
0000
0100
0000
,  // measure 51
00M0
0100
0000
0000
1000
0000
0000
0001
0000
0000
0100
0000
0010
0000
0100
0000
,  // measure 52
0001
0000
0000
0000
0010
0000
0100
0000
1000
0000
0000
0001
0000
0000
0100
0000
,  // measure 53
00M0
0100
0000
0000
1000
0000
0000
0010
0000
0000
0010
0000
0001
0000
0010
0000
,  // measure 54
1000
0000
0000
0000
0100
0000
0010
0000
0001
0000
0000
1000
0000
0000
0010
0000
,  // measure 55
0M00
0010
0000
0000
0001
0000
0000
0100
0000
0000
0001
0000
1000
0000
0001
0000
,  // measure 56
0010
0000
0000
0000
0100
0000
0010
0000
0001
0000
0000
1000
0000
0000
0100
0000
,  // measure 57
00M0
0100
0000
0000
0001
0000
0000
1000
0000
0000
0010
0000
0100
0000
0001
0000
,  // measure 58
0202
0000
0000
0000
0000
0303
0L0L
0000
,  // measure 59
1010
0000
0000
0110
0000
0000
1001
0000
0000
0011
0000
0000
1010
0000
1010
0000
;

//---------------dance-single - ----------------
#NOTEDATA:;
#CHARTNAME:X-Scale 3;
#STEPSTYPE:dance-single;
#DESCRIPTION:;
#CHARTSTYLE:;
#DIFFICULTY:Beginner;
#METER:2;
#RADARVALUES:0.128525,0.159670,0.008908,0.000000,0.000000,101.000000,100.000000,1.000000,0.000000,0.000000,0.000000,0.000000,0.000000,0.000000,0.128525,0.159670,0.008908,0.000000,0.000000,101.000000,100.000000,1.000000,0.000000,0.000000,0.000000,0.000000,0.000000,0.000000;
#CREDIT:iamthek3n;
#NOTES:
0000
0000
0000
0000
,
0000
0000
0000
0000
,
0001
0000
0100
0000
,
0001
0000
1000
0000
,
0001
0000
0100
0000
,
0001
0000
0000
0000
,
1000
0000
0100
0000
,
0010
0000
0100
0000
,
1000
0000
0100
0000
,
0010
0000
0000
0000
,
0001
0000
0100
0000
,
0001
0000
0010
0000
,
0100
0000
1000
0000
,
0001
0000
1000
0000
,
0010
0000
1000
0000
,
0100
0000
0010
0000
,
0001
0000
1000
0000
,
0010
0000
1000
0000
,
0001
0000
0000
0000
0000
0000
0000
0100
,
0000
0000
0000
0000
0000
0000
0000
0010
,
0000
0000
0000
0000
,
1000
0000
0000
0000
,
0001
0000
0010
0000
,
0100
0000
1000
0000
,
0000
0000
0000
0000
,
0001
0000
0000
0100
0000
0000
0001
0000
,
0000
1000
0000
0100
,
0000
1000
0000
0001
,
0000
1000
0000
0010
,
0000
0000
0000
0000
,
1000
0000
0000
0000
,
0100
0000
0000
0000
,
0010
0000
0000
0000
,
0001
0000
0000
0000
,
1000
0000
0000
0000
0000
0000
0000
0001
,
0000
0000
0100
0000
,
0000
1001
0000
1000
,
0000
0010
0000
1000
,
0000
0001
0000
0010
,
0000
0100
0000
0010
,
0000
0001
0000
1000
,
0000
0001
0000
0100
,
0000
0001
0000
1000
,
0000
0010
0000
0100
,
0000
0010
0000
1000
,
0000
0001
0000
0100
,
0000
0010
0000
0100
,
0000
0001
0000
1000
,
0000
0010
0000
1000
,
0000
0000
0000
0000
,
0001
0000
0010
0000
,
0100
0000
0010
0000
,
0001
0000
1000
0000
,
0001
0000
0100
0000
,
0001
0000
1000
0000
,
0010
0000
1000
0000
,
0100
0000
0010
0000
,
0001
0000
1000
0000
,
0001
0000
0000
0000
,
0100
0000
0000
0100
0000
0000
0100
0000
;
