#TITLE:Lipgloss feat. cupcakKe;
#SUBTITLE:;
#ARTIST:Charli XCX;
#TITLETRANSLIT:;
#SUBTITLETRANSLIT:;
#ARTISTTRANSLIT:;
#GENRE:Hyperpop;
#CREDIT:;
#BANNER:Lipgloss feat. cupcakKe-bn.png;
#BACKGROUND:Lipgloss feat. cupcakKe-bg.png;
#LYRICSPATH:;
#CDTITLE:cdtitle.png;
#MUSIC:Lipgloss feat. cupcakKe.ogg;
#OFFSET:-0.005000;
#SAMPLESTART:16.004999;
#SAMPLELENGTH:16.000000;
#SELECTABLE:YES;
#BPMS:0.000000=120.000000
;
#STOPS:
;
#BGCHANGES:;
#KEYSOUNDS:;
#ATTACKS:;

//---------------dance-single - ----------------
#NOTES:
     dance-single:
     X-Scale 14:
     Hard:
     9:
     0.608240,0.621257,0.223652,0.439022,0.679241,514.000000,487.000000,27.000000,53.000000,0.000000,0.000000,0.608240,0.621257,0.223652,0.439022,0.679241,514.000000,487.000000,27.000000,53.000000,0.000000,0.000000:
// measure 0
0000
0000
0000
0000
,  // measure 1
0000
0000
0000
0000
,  // measure 2
0000
0000
0000
0000
,  // measure 3
0000
0000
0000
0000
,  // measure 4
1000
0000
0000
1000
0000
0000
0100
0000
0010
0000
0000
0010
0000
0000
0001
0000
,  // measure 5
0100
0000
0000
0100
0000
0000
0010
0000
1000
0000
0000
1000
0000
0000
0001
0000
,  // measure 6
0100
0000
0100
0000
0100
0000
0100
0010
1000
0001
0010
0100
0010
0001
1000
0100
,  // measure 7
0020
0000
0000
0032
0000
0000
0023
0000
0000
0000
0130
0000
1000
0000
0000
0000
,  // measure 8
1100
0000
0000
1000
0001
0000
0100
0000
0001
0000
0000
0010
0100
0000
1000
0000
,  // measure 9
0001
0000
0000
0100
0010
0000
1000
0000
2020
0000
3030
0000
0022
0000
0033
0000
,  // measure 10
0001
0000
0000
0100
0010
0000
1000
0000
0100
0000
0000
0010
0100
0000
1000
0000
,  // measure 11
0001
0000
0000
0010
0001
0000
0100
0000
0220
0000
0330
0000
2002
0000
3003
0000
,  // measure 12
1000
0010
0000
0010
0100
0000
0001
0000
0100
0010
0000
0100
0001
0000
0010
0000
,  // measure 13
0100
1000
0000
1000
0010
0000
1000
0000
2020
0000
3030
0000
0022
0000
0033
0000
,  // measure 14
0001
0010
0000
0100
1000
0000
0010
0000
0001
0010
0000
0010
1000
0000
0100
0000
,  // measure 15
0001
0100
0000
0100
1000
0000
0001
0000
0100
0000
0010
0100
0000
0001
1000
0000
,  // measure 16
1010
0000
0000
1000
0001
0000
0100
0000
0010
0000
0000
0100
0001
0000
1000
0000
,  // measure 17
0010
0000
0000
1000
0100
0000
0010
0000
0022
0000
0033
0000
2002
0000
3003
0000
,  // measure 18
1000
0000
0000
0010
0100
0000
0001
0000
0010
0000
0000
0100
0010
0000
0001
0000
,  // measure 19
1000
0000
0000
0010
1000
0000
0001
0000
2002
0000
3003
0000
2200
0000
3300
0000
,  // measure 20
0100
0010
0000
0010
0001
0000
1000
0000
0010
0100
0000
0001
0010
0000
0100
0000
,  // measure 21
1000
0010
0000
0100
0001
0000
1000
0000
2002
0000
3003
0000
0202
0000
0303
0000
,  // measure 22
1000
0001
0000
0001
0100
0000
0010
0000
0001
0010
0000
0010
1000
0000
0001
0000
,  // measure 23
1000
0100
0000
0100
0010
0000
0001
0000
1000
0000
0010
1000
0000
0001
1000
0000
,  // measure 24
1001
0001
0100
0010
1000
0100
0001
0100
,  // measure 25
1000
0100
0010
0000
0010
0000
0001
0000
1000
0010
0100
0000
0002
0000
0000
0000
,  // measure 26
0013
0100
0010
0000
0110
0000
0000
0000
1001
0000
0001
0100
0000
0001
1000
0000
,  // measure 27
0100
0000
1000
0000
1000
0000
0001
0000
0010
0100
1000
0000
2000
0000
0000
0000
,  // measure 28
3010
0000
0100
0000
1000
0000
0001
0000
0010
0000
0100
0000
0001
0000
0100
0001
,  // measure 29
1000
0000
0001
0000
0001
0000
1000
0000
0010
0100
0001
0000
0100
0000
0010
0000
,  // measure 30
1000
0100
0010
0000
0100
0000
0040
0000
0031
0100
0000
0001
0000
0000
0040
0000
,  // measure 31
0031
1000
0010
0000
0100
0000
1000
0100
0010
0100
0001
0000
0001
0000
0400
0000
,  // measure 32
0301
1000
0010
0100
0001
0000
0040
0000
0130
1000
0001
0100
0001
0000
0100
0000
,  // measure 33
0001
0010
0100
0000
1000
0000
0400
0000
0301
0000
0100
0000
0010
0000
0100
0000
,  // measure 34
1000
0010
0100
0001
0010
0100
1000
0010
,  // measure 35
1010
0000
0000
1000
0001
0000
1000
0000
1001
0000
1000
0000
0010
0000
0100
0000
,  // measure 36
0001
1000
0100
1000
0001
0010
0100
1000
0200
0000
0300
0000
0200
0000
0310
0000
,  // measure 37
0001
0100
1000
0100
0001
0010
0100
1000
0020
0000
0030
0000
0020
0000
1030
0000
,  // measure 38
0001
0100
0010
1000
0000
1000
0100
0010
0001
0000
0000
0101
0000
0000
4000
0000
,  // measure 39
3001
0000
0000
0100
0000
0000
0010
0000
0000
1000
0000
0000
0000
0000
0000
0100
0000
0000
0010
0000
0000
0001
0000
0000
1000
0000
0000
0000
0000
0000
0001
0000
0000
0000
0000
0000
0100
0000
0000
0000
0100
0000
0000
0000
0100
0000
0000
0000
,  // measure 40
0010
0100
0010
0000
0100
0001
0000
1000
0000
0100
0001
0000
0100
0010
0000
0100
,  // measure 41
0000
1000
0001
0000
0100
0001
0000
1000
0000
0010
1000
0000
0100
0010
0000
0001
,  // measure 42
0000
1000
0100
0000
1000
0001
0000
0010
0000
0001
1000
0000
0010
1000
0000
0001
,  // measure 43
0000
0100
1000
0000
0100
0001
0000
1000
0000
0100
0001
0000
0100
1000
0000
0100
,  // measure 44
0000
1000
0010
0000
0100
0001
0000
1000
0000
0001
0010
0000
0100
1000
0000
0001
,  // measure 45
0000
0010
1000
0000
0010
0001
0000
1000
0000
0001
0100
0000
0010
1000
0000
0001
,  // measure 46
0000
1000
0100
0000
1000
0010
0000
0100
0000
1000
0100
0000
0001
0010
0000
0001
,  // measure 47
0000
1000
0100
0000
0010
0001
0000
0010
0000
0100
0010
0000
0020
0000
0000
0000
,  // measure 48
0031
0000
1000
0001
1000
0000
0100
0000
1000
0000
0010
0100
0010
0000
1000
0100
,  // measure 49
0010
0001
0100
0010
1000
0100
1000
0000
2200
0000
3300
0000
0202
0000
0303
0000
,  // measure 50
0001
0000
1000
0010
1000
0000
0001
0000
0010
0000
0100
0010
0100
0000
1000
0010
,  // measure 51
0100
0001
0010
1000
0010
0001
1000
0000
2002
0000
3003
0000
2020
0000
3030
0000
,  // measure 52
0010
0000
1000
0001
1000
0000
0010
0000
0100
0000
0001
0100
0001
0000
1000
0100
,  // measure 53
0010
0001
0010
0100
0010
0001
0010
0000
0022
0000
0033
0000
2002
0000
3003
0000
,  // measure 54
0001
0000
1000
0100
0001
0000
0100
0000
1000
0100
0010
0100
1000
0000
0100
0000
,  // measure 55
1000
0000
0010
1000
0001
0000
0100
0000
0001
0000
1000
0001
0000
0100
0010
0000
,  // measure 56
0220
0330
0000
2000
,  // measure 57
0000
0000
0000
0000
3000
0000
0001
0000
0200
0000
0000
0320
0000
0000
0031
0010
,  // measure 58
1000
0000
0000
0001
0000
0000
1000
0000
0100
0000
0000
0001
0000
0000
0020
0000
,  // measure 59
0000
2000
0000
0000
0000
0000
0000
0000
0000
0000
0000
0000
0000
0000
0000
0000
,  // measure 60
3030
0000
0000
0000
;

//---------------dance-single - somewhat a DANCERUSH Special----------------
#NOTES:
     dance-single:
     X-Scale 13:
     Challenge:
     9:
     0.427188,0.521856,0.372754,0.339620,0.240219,361.000000,316.000000,45.000000,41.000000,170.000000,0.000000,0.427188,0.521856,0.372754,0.339620,0.240219,361.000000,316.000000,45.000000,41.000000,170.000000,0.000000:
// measure 0
0000
0000
0000
0000
,  // measure 1
0000
0000
0000
0000
,  // measure 2
0000
0000
0000
0000
,  // measure 3
0000
0000
0000
0000
,  // measure 4
0001
0000
1000
0100
0001
0000
0001
0100
,  // measure 5
1000
0000
0001
0100
1000
0000
1000
0100
,  // measure 6
0001
0000
0001
0000
1000
0000
0000
1000
0100
0010
0001
0100
0010
1000
0001
0010
,  // measure 7
0200
0000
0300
0L20
0000
0030
00L2
0000
0000
0000
1003
0000
0010
0000
0000
0000
,  // measure 8
1001
0000
0000
0001
0000
0000
1000
0000
1100
0000
0000
0100
0000
0000
0010
0000
,  // measure 9
0011
0000
0000
0100
0000
0000
0001
0000
0101
0000
0000
0000
0110
0000
0000
0000
,  // measure 10
1001
0000
0000
0010
0000
0000
1000
0000
1010
0000
0000
1000
0000
0000
0100
0000
,  // measure 11
1100
0000
0000
1000
0000
0000
0001
0000
1001
0000
0000
0000
0101
0000
0000
0000
,  // measure 12
1010
0000
0000
1000
0000
0000
0001
0000
0011
0000
0000
0010
0000
0000
0100
0000
,  // measure 13
1100
0000
0000
0001
0000
0000
1000
0000
1001
0000
0000
0000
0110
0000
0000
0000
,  // measure 14
0011
0000
0000
0001
0000
0000
1000
0000
1010
0000
0000
0001
0000
0000
1000
0000
,  // measure 15
1001
0000
0000
0100
0000
0000
0001
0000
1000
0000
0000
0010
0000
0000
0010
0000
,  // measure 16
1000
0000
MMMM
0000
1000
0000
MMMM
0000
1000
0000
0000
0100
0000
0000
0010
0000
,  // measure 17
0001
0000
MMMM
0000
1000
0000
MMMM
0000
0001
0000
0000
0100
0000
0000
0010
0000
,  // measure 18
1000
0000
MMMM
0000
1000
0000
MMMM
0000
1000
0000
0000
0001
0000
0000
0100
0000
,  // measure 19
0001
0000
MMMM
0000
1000
0000
MMMM
0000
0001
0000
0000
1000
0000
0000
0010
0000
,  // measure 20
1000
0000
MMMM
0000
1000
0000
MMMM
0000
1000
0000
0000
0100
0000
0000
1000
0000
,  // measure 21
0001
0000
MMMM
0000
1000
0000
MMMM
0000
0001
0000
0000
0100
0000
0000
0001
0000
,  // measure 22
1000
0000
MMMM
0000
1000
0000
MMMM
0000
1000
0000
0000
0100
0000
0000
0010
0000
,  // measure 23
0001
0000
MMMM
0000
1000
0000
MMMM
0000
0001
0000
0000
0010
0000
0000
0100
0000
,  // measure 24
2200
0000
0000
3300
LL00
0000
0001
0100
,  // measure 25
1000
0100
0001
0000
1001
0000
2000
0000
,  // measure 26
3100
0010
0001
0000
0022
0000
0033
0000
00LL
0000
0000
0000
0001
0000
0010
0000
,  // measure 27
1000
0000
0010
0000
0001
0000
0000
0000
1000
0001
0100
0000
0002
0000
1000
0000
,  // measure 28
1003
0100
0001
0100
1000
0000
0001
1000
,  // measure 29
0100
1000
0001
0000
0101
0000
2000
0001
,  // measure 30
3001
0100
0010
0000
1000
0000
1000
0000
2002
0000
0000
0000
3003
0000
MMMM
0000
,  // measure 31
0100
0001
0010
0100
1100
1000
0001
0010
,  // measure 32
0100
0000
1000
0100
0010
0000
0001
0000
1000
0000
0010
0100
0001
0000
1000
0000
,  // measure 33
0001
0000
0000
0101
0000
0000
1000
0000
1000
0000
0000
1100
0000
0000
0100
0000
,  // measure 34
0100
0000
0010
0100
1000
0000
0001
0000
0010
0000
1000
0010
0001
0000
1000
0000
,  // measure 35
0100
0000
0000
0011
0000
0000
0001
0000
1001
0000
0000
0000
0100
0000
1000
0000
,  // measure 36
0001
MMMM
1000
MMMM
0001
0000
0110
0000
,  // measure 37
1000
MMMM
0001
MMMM
1000
0000
0110
0000
,  // measure 38
0001
0000
MMMM
0000
1000
0000
MMMM
0000
0001
0000
0000
0010
0000
0000
1000
0000
,  // measure 39
0001
0000
0000
0000
0000
0000
0000
0000
0000
0100
0000
0000
0000
0000
0000
0000
0000
0000
1000
0000
0000
0000
0000
0000
0001
0000
0000
0000
0000
0000
0000
0000
0000
0100
0000
0000
0001
0000
0000
0000
1000
0000
0000
0000
0100
0000
0000
0000
,  // measure 40
2000
0000
3000
0001
0100
1000
0100
0001
,  // measure 41
1000
0000
0100
1000
0000
0010
2000
0000
0002
0000
3003
0000
L00L
0000
0000
0000
,  // measure 42
0000
0000
0000
0010
1000
0100
0001
0100
,  // measure 43
1000
0000
0010
1000
0000
0001
0200
0000
0020
0000
0330
0000
0LL0
0000
0000
0000
,  // measure 44
0000
0000
0000
1000
0001
0100
0010
1000
,  // measure 45
0100
0000
0010
0001
0000
1000
0200
0000
0020
0000
0330
0000
0LL0
0000
0000
0000
,  // measure 46
0000
0000
0000
1000
0010
0001
1000
0100
,  // measure 47
0001
0000
0010
0100
0000
0010
0002
0000
2000
0000
3003
0000
L00L
0000
0000
0000
,  // measure 48
1000
MMMM
1000
MMMM
1000
MMMM
1000
MMMM
,  // measure 49
1000
0001
0100
0010
0220
0330
2002
3003
,  // measure 50
0001
MMMM
0001
MMMM
0001
MMMM
0001
MMMM
,  // measure 51
0001
1000
0100
0010
0022
0033
2020
3030
,  // measure 52
1000
MMMM
1000
MMMM
1000
MMMM
1000
MMMM
,  // measure 53
1000
0001
0010
0100
2200
3300
0202
0303
,  // measure 54
0001
MMMM
0001
MMMM
0001
MMMM
0001
MMMM
,  // measure 55
0001
0000
0010
0000
0M00
1000
0000
0100
0000
0000
1000
0000
0000
0001
0000
0000
,  // measure 56
0202
0303
0000
MMMM
,  // measure 57
0000
0000
0000
0000
0000
0000
0001
0000
0020
0000
0000
2030
0000
0000
3M00
0M00
,  // measure 58
0M00
0000
0000
M000
0000
0000
0M01
0000
0020
0000
0000
2030
0000
0000
3020
0000
,  // measure 59
0000
0032
0000
0000
0003
0000
0000
0000
0000
0000
0000
0000
0000
0000
0000
0000
,  // measure 60
MMMM
0000
0000
0000
;

//---------------dance-single - ----------------
#NOTES:
     dance-single:
     X-Scale 9:
     Medium:
     6:
     0.365654,0.472155,0.049701,0.314770,0.086976,309.000000,303.000000,6.000000,38.000000,0.000000,0.000000,0.365654,0.472155,0.049701,0.314770,0.086976,309.000000,303.000000,6.000000,38.000000,0.000000,0.000000:
// measure 0
0000
0000
0000
0000
,  // measure 1
0000
0000
0000
0000
,  // measure 2
0000
0000
0000
0000
,  // measure 3
0000
0000
0000
0000
,  // measure 4
1000
0100
0010
0100
,  // measure 5
1000
0001
0100
0001
,  // measure 6
1000
0010
1000
0000
0001
0000
0100
0010
,  // measure 7
0100
0000
0001
0000
1000
0100
1000
0000
,  // measure 8
1100
0000
2000
0000
3002
0003
0100
0001
,  // measure 9
1000
0000
0010
1000
0002
0000
0203
0000
,  // measure 10
0310
0000
2000
0000
3200
0300
0010
0100
,  // measure 11
1000
0000
0001
0010
0200
0000
0320
0000
,  // measure 12
0031
0000
2000
0000
3002
0003
0100
0001
,  // measure 13
1000
0000
0010
0100
0002
0000
2003
0000
,  // measure 14
3100
0000
1000
0001
0100
0000
0010
0000
,  // measure 15
1000
0000
0100
0010
0001
0000
1000
0000
,  // measure 16
0001
0000
0001
0010
0100
0000
1000
0001
,  // measure 17
0100
0000
0010
1000
0002
0000
2003
0000
,  // measure 18
3100
0000
0100
0010
0001
0000
1000
0001
,  // measure 19
0100
0000
1000
0100
0002
0000
2003
0000
,  // measure 20
3010
0000
0010
1000
0100
0000
0010
0001
,  // measure 21
1000
0000
0010
0100
0002
0000
0023
0000
,  // measure 22
0130
0000
0100
1000
0001
0000
0100
0001
,  // measure 23
1000
0000
0100
0010
0001
0000
1000
0000
,  // measure 24
1001
0000
1000
0000
0010
0000
1000
0001
,  // measure 25
0100
0001
0002
0000
0010
0000
0103
0000
,  // measure 26
0001
0100
0001
0000
2000
0000
0000
0000
0010
0000
0000
0000
3001
0000
1000
0000
,  // measure 27
0100
0010
0020
0000
0100
0000
0031
0000
,  // measure 28
0010
0100
1000
0000
0001
0000
1000
0010
,  // measure 29
1000
0100
0200
0000
0001
0000
1300
0000
,  // measure 30
0010
1000
0010
0000
0100
0000
0001
0000
2000
0000
0000
0000
0100
0000
0000
0000
,  // measure 31
3001
0000
0100
0000
0100
0000
0010
0000
1000
0100
1000
0000
0001
0000
0000
0000
,  // measure 32
0101
0000
0100
0000
0001
0000
1000
0000
0100
0000
0010
0100
0010
0000
0001
0000
,  // measure 33
1000
0000
0000
1000
0000
0000
1000
0000
0100
0000
0000
0100
0000
0000
0100
0000
,  // measure 34
0010
0000
0100
0000
1000
0000
0001
0000
0100
0000
0010
0100
0010
0000
1000
0000
,  // measure 35
0001
0000
0000
0001
0000
0000
0001
0000
0101
0000
0000
0000
1000
0000
0000
0000
,  // measure 36
1010
0000
0000
0010
1000
0000
0001
0000
0100
0000
0000
0010
0100
0000
0001
0000
,  // measure 37
1000
0000
0000
0100
1000
0000
0001
0000
0010
0000
0000
0100
0010
0000
0001
0000
,  // measure 38
1000
0000
0000
0100
0010
0000
0001
0000
1000
0000
0000
0010
0100
0000
0001
0000
,  // measure 39
1000
0000
0000
0000
0000
0000
0000
0000
0000
0100
0000
0000
1000
0000
0000
0000
0000
0000
0001
0000
0000
0000
0000
0000
0100
0000
0000
0000
0000
0000
0000
0000
0000
0000
0000
0000
0001
0000
0000
0000
1000
0000
0000
0000
0001
0000
0000
0000
,  // measure 40
1000
0000
0000
0001
0100
0000
0100
0010
,  // measure 41
1000
0000
0000
1000
0000
0000
0001
0000
0200
0000
0000
0000
0310
0000
0000
0000
,  // measure 42
1000
0000
0000
1000
0100
0000
0100
0010
,  // measure 43
0001
0000
0000
0001
0000
0000
1000
0000
0020
0000
0000
0000
0130
0000
0000
0000
,  // measure 44
0001
0000
0000
0010
0100
0000
0100
1000
,  // measure 45
0001
0000
0000
0001
0000
0000
1000
0000
0200
0000
0000
0000
0310
0000
0000
0000
,  // measure 46
0100
0000
0000
1000
0001
0000
0001
0010
,  // measure 47
0100
0000
0000
0100
0000
0000
1000
0000
0020
0000
0000
0000
0230
0000
0000
0000
,  // measure 48
0301
0000
0001
0100
1000
0001
0010
1000
,  // measure 49
0001
0000
1000
0100
0020
0000
0032
0000
,  // measure 50
1003
0000
0001
0100
1000
0100
0010
0100
,  // measure 51
0001
0000
1000
0100
0020
0000
0032
0000
,  // measure 52
1003
0000
0001
0010
1000
0001
0100
0010
,  // measure 53
0001
0000
1000
0001
0020
0000
0032
0000
,  // measure 54
0013
0000
0100
1000
0010
0001
0010
1000
,  // measure 55
0100
0000
0010
0100
1000
0000
0001
0000
,  // measure 56
2002
0003
0000
0020
,  // measure 57
0000
0000
0000
0030
,  // measure 58
0000
0000
0000
0002
,  // measure 59
0000
0000
0000
0000
,  // measure 60
3003
0000
0000
0000
;

//---------------dance-single - ----------------
#NOTES:
     dance-single:
     X-Scale 5:
     Easy:
     3:
     0.231936,0.287021,0.049701,0.049701,0.000000,196.000000,190.000000,6.000000,6.000000,0.000000,0.000000,0.231936,0.287021,0.049701,0.049701,0.000000,196.000000,190.000000,6.000000,6.000000,0.000000,0.000000:
// measure 0
0000
0000
0000
0000
,  // measure 1
0000
0000
0000
0000
,  // measure 2
0000
0000
0000
0000
,  // measure 3
0000
0000
0000
0000
,  // measure 4
1000
0000
0100
0000
,  // measure 5
0010
0000
0001
0000
,  // measure 6
0100
0000
0010
0000
,  // measure 7
1000
0000
0001
0000
,  // measure 8
1001
1000
0010
1000
,  // measure 9
0001
0010
0100
1000
,  // measure 10
0010
1000
0001
0100
,  // measure 11
0010
1000
0100
0010
,  // measure 12
0001
1000
0010
1000
,  // measure 13
0001
0100
0010
1000
,  // measure 14
0100
0010
0100
1000
,  // measure 15
0001
0010
0100
0010
,  // measure 16
0001
0001
0010
0100
,  // measure 17
1000
0001
0100
0010
,  // measure 18
1000
1000
0100
0010
,  // measure 19
0001
1000
0001
0100
,  // measure 20
0001
0001
1000
0010
,  // measure 21
0100
0001
0010
0100
,  // measure 22
1000
1000
0100
0010
,  // measure 23
0001
1000
0010
1000
,  // measure 24
2010
0000
0000
0000
3001
0000
0000
1000
,  // measure 25
0000
0100
0200
0000
1000
0000
0010
0000
,  // measure 26
1300
0000
0002
0000
0100
0000
0000
1003
,  // measure 27
0000
0010
0020
0000
0100
0000
1000
0000
,  // measure 28
0130
0000
0010
0000
1000
0000
0001
1000
,  // measure 29
0001
0000
0010
0000
0100
1000
0100
0000
,  // measure 30
0010
0000
0001
1000
0001
0000
0100
0000
,  // measure 31
0010
1000
0010
0000
1000
0000
0001
0100
,  // measure 32
0001
1000
0010
1000
,  // measure 33
0001
0000
0010
0100
1000
0000
0100
0010
,  // measure 34
0001
1000
0100
1000
,  // measure 35
0001
0000
0100
0001
1000
0000
0010
0100
,  // measure 36
0001
1000
1001
0000
,  // measure 37
1000
0100
1100
0000
,  // measure 38
0001
0100
0101
0000
,  // measure 39
1000
0010
1010
0000
,  // measure 40
0001
0000
0100
0000
,  // measure 41
0001
0000
0100
0000
,  // measure 42
0010
0000
1000
0000
,  // measure 43
0010
0000
1000
0000
,  // measure 44
0100
0000
0010
0000
,  // measure 45
0100
0000
0010
0000
,  // measure 46
0001
0000
1000
0000
,  // measure 47
0001
0000
1000
0000
,  // measure 48
0100
1000
0001
0100
,  // measure 49
0010
1000
0100
0010
,  // measure 50
0001
1000
0010
1000
,  // measure 51
0001
0010
0100
1000
,  // measure 52
0100
0010
0001
0100
,  // measure 53
0001
1000
0001
0100
,  // measure 54
0001
0010
0100
1000
,  // measure 55
0010
1000
0100
0010
,  // measure 56
0002
0003
0000
2000
,  // measure 57
0000
0000
0000
3000
;

//---------------dance-single - ----------------
#NOTES:
     dance-single:
     X-Scale 1:
     Beginner:
     1:
     0.100584,0.115968,0.000000,0.000000,0.000000,85.000000,85.000000,0.000000,0.000000,0.000000,0.000000,0.100584,0.115968,0.000000,0.000000,0.000000,85.000000,85.000000,0.000000,0.000000,0.000000,0.000000:
// measure 0
0000
0000
0000
0000
,  // measure 1
0000
0000
0000
0000
,  // measure 2
0000
0000
0000
0000
,  // measure 3
0000
0000
0000
0000
,  // measure 4
1000
0000
0000
0000
,  // measure 5
0001
0000
0000
0000
,  // measure 6
1000
0000
0000
0000
,  // measure 7
0001
0000
0000
0000
,  // measure 8
0010
0000
0100
0000
,  // measure 9
1000
0000
0100
0000
,  // measure 10
0010
0000
0001
0000
,  // measure 11
1000
0000
0010
0000
,  // measure 12
1000
0000
0001
0000
,  // measure 13
0100
0000
0010
0000
,  // measure 14
1000
0000
0100
0000
,  // measure 15
0010
0000
0001
0000
,  // measure 16
1000
0000
0001
0000
,  // measure 17
0100
0000
0001
0000
,  // measure 18
1000
0000
0100
0000
,  // measure 19
0010
0000
0001
0000
,  // measure 20
0010
0000
0100
0000
,  // measure 21
1000
0000
0001
0000
,  // measure 22
0100
0000
0010
0000
,  // measure 23
0100
0000
0001
0000
,  // measure 24
1000
0000
0000
0000
,  // measure 25
0001
0000
0000
0000
,  // measure 26
0100
0000
0000
0000
,  // measure 27
0001
0000
0000
0000
,  // measure 28
1000
0000
0000
0000
,  // measure 29
0100
0000
0000
0000
,  // measure 30
0010
0000
0000
0000
,  // measure 31
0100
0000
0000
0000
,  // measure 32
1000
0000
0010
0000
,  // measure 33
1000
0000
0001
0000
,  // measure 34
0100
0000
0001
0000
,  // measure 35
0010
0000
0100
0000
,  // measure 36
0010
0000
0001
0000
,  // measure 37
1000
0000
0010
0000
,  // measure 38
1000
0000
0001
0000
,  // measure 39
0100
0000
0001
0000
,  // measure 40
1000
0000
0000
0000
,  // measure 41
0100
0000
0000
0000
,  // measure 42
0010
0000
0000
0000
,  // measure 43
0001
0000
0000
0000
,  // measure 44
0100
0000
0000
0000
,  // measure 45
0010
0000
0000
0000
,  // measure 46
1000
0000
0000
0000
,  // measure 47
0001
0000
0000
0000
,  // measure 48
1000
0000
0010
0000
,  // measure 49
1000
0000
0001
0000
,  // measure 50
0100
0000
0001
0000
,  // measure 51
0010
0000
0100
0000
,  // measure 52
1000
0000
0010
0000
,  // measure 53
1000
0000
0001
0000
,  // measure 54
0100
0000
0001
0000
,  // measure 55
1000
0000
0100
0000
,  // measure 56
1000
0000
0000
0000
;
