#TITLE:Lionhearted (Arty Remix);
#SUBTITLE:;
#ARTIST:Porter Robinson feat. Urban Cone;
#TITLETRANSLIT:;
#SUBTITLETRANSLIT:;
#ARTISTTRANSLIT:;
#GENRE:Commercial House;
#CREDIT:;
#BANNER:Lionhearted (Arty Remix)-bn.png;
#BACKGROUND:Lionhearted (Arty Remix)-bg.png;
#LYRICSPATH:;
#CDTITLE:cdtitle.png;
#MUSIC:Lionhearted (Arty Remix).ogg;
#OFFSET:-0.122000;
#SAMPLESTART:75.122002;
#SAMPLELENGTH:15.000000;
#SELECTABLE:YES;
#BPMS:0.000000=128.000000
;
#STOPS:
;
#BGCHANGES:;
#KEYSOUNDS:;
#ATTACKS:;

//---------------dance-single - ----------------
#NOTES:
     dance-single:
     X-Scale 11:
     Hard:
     8:
     0.452594,0.544786,0.091831,0.422421,0.179070,345.000000,335.000000,10.000000,46.000000,0.000000,0.000000,0.452594,0.544786,0.091831,0.422421,0.179070,345.000000,335.000000,10.000000,46.000000,0.000000,0.000000:
// measure 0
0000
0000
0000
0000
,  // measure 1
0000
0000
0000
0000
,  // measure 2
0000
0000
0000
0000
,  // measure 3
0000
0000
0000
0000
,  // measure 4
0001
0000
0010
0100
0010
0000
0001
0000
1000
0000
0000
0000
0010
0000
1000
0000
,  // measure 5
0001
0000
0010
0200
0000
0300
0010
0000
0001
0000
1000
0020
0000
0000
0000
0030
,  // measure 6
0100
0000
0001
0000
0010
0000
0100
1000
0000
0001
0000
0000
0100
0000
0010
0100
,  // measure 7
0000
0001
0000
0000
0010
0000
0100
1000
0000
0001
0000
0000
0100
0000
0001
1000
,  // measure 8
0001
0000
0010
0100
0010
0000
0001
0000
1000
0000
0000
0000
0100
0000
0010
0000
,  // measure 9
0001
0000
1000
0002
0000
0003
0010
0000
0100
0000
1000
0002
0000
0000
0000
0003
,  // measure 10
0100
0000
0001
0000
0010
0000
0100
1000
0000
0010
0000
0000
1000
0000
0100
0010
,  // measure 11
0000
0100
0000
0000
1000
0000
0001
0100
0000
0001
0000
0000
0010
0000
0100
0010
,  // measure 12
0000
0001
0010
0001
1000
0000
0010
0000
1000
0000
0000
0000
0100
0000
0010
0000
,  // measure 13
0001
0000
1000
0001
0000
0000
0010
0000
0100
0000
1000
0000
0001
0000
0000
0000
,  // measure 14
0100
0000
0010
0100
0010
0000
1000
0000
0100
0000
0000
0000
0010
0000
0100
0000
,  // measure 15
1000
0000
0001
0200
0000
0300
0010
0000
1000
0000
0100
0020
0000
0000
0000
0030
,  // measure 16
0012
0000
1003
0100
,  // measure 17
1000
0000
0100
0000
0010
0000
0001
0010
0000
0000
0100
0000
0010
0000
0001
0000
,  // measure 18
1000
0000
0010
2000
0000
3002
0000
0000
,  // measure 19
0013
0000
0100
0000
1000
0000
0001
0000
0010
0000
0100
0010
0000
0000
0001
0000
,  // measure 20
1002
0000
0013
0100
,  // measure 21
1000
0100
0001
0100
0010
0001
1000
0010
,  // measure 22
1000
0000
0001
0200
0000
0320
0000
1000
,  // measure 23
2030
0000
0000
0000
3200
0000
0000
0000
0320
0000
0000
0000
0032
0000
0000
0003
,  // measure 24
0201
1000
0301
0010
,  // measure 25
0100
0000
1000
0000
0001
0000
1000
0010
0000
0000
0100
0000
0001
0000
0010
0000
,  // measure 26
0100
0000
1000
0010
0001
0010
1000
0000
,  // measure 27
0001
0000
0100
0000
0010
0000
0100
0000
0001
0000
0010
0100
0000
0000
1000
0000
,  // measure 28
1200
0001
1300
0100
,  // measure 29
0010
0100
1000
0001
0010
1000
0010
0100
,  // measure 30
1000
0000
0001
1000
0100
1000
0001
0010
,  // measure 31
0200
0000
0320
0000
0031
1000
0200
0000
,  // measure 32
0320
0000
0230
2300
,  // measure 33
3002
0100
0010
0100
,  // measure 34
0023
0000
0130
2000
0010
3020
0100
0000
,  // measure 35
2030
0000
3100
0200
0010
0320
0100
0000
,  // measure 36
0032
0010
0100
2003
,  // measure 37
3020
0001
0100
0001
,  // measure 38
2030
0000
3100
0020
0000
0032
0000
0000
,  // measure 39
1003
0000
0010
2000
0000
0002
0000
3003
,  // measure 40
1001
0000
1000
0001
0100
0000
0010
0100
,  // measure 41
0001
0000
0010
0100
1000
0000
0002
0000
,  // measure 42
0013
0000
0100
1000
0001
1000
0100
0000
,  // measure 43
0010
0000
0000
0000
0001
0000
1000
0000
0010
0000
1000
0000
0001
0010
0001
0010
,  // measure 44
0001
0000
0010
0100
1000
0000
0010
1000
,  // measure 45
0001
0000
0100
0001
1000
0000
0200
0000
,  // measure 46
0310
0000
0100
1100
0000
1000
0000
0000
,  // measure 47
1001
0000
0000
0000
0001
0000
0100
0000
0000
0000
0001
0100
0001
1000
0100
0000
,  // measure 48
1100
1000
0100
0001
0100
1000
0100
0010
,  // measure 49
0001
0000
0100
0000
0010
0000
0100
0001
1000
0000
0001
0000
0010
0000
0100
0000
,  // measure 50
1000
0100
0001
0100
1000
0100
0010
0001
,  // measure 51
1000
0000
0010
0000
1000
0000
0001
0000
0100
0000
0010
0100
0010
0000
1000
0000
,  // measure 52
0010
0100
0010
0001
0010
1000
0001
0100
,  // measure 53
0001
1000
0100
0001
0100
0010
0001
1000
,  // measure 54
1010
0000
1000
0010
0000
0000
0100
0001
0000
0000
0010
0100
0000
0000
1000
0000
,  // measure 55
0020
0000
2030
0000
3001
0010
0200
0300
,  // measure 56
0220
0000
0330
0000
;

//---------------dance-single - ----------------
#NOTES:
     dance-single:
     X-Scale 8:
     Medium:
     6:
     0.360764,0.441017,0.055098,0.449971,0.110197,275.000000,269.000000,6.000000,49.000000,0.000000,0.000000,0.360764,0.441017,0.055098,0.449971,0.110197,275.000000,269.000000,6.000000,49.000000,0.000000,0.000000:
// measure 0
0000
0000
0000
0000
,  // measure 1
0000
0000
0000
0000
,  // measure 2
0000
0000
0000
0000
,  // measure 3
0000
0000
0000
0000
,  // measure 4
1000
0000
0000
0000
0100
0000
0000
1000
0000
0100
0000
0000
0010
0000
0000
0001
,  // measure 5
0000
0010
0000
0000
0001
0000
0000
1000
0000
0010
0000
0000
1000
0000
0000
0001
,  // measure 6
0000
0000
0010
0000
0001
0000
0000
1000
0000
0010
0000
0000
1000
0000
0000
0001
,  // measure 7
0000
0010
0000
0000
0100
0000
0000
0010
0000
0001
0000
0000
1000
0000
0000
0000
,  // measure 8
1001
0000
0001
0010
0100
0000
1000
0001
,  // measure 9
0100
0000
0010
0100
0001
0000
0010
0100
,  // measure 10
1000
0000
0000
0000
0010
0000
1000
0001
0000
1000
0000
0000
0100
0000
0010
0001
,  // measure 11
0000
0010
0000
0000
0001
0000
1000
0010
0000
1000
0000
0000
0100
0000
0010
0001
,  // measure 12
0010
0000
0100
0010
0001
0000
1000
0001
,  // measure 13
0100
0000
0010
0100
0001
0010
0200
0000
,  // measure 14
1300
0000
0100
0010
0001
0000
1000
0001
,  // measure 15
0100
0000
0000
0001
2000
0000
0000
0000
,  // measure 16
3200
0000
0320
0032
,  // measure 17
2003
0010
0001
0100
,  // measure 18
3002
0000
0013
0200
0000
0320
0000
0000
,  // measure 19
0032
0000
1003
0200
0000
2300
0000
0000
,  // measure 20
3020
0001
0230
0302
,  // measure 21
0023
1000
0100
0001
,  // measure 22
0230
0000
1300
0002
0000
2003
0000
0001
,  // measure 23
3002
0023
0230
2300
,  // measure 24
3100
1000
0001
1000
,  // measure 25
0100
0000
0010
0000
0001
0000
1000
0010
0000
0000
1000
0000
0001
0000
0010
0000
,  // measure 26
0100
0000
1000
0010
0000
1000
0000
0000
,  // measure 27
0001
0000
0100
0000
1000
0000
0100
0000
0001
0000
1000
0001
0000
0000
1000
0000
,  // measure 28
0100
0010
0001
1000
,  // measure 29
0001
0100
0010
0100
1000
0100
0010
0100
,  // measure 30
0001
0000
0010
0100
0000
1000
0000
0001
,  // measure 31
0200
0000
0302
0000
0013
0100
2000
0000
,  // measure 32
3100
0010
0100
0010
,  // measure 33
0001
1000
0001
1000
,  // measure 34
0020
0000
1030
0200
0000
0320
0000
0000
,  // measure 35
0032
0000
1003
0020
0000
2030
0000
0000
,  // measure 36
3020
0001
0100
2030
,  // measure 37
3002
0100
1000
0010
,  // measure 38
2003
0000
3100
0020
0000
0032
0000
0000
,  // measure 39
0103
0000
0001
1000
0000
0100
0000
0000
,  // measure 40
1100
0000
1000
0000
0001
0000
0010
0100
,  // measure 41
1000
0000
0010
0000
0001
0100
2000
0000
,  // measure 42
3001
0000
0010
0002
0000
2003
0010
0000
,  // measure 43
3001
0000
0010
0200
1000
0000
0310
0000
,  // measure 44
0001
0000
1000
0000
0010
0000
1000
0001
,  // measure 45
0010
0000
1000
0000
0100
0001
2000
0000
,  // measure 46
3010
0000
1000
1001
0000
0001
0000
0000
,  // measure 47
0101
0000
0100
0001
0000
0100
0001
0000
,  // measure 48
1001
1000
0100
1000
,  // measure 49
0001
0000
0010
0000
0100
0000
1000
0100
0000
0000
0010
0000
0100
0000
1000
0000
,  // measure 50
0001
0000
0010
0002
0000
2003
0100
0000
,  // measure 51
3001
0000
0010
0000
1000
0000
0010
0000
0001
0000
0100
0001
0000
0000
1000
0000
,  // measure 52
0001
0010
0100
0010
,  // measure 53
0001
1000
0010
1000
0001
0100
0010
1000
,  // measure 54
1100
0000
0100
0000
1000
0000
0001
0010
,  // measure 55
0200
0000
0320
0000
0031
1000
0020
0000
,  // measure 56
2030
0000
3000
0000
;

//---------------dance-single - ----------------
#NOTES:
     dance-single:
     X-Scale 5:
     Easy:
     3:
     0.233512,0.282839,0.091831,0.183661,0.000000,178.000000,168.000000,10.000000,20.000000,0.000000,0.000000,0.233512,0.282839,0.091831,0.183661,0.000000,178.000000,168.000000,10.000000,20.000000,0.000000,0.000000:
// measure 0
0000
0000
0000
0000
,  // measure 1
0000
0000
0000
0000
,  // measure 2
0000
0000
0000
0000
,  // measure 3
0000
0000
0000
0000
,  // measure 4
0001
0000
1000
0000
,  // measure 5
0001
0000
1000
0000
,  // measure 6
0100
0000
0010
0000
,  // measure 7
0100
0000
0010
0000
,  // measure 8
0001
0010
0100
1000
,  // measure 9
0001
0010
0100
1000
,  // measure 10
0001
0100
0010
1000
,  // measure 11
0001
0100
0010
1000
,  // measure 12
0100
1000
0001
0100
,  // measure 13
0001
1000
0010
0100
,  // measure 14
0010
1000
0100
0010
,  // measure 15
0001
0000
0000
0000
,  // measure 16
0011
0000
0010
0001
,  // measure 17
0010
0000
0000
0000
,  // measure 18
0100
0000
0000
1000
0000
1000
0000
0000
,  // measure 19
0001
0000
0000
1000
0000
1000
0000
0000
,  // measure 20
0100
0000
0010
0100
,  // measure 21
0010
0000
0000
0000
,  // measure 22
0001
0000
0000
1000
0000
1000
0000
0000
,  // measure 23
0010
0000
0000
1000
0000
1000
0000
0000
,  // measure 24
1010
1000
0001
1000
,  // measure 25
0010
1000
0001
1000
,  // measure 26
0010
0000
1000
0001
0000
0001
0000
0000
,  // measure 27
0010
0000
0100
1000
0000
1000
0000
0000
,  // measure 28
0001
0100
0010
1000
,  // measure 29
0100
0010
0100
1000
,  // measure 30
0001
0000
0010
0001
0000
0001
0000
0000
,  // measure 31
1000
0100
0010
0001
,  // measure 32
0021
0000
0230
0320
,  // measure 33
0032
0000
0000
0003
,  // measure 34
2000
0000
3000
0200
0000
2300
0000
0000
,  // measure 35
3002
0000
0003
0200
0000
0320
0000
0000
,  // measure 36
2030
0000
3200
0320
,  // measure 37
0032
0000
0000
0003
,  // measure 38
0020
0000
0030
0200
0000
2300
0000
0000
,  // measure 39
3002
0000
0003
2000
0000
3002
0000
0003
,  // measure 40
1001
1000
0001
0100
,  // measure 41
0010
1000
0100
0010
,  // measure 42
0001
0100
0010
0100
,  // measure 43
0001
0010
0100
1000
,  // measure 44
0001
0010
0001
1000
,  // measure 45
0100
0010
0100
1000
,  // measure 46
1100
0000
0000
1001
0000
0001
0000
0000
,  // measure 47
0101
0000
0000
0001
0000
0000
0000
0000
,  // measure 48
1001
1000
0001
0010
,  // measure 49
0001
1000
0100
0010
,  // measure 50
0100
1000
0001
0100
,  // measure 51
0010
0100
0001
0010
,  // measure 52
0100
1000
0010
1000
,  // measure 53
0100
0010
0001
1000
,  // measure 54
1001
0000
0001
0000
,  // measure 55
0010
0100
0010
0000
,  // measure 56
0110
0000
0000
0000
;

//---------------dance-single - ----------------
#NOTES:
     dance-single:
     X-Scale 2:
     Beginner:
     1:
     0.111509,0.179988,0.036732,0.000000,0.000000,85.000000,81.000000,4.000000,0.000000,0.000000,0.000000,0.111509,0.179988,0.036732,0.000000,0.000000,85.000000,81.000000,4.000000,0.000000,0.000000,0.000000:
// measure 0
0000
0000
0000
0000
,  // measure 1
0000
0000
0000
0000
,  // measure 2
0000
0000
0000
0000
,  // measure 3
0000
0000
0000
0000
,  // measure 4
0001
0000
0000
0000
,  // measure 5
0010
0000
0000
0000
,  // measure 6
0001
0000
0000
0000
,  // measure 7
0000
0000
0000
0000
,  // measure 8
1000
0000
0000
0000
,  // measure 9
0010
0000
0000
0000
,  // measure 10
1000
0000
0000
0000
,  // measure 11
0000
0000
0000
0000
,  // measure 12
0001
0000
0000
0000
,  // measure 13
0100
0000
0000
0000
,  // measure 14
0001
0000
0000
0000
,  // measure 15
0000
0000
0000
0000
,  // measure 16
1001
0000
0000
0000
,  // measure 17
0010
0000
0000
0000
,  // measure 18
1000
0000
0000
0000
,  // measure 19
0100
0000
0000
0000
,  // measure 20
0010
0000
0000
0000
,  // measure 21
0001
0000
0000
0000
,  // measure 22
0100
0000
0000
0000
,  // measure 23
0010
0000
0000
0000
,  // measure 24
1000
0000
0100
0000
,  // measure 25
1000
0000
0100
0000
,  // measure 26
0010
0000
0001
0000
,  // measure 27
0010
0000
0001
0000
,  // measure 28
0100
0000
0010
0000
,  // measure 29
0100
0000
0010
0000
,  // measure 30
1000
0000
0001
0000
,  // measure 31
1000
0000
0001
0000
,  // measure 32
0100
0000
0001
0000
,  // measure 33
1000
0000
0100
0000
,  // measure 34
0010
0000
0001
0000
,  // measure 35
0100
0000
0010
0000
,  // measure 36
1000
0000
0001
0000
,  // measure 37
0010
0000
0001
0000
,  // measure 38
1000
0000
0100
0000
,  // measure 39
1000
0000
0000
0000
,  // measure 40
1001
0000
0001
0100
,  // measure 41
0001
0000
1000
0000
,  // measure 42
0010
0000
1000
0000
,  // measure 43
0001
0000
1000
0000
,  // measure 44
0100
0000
0010
0001
,  // measure 45
0010
0000
0100
0000
,  // measure 46
1000
0000
0000
0000
,  // measure 47
0001
0000
0000
0000
,  // measure 48
1001
0000
0010
1000
,  // measure 49
0010
0000
0100
0000
,  // measure 50
0001
0000
1000
0000
,  // measure 51
0001
0000
0100
0000
,  // measure 52
0001
0000
0010
0100
,  // measure 53
0010
0000
0001
0000
,  // measure 54
1000
0000
0000
0000
,  // measure 55
0001
0000
0000
0000
,  // measure 56
1001
0000
0000
0000
;
