#TITLE:Like I Do;
#SUBTITLE:;
#ARTIST:David Guetta, Martin Garrix & Brooks;
#TITLETRANSLIT:;
#SUBTITLETRANSLIT:;
#ARTISTTRANSLIT:;
#GENRE:Electro Future House;
#CREDIT:;
#BANNER:LID-bn.png;
#BACKGROUND:LID-bg.png;
#LYRICSPATH:;
#CDTITLE:cdtitle.png;
#MUSIC:like i do.ogg;
#OFFSET:0.000000;
#SAMPLESTART:61.877998;
#SAMPLELENGTH:15.000000;
#SELECTABLE:YES;
#DISPLAYBPM:64.000000:128.000000;
#BPMS:0.000000=64.000000
,34.000000=256.000000
,34.750000=192.000000
,35.250000=128.000000
,35.500000=64.000000
,36.000000=256.000000
,36.250000=128.000000
,37.000000=256.000000
,37.250000=128.000000
,38.000000=256.000000
,38.250000=128.000000
,39.000000=256.000000
,39.250000=128.000000
,39.500000=64.000000
,41.000000=256.000000
,41.750000=192.000000
,42.250000=128.000000
,42.500000=64.000000
,43.000000=256.000000
,43.250000=128.000000
,44.000000=256.000000
,44.250000=128.000000
,45.000000=256.000000
,45.250000=128.000000
,46.000000=256.000000
,46.250000=128.000000
,46.500000=64.000000
,48.000000=256.000000
,48.750000=192.000000
,49.250000=128.000000
,49.500000=64.000000
,50.000000=256.000000
,50.250000=128.000000
,51.000000=256.000000
,51.250000=128.000000
,52.000000=256.000000
,52.250000=128.000000
,53.000000=256.000000
,53.250000=128.000000
,53.500000=64.000000
,55.000000=256.000000
,55.750000=192.000000
,56.250000=128.000000
,56.500000=64.000000
,57.000000=256.000000
,57.250000=128.000000
,58.000000=256.000000
,58.250000=128.000000
,59.000000=256.000000
,59.250000=128.000000
,61.500000=93.750000
,63.000000=64.000000
,71.000000=128.000000
,83.000000=64.000000
,85.000000=128.000000
,113.000000=64.000000
,115.000000=128.000000
,143.000000=64.000000
,145.000000=128.000000
,173.000000=64.000000
;
#STOPS:
;
#BGCHANGES:
;
#KEYSOUNDS:;
#ATTACKS:;

//---------------dance-single - ----------------
#NOTES:
     dance-single:
     X-Scale 12:
     Hard:
     8:
     0.505995,0.533667,0.081321,0.298176,0.447264,392.000000,383.000000,9.000000,33.000000,12.000000,0.000000,0.505995,0.533667,0.081321,0.298176,0.447264,392.000000,383.000000,9.000000,33.000000,12.000000,0.000000:
0000
0000
0000
0000
0000
0000
0000
0000
0000
0000
0000
0000
0000
0000
0000
0000
1000
0000
0100
0000
0010
0000
0000
0000
0100
0000
0000
0000
0001
0000
0000
0100
,
0000
0000
0000
0000
0000
0000
1000
0000
1000
0000
0010
0000
0100
0000
0010
0000
1000
0000
0000
0000
0001
0000
0100
0000
0001
0000
0000
0000
0010
0000
0001
0010
,
0001
0000
0000
0000
0000
0000
1000
0000
0200
0000
0000
0000
1000
0000
0300
0000
1000
0000
0010
0000
0001
0000
0010
0000
0100
0000
0000
0000
0001
0000
0000
1000
,
0000
0000
0000
0000
0000
0000
0001
0000
0001
0000
0100
0000
0010
0000
0100
0000
0001
0000
0000
0000
1000
0000
0100
0000
0010
0000
0000
0000
1000
0000
0000
0010
,
0000
0000
0000
0000
0000
0000
0001
0000
0010
0000
0000
0000
0001
0000
0000
0000
0011
0000
0000
0000
0001
0000
0000
0000
1000
0000
0000
0000
0001
0000
0000
0100
,
0001
0000
0000
0000
0010
0000
0000
0000
0100
0000
0001
0000
0100
0000
1000
0000
0100
0000
0000
0000
1000
0000
0010
0000
1000
0000
0000
0000
0001
0000
0010
0100
,
0010
0000
0000
0000
0001
0000
0010
0000
0200
0000
1300
0000
0200
0000
0310
0000
0001
0000
0000
0000
0100
0000
0000
0000
0010
0000
0000
0000
1000
0000
0000
0100
,
1000
0000
0000
0000
0100
0000
0000
0000
0001
0000
0100
0000
1000
0000
0100
0000
0010
0000
0000
0000
0001
0000
0100
0000
0001
0000
0000
0000
0010
0000
0000
0200
,
0000
0000
0000
0010
0310
0100
0010
0001
0012
0000
0000
0000
0000
0000
0103
0010
,
0200
0000
0000
0300
0M02
0000
0000
0003
020M
0000
0000
0300
0M20
0000
0000
0000
,
0000
0000
0000
0000
1030
0000
0010
1000
0020
0000
0000
0000
0000
0000
0000
0000
0000
0000
0000
0000
1030
0000
0010
0000
2000
0000
0000
0000
0000
0000
3000
0000
,
M002
0000
0000
0000
0000
0000
0003
0000
002M
0000
0000
0000
0000
0000
0030
0000
02M0
0000
0000
0000
0000
0000
0000
0000
0000
0000
0000
0000
1300
0000
0100
0010
,
0200
0000
0000
0000
0000
0000
0310
0001
0020
0000
0000
0030
00M2
0000
0000
0003
,
200M
0000
0000
3000
M020
0000
0000
0000
0000
0000
1030
0010
0002
0000
0000
0000
,
0003
0000
0020
0000
2030
0000
0000
3000
M200
0000
0000
0300
0M20
0000
0000
0000
,
0000
0000
0000
0000
0000
0030
00M2
0000
0000
0000
0000
0000
1003
0000
0001
0000
,
1000
0000
0000
0000
0001
0000
0000
0010
0100
0000
0010
0000
0000
0000
0010
0000
0001
0000
0000
0000
1000
0000
0000
0000
0001
0000
0100
0000
0010
0000
0100
0000
,
0001
0000
0000
0000
1000
0000
0000
0100
1000
0000
0100
0000
0100
0000
1000
0000
0010
0000
0000
0000
0010
0000
0000
0000
1010
0000
0000
0000
1000
0000
0000
0000
,
0001
0001
0010
0010
0100
0100
1000
0010
,
1000
0000
0001
0000
0020
0000
0000
0000
0032
0000
0000
0000
1003
0001
1000
0001
,
0010
0001
0010
0001
0100
0001
0100
0001
0010
0100
0010
0002
0000
0000
0003
0001
,
1000
0010
1000
0010
1010
0000
0000
0000
1000
0000
0001
0000
1000
0000
0000
0000
,
0010
0000
0100
0010
0100
0000
0001
0000
0010
0000
0001
0000
1000
0000
0100
0000
,
1000
0000
0001
0100
0001
0100
0000
0000
0010
0000
1000
0000
0001
0000
0010
0000
,
0001
0000
0010
0100
0010
0000
0001
0000
1000
0000
0010
0000
0001
0000
0010
0000
,
1000
0100
1100
0000
0100
0010
0100
0000
,
1000
0000
0001
1000
0001
0000
0010
0000
0100
0000
0001
0000
0100
0000
1000
0000
,
0100
0000
1000
0010
1000
0010
0000
0000
0010
0000
0100
0000
0001
0000
1000
0000
,
0001
0000
0000
0000
0010
0000
0001
0000
0000
0000
0001
0000
0000
0000
1000
0000
0010
0000
1000
0000
0010
1000
0010
0000
1010
0000
0000
0000
1000
0000
0000
0000
,
0001
0000
1000
0000
0010
0000
0001
0000
0010
0000
0100
0010
0100
0000
0001
0000
,
1000
0000
0100
0000
0010
0000
0100
0000
0010
0000
0001
0100
0001
0100
0001
0000
,
0010
0000
1000
0000
0010
0000
0001
0000
0100
0000
1000
0100
0010
0000
0100
0000
,
0001
0010
0100
0010
0010
0001
0001
1000
,
0001
0000
0100
0000
0010
0000
0001
0000
0010
0000
1000
0100
1000
0000
0010
0000
,
0001
0000
0010
0000
0100
0000
0001
0000
0010
0000
0010
0100
0010
0100
0010
0000
,
1000
0000
0100
0000
0001
0000
0010
0000
0100
0000
0010
0001
0000
0010
0000
0001
,
0200
0300
0200
0300
0101
0000
0001
0000
1000
0000
0100
0000
0010
0000
0000
0000
,
0010
0000
0000
0001
0010
0000
0001
0000
1000
0000
0001
0000
0100
0000
0010
0000
,
1000
0000
0100
1000
0100
1000
0000
0000
0010
0000
0001
0000
0010
0000
1000
0000
,
0010
0000
0000
0100
0010
0000
0100
0000
1000
0000
0100
0000
0002
0000
0000
0000
,
0013
0001
0010
0001
0010
0000
0001
0000
1000
0000
0001
0000
0100
0000
0000
0000
,
0100
0000
0000
0010
0100
0000
1000
0000
0010
0000
0001
0000
0100
0000
0010
0000
,
1000
0000
0100
0010
0100
0010
0100
0000
1000
0000
0001
0000
0010
0000
0100
0000
,
0010
0000
0000
0001
0011
0010
0001
0001
2000
3100
2000
3010
1010
0000
0000
0000
;

//---------------dance-single - ----------------
#NOTES:
     dance-single:
     X-Scale 9:
     Medium:
     6:
     0.414348,0.415074,0.045178,0.415639,0.257515,321.000000,316.000000,5.000000,46.000000,0.000000,0.000000,0.414348,0.415074,0.045178,0.415639,0.257515,321.000000,316.000000,5.000000,46.000000,0.000000,0.000000:
0000
0000
0000
0000
0000
0000
0000
0000
0000
0000
0000
0000
0000
0000
0000
0000
1000
0000
0100
0000
1000
0000
0000
0000
0001
0000
0000
0000
0100
0000
0000
0001
,
0000
0000
0000
0000
0000
0000
0000
0000
1000
0000
0001
0000
1000
0000
0001
0000
1000
0000
0000
0000
0001
0000
0010
0000
0100
0000
0000
0000
0010
0000
0000
0001
,
0000
0000
0000
0000
0000
0000
0001
0000
2000
0000
0000
0000
0001
0000
3000
0000
1000
0000
0001
0000
1000
0000
0000
0000
0010
0000
0000
0000
0100
0000
0000
0001
,
0000
0000
0000
0000
0000
0000
0000
0000
1000
0000
0001
0000
1000
0000
0001
0000
1000
0000
0000
0000
0010
0000
0000
0000
0100
0000
0000
0000
0001
0000
0000
0010
,
0000
0000
0000
0010
0200
0000
1000
0300
1100
0000
0001
0000
1000
0000
0001
0000
,
0010
0000
1000
0000
0010
0000
0001
0010
0100
0000
0100
0010
0001
0000
1000
0000
,
0001
0000
1000
0010
0200
0000
0010
0300
0100
0000
0001
0000
1000
0000
0010
0000
,
1000
0000
0000
0000
0100
0000
0000
0000
1000
0000
0000
0000
0001
0000
0100
0000
0001
0000
0000
0000
1000
0000
0100
0000
1000
0000
0000
0000
0010
0000
0000
0200
,
0000
0000
0000
0000
0301
0100
1000
0100
0002
0000
0000
0000
0000
0000
0103
0010
,
0200
0000
0000
0300
0002
0000
0000
0003
0200
0000
0000
0300
0020
0000
0000
0000
,
0000
0000
1030
0000
2000
0000
0000
0000
0000
0000
3001
0010
0002
0000
0000
0003
,
2000
0000
0000
3000
0020
0000
0000
0030
0200
0000
0000
0000
0000
0000
0301
0000
,
0002
0000
0000
0000
0000
0000
0013
0001
0020
0000
0000
0030
0002
0000
0000
0003
,
2000
0000
0000
3000
0020
0000
0000
0000
0000
0000
1030
0010
2000
0000
0000
0000
,
3000
0000
0000
0000
0000
0010
0000
0000
2000
0000
0000
0000
0000
0000
3000
0000
0200
0000
0000
0000
0000
0000
0300
0000
2000
0000
0000
0000
0000
0000
0000
0000
,
0000
0000
0000
0200
0000
3000
1300
0100
,
1000
0000
0010
0000
0100
0001
0010
0001
1000
0000
1000
0000
0001
0000
0010
0000
,
0001
0000
0100
0000
0010
0100
1000
0100
0010
0000
0100
0000
0010
0000
0010
0000
,
1000
1000
0001
0001
0100
0100
0001
0001
,
1000
1000
0020
0000
2030
0000
3001
0100
,
1000
0000
0010
0000
0100
0000
1000
0000
0100
0010
0100
0020
0000
0000
0000
1030
,
0010
0100
0110
0000
0001
0010
0001
0000
,
0010
0000
0100
0010
0000
0000
0100
0000
1000
0000
0001
0000
0010
0000
0100
0000
,
0010
0000
0100
0010
0000
0000
0000
0000
0001
0000
1000
0000
0100
0000
0010
0000
,
0100
0000
0010
0100
0000
0000
1000
0000
0000
0000
1000
0000
0001
0000
0010
0000
,
0001
0010
0001
0000
1000
0010
1000
0000
,
0001
0000
0010
0001
0000
0000
0000
0000
1000
0000
0010
0000
0001
0000
0010
0000
,
0100
0000
0001
0010
0000
0001
0010
0000
0001
0000
1000
0000
0010
0000
0100
0000
,
0001
0000
0010
0001
0000
0001
0000
1000
0010
0000
1000
0000
1010
0000
0000
0000
,
1000
0000
0100
0000
1000
0000
0000
0000
0001
0000
0010
0001
0000
0000
1000
0000
,
0001
0000
0100
0000
1000
0000
0100
0000
0010
0000
1000
0100
0000
1000
0100
0000
,
1000
0000
0001
0000
0010
0000
0001
0000
0100
0000
0001
0100
0000
0000
0001
0000
,
0000
0001
1000
0100
0010
0001
1000
0000
,
0100
0000
0010
0000
0100
0000
0000
0000
1000
0000
0010
1000
0000
0000
0100
0000
,
0010
0000
1000
0000
0010
0000
0001
0000
0010
0000
0001
0100
0000
0001
0100
0000
,
0001
0000
0010
0000
1000
0000
0010
0000
0001
0000
1000
0100
0000
1000
0000
0001
,
2000
3000
0200
0300
1100
0000
1000
0000
0010
0000
0000
0000
2000
0000
3000
0000
,
0002
0000
0003
2000
0000
3000
0001
0000
1000
0000
0001
0000
0100
0000
0010
0000
,
1000
0100
2000
0000
3001
1000
0002
0013
,
0200
0000
0300
0020
0000
0030
0001
0000
1000
0000
0100
0000
2000
0000
0000
0000
,
3020
0030
1000
0100
1000
0010
0200
0300
,
0002
0000
0003
0020
0000
0030
0001
0000
1000
0000
0001
0000
0100
0000
0010
0000
,
0001
0010
0100
0000
0001
1000
0002
0003
,
0200
0000
0300
0002
0010
0003
0000
0001
0020
0030
0002
0003
0011
0000
0000
0000
;

//---------------dance-single - ----------------
#NOTES:
     dance-single:
     X-Scale 6:
     Easy:
     4:
     0.304630,0.336012,0.054214,0.027107,0.103910,236.000000,230.000000,6.000000,3.000000,0.000000,0.000000,0.304630,0.336012,0.054214,0.027107,0.103910,236.000000,230.000000,6.000000,3.000000,0.000000,0.000000:
0000
0000
0000
0000
0000
0000
0000
0000
0000
0000
0000
0000
0000
0000
0000
0000
1000
0000
0000
0000
0000
0000
0000
0000
0100
0000
0000
0000
1000
0000
0000
1000
,
0000
0000
0000
0000
0000
0000
0000
0000
0001
0000
0000
0000
1000
0000
0000
0000
0001
0000
0000
0000
0010
0000
0000
0000
0100
0000
0000
0000
0010
0000
0000
0010
,
0000
0000
0000
0000
0000
0000
0000
0000
0001
0000
0000
0000
0100
0000
0000
0000
0001
0000
0000
0000
0000
0000
0000
0000
1000
0000
0000
0000
0100
0000
0000
0100
,
0000
0000
0000
0000
0000
0000
0000
0000
1000
0000
0000
0000
0010
0000
0000
0000
0100
0000
0000
0000
0001
0000
0000
0000
0010
0000
0000
0000
0001
0000
0000
0001
,
0000
0000
1000
0010
1010
1000
0000
0100
,
1000
0001
0000
0100
0010
1000
0000
0001
,
0010
0100
0000
0010
0100
1000
0000
0001
,
0100
0010
0000
1000
0001
0100
0000
0001
,
0010
0000
0000
0001
0001
0000
1000
0000
1001
0000
0000
0000
0000
0000
0000
0000
,
1000
0100
1000
0200
,
0000
1300
1000
0000
0000
0000
0001
0000
,
0100
0000
0001
0000
0200
0000
0000
0310
,
0010
0000
1000
0100
,
1000
0000
0200
0000
0000
0310
0010
0000
,
0000
0100
1000
0100
,
0000
0000
0000
1000
0000
0000
1100
0000
,
1000
0000
0000
0000
0010
0100
0000
0100
0001
0000
0010
0000
0100
0000
0000
0000
,
0010
0000
0001
0000
1000
0010
1000
0000
,
0100
0000
0010
0000
0100
0000
1000
0001
,
0000
0001
0100
0000
0001
0000
0010
0100
,
0010
0100
1000
0001
1000
0001
0010
0000
,
0100
0010
0110
0000
0100
0000
1000
0000
,
0001
0000
0000
0001
0000
0000
0100
0000
0000
0000
0001
0000
0010
0000
0100
0000
,
1000
0000
0000
1000
0000
0000
0010
0000
1000
0000
0100
0000
1000
0000
0001
0000
,
0100
0000
0000
0100
0000
0000
0010
0000
0000
0000
0010
0000
1000
0000
0001
0000
,
1000
0010
0100
0000
0001
0000
0100
0000
,
0001
0000
0000
0001
0000
0000
1000
0000
0000
0000
0001
0000
0010
0000
0100
0000
,
1000
0000
0000
1000
0000
0000
0010
0000
0100
0000
0001
0000
0010
0000
0001
0000
,
1000
0000
0000
1000
0000
0100
0000
1000
0001
0000
0001
0000
1001
0000
0000
0000
,
0010
0000
0000
0000
0100
0000
0000
0000
0010
0000
0000
0010
0000
0000
1000
0000
,
0000
0000
0001
0000
0100
0000
0010
0000
1000
0000
0000
1000
0000
0000
0100
0000
,
0010
0000
0001
0000
1000
0000
0001
0000
0100
0000
0000
0100
0000
0000
0010
0000
,
0000
0010
1000
0001
0010
0100
1000
0000
,
0001
0000
0000
0000
1000
0000
0000
0000
0010
0000
0000
0010
0000
0000
0100
0000
,
0000
0000
0001
0000
0010
0000
0100
0000
1000
0000
0000
1000
0000
0000
0001
0000
,
0100
0000
1000
0000
0100
0000
0001
0000
0010
0000
0000
0010
0000
0001
0000
0010
,
0001
0001
0011
0000
0100
0000
0001
0000
,
0010
0100
1000
0010
,
1000
0100
0010
0001
,
0100
0001
0010
0001
,
1000
0010
1000
0100
,
0010
0100
1000
0001
,
0100
0010
1000
0001
,
0010
0000
0100
0000
0010
0100
0010
0000
;

//---------------dance-single - ----------------
#NOTES:
     dance-single:
     X-Scale 2:
     Beginner:
     2:
     0.100683,0.195395,0.000000,0.000000,0.000000,78.000000,78.000000,0.000000,0.000000,0.000000,0.000000,0.100683,0.195395,0.000000,0.000000,0.000000,78.000000,78.000000,0.000000,0.000000,0.000000,0.000000:
// measure 0
0000
0000
1000
0000
,  // measure 1
0000
0000
0001
0000
,  // measure 2
0000
0000
1000
0000
,  // measure 3
0000
0000
0010
0000
,  // measure 4
0000
0000
0000
0000
0100
0100
0000
0001
,  // measure 5
0000
0100
0000
0001
0000
1000
0000
0010
,  // measure 6
0000
1000
0000
0010
0100
0100
0000
0010
,  // measure 7
0000
0100
0000
0010
0000
1000
0000
0001
,  // measure 8
0001
0000
1000
0000
,  // measure 9
0000
0000
0000
0000
,  // measure 10
0000
0100
0000
0000
,  // measure 11
0000
0000
0000
0000
,  // measure 12
0010
0000
0000
0000
,  // measure 13
0000
0000
0000
0001
,  // measure 14
0000
0000
0000
0000
,  // measure 15
0000
0000
0000
1000
,  // measure 16
0000
0100
0000
0010
,  // measure 17
0000
0100
0000
1000
,  // measure 18
0000
0001
0000
1000
,  // measure 19
0000
0010
0000
0100
,  // measure 20
0000
0001
0000
0000
,  // measure 21
0000
1000
0000
0100
,  // measure 22
0000
1000
0000
0010
,  // measure 23
0000
0100
0000
0001
,  // measure 24
0000
1000
0000
0010
,  // measure 25
0000
1000
0000
0100
,  // measure 26
0000
0010
0000
0001
,  // measure 27
0000
0100
0000
0001
,  // measure 28
0000
0000
0000
0010
,  // measure 29
0000
0100
0000
0010
,  // measure 30
0000
0001
0000
1000
,  // measure 31
0000
0010
0000
0100
,  // measure 32
0000
0001
0000
0010
,  // measure 33
0000
0001
0000
1000
,  // measure 34
0000
0010
0000
1000
,  // measure 35
0000
0100
0000
0000
,  // measure 36
0000
0001
0000
0100
,  // measure 37
0000
0001
0000
0010
,  // measure 38
0000
0100
0000
0010
,  // measure 39
0000
0001
0000
1000
,  // measure 40
0000
0010
0000
1000
,  // measure 41
0000
0100
0000
0010
,  // measure 42
0000
0100
0000
1000
,  // measure 43
0000
0001
0000
0000
;
