#TITLE:Life in Reverse;
#SUBTITLE:;
#ARTIST:NIVIRO;
#TITLETRANSLIT:;
#SUBTITLETRANSLIT:;
#ARTISTTRANSLIT:;
#GENRE:Hands Up;
#CREDIT:;
#BANNER:Life in Reverse-bn.png;
#BACKGROUND:Life in Reverse-bg.png;
#LYRICSPATH:;
#CDTITLE:cdtitle.png;
#MUSIC:Life in Reverse.ogg;
#OFFSET:-0.217000;
#SAMPLESTART:55.146999;
#SAMPLELENGTH:13.521000;
#SELECTABLE:YES;
#BPMS:0.000000=142.000000
;
#STOPS:
;
#BGCHANGES:;
#KEYSOUNDS:;
#ATTACKS:;

//---------------dance-single - ----------------
#NOTES:
     dance-single:
     X-Scale 11:
     Hard:
     8:
     0.448814,0.547858,0.126056,0.164842,0.290898,324.000000,311.000000,13.000000,17.000000,0.000000,0.000000,0.448814,0.547858,0.126056,0.164842,0.290898,324.000000,311.000000,13.000000,17.000000,0.000000,0.000000:
// measure 0
0000
0000
0000
0000
,  // measure 1
0000
0000
0000
0000
,  // measure 2
0000
0000
0000
0000
,  // measure 3
0000
0000
0000
0000
,  // measure 4
0000
0000
0000
0000
,  // measure 5
0000
0000
0000
0000
,  // measure 6
0000
0000
0000
0000
,  // measure 7
0000
0000
0000
0000
,  // measure 8
0000
0000
0000
0000
0101
0000
0001
0010
,  // measure 9
0200
0300
2000
3002
,  // measure 10
1003
0100
0010
0000
0002
0000
0103
0010
,  // measure 11
2000
0000
3000
0001
0100
1000
0001
0010
,  // measure 12
2000
0000
3001
1000
0020
0000
0130
0010
,  // measure 13
2000
0000
3100
0010
0002
0000
2003
0000
,  // measure 14
3001
1000
0020
0000
2030
0000
3100
0010
,  // measure 15
0001
0000
1000
0001
0010
1000
0010
0001
,  // measure 16
2000
0000
3000
0000
1001
0000
0001
0010
,  // measure 17
0001
0000
0000
1000
0010
0000
0010
0000
,  // measure 18
0001
0010
1000
0010
0001
0000
1000
0010
,  // measure 19
1000
0000
0000
0001
0010
1000
0010
0100
,  // measure 20
1000
0000
0001
0100
0001
0000
0010
0100
,  // measure 21
0010
0000
0000
0001
0100
0000
0100
0000
,  // measure 22
1000
0100
0001
0100
1000
0000
0001
1000
,  // measure 23
0001
0000
0000
0010
0100
1000
0001
1000
,  // measure 24
0010
0110
0101
0100
,  // measure 25
0001
1000
0001
0010
,  // measure 26
0100
1000
0001
0100
0001
1000
0100
0001
,  // measure 27
0100
1000
0000
0100
0000
0010
0000
0001
,  // measure 28
0010
0100
1000
0010
1010
0010
1000
0001
,  // measure 29
1000
0100
0001
0100
1100
1000
0001
0100
,  // measure 30
0001
0010
0100
1000
2100
0000
0010
0000
,  // measure 31
3002
0000
0100
0000
1003
0001
0010
0100
,  // measure 32
1000
0000
1100
0000
0101
0000
0001
0100
,  // measure 33
0001
0000
0010
0001
0100
0000
0100
0000
,  // measure 34
1000
0100
0001
0100
1000
0000
0001
1000
,  // measure 35
0001
0000
0100
0010
1000
0001
0010
0100
,  // measure 36
1000
0000
0001
0100
1000
0000
0001
0010
,  // measure 37
1000
0000
0001
1000
0010
0000
0010
0000
,  // measure 38
0001
0010
1000
0010
0001
0000
1000
0001
,  // measure 39
1000
0000
0010
1000
0001
1000
0100
0010
,  // measure 40
0001
0000
0010
0100
0000
0010
0011
0000
0001
1000
0000
0100
,  // measure 41
0010
0000
0100
1000
0000
0001
0100
0000
0010
0100
0000
0001
,  // measure 42
0010
0000
0100
1000
0000
0100
0010
0000
0001
1000
0000
0001
,  // measure 43
0100
0000
0010
1000
0000
0001
0100
0000
0001
1000
0000
0100
,  // measure 44
0010
0000
0100
1000
0000
0001
0100
0000
0010
0100
0000
0001
,  // measure 45
1000
0000
0100
0010
0000
0100
1000
0000
0001
1000
0000
0100
,  // measure 46
0010
0000
0001
0010
0000
0100
0010
0000
0001
1000
0000
0010
,  // measure 47
0100
0000
0010
1000
0001
1000
0100
0000
0010
0001
0000
1000
,  // measure 48
0001
0000
0000
1001
0000
0000
0110
0000
0000
0010
0000
0100
,  // measure 49
0001
0000
0010
0100
0000
0010
0002
0000
0000
2003
0000
0000
,  // measure 50
3100
0000
0010
0100
0000
0010
0001
0000
1000
0010
0000
1000
,  // measure 51
0001
0000
0010
0100
0000
1000
0001
0000
0100
0001
0000
0010
,  // measure 52
0100
0000
1000
0010
0000
0001
0010
0000
1000
0001
0000
0100
,  // measure 53
0010
0000
1000
0001
0000
1000
0100
0000
0001
0100
0000
1000
,  // measure 54
0010
0000
0100
0001
0000
0010
0100
0000
0010
0001
0000
1000
,  // measure 55
0001
0000
0000
0100
0000
0010
0100
0000
0001
0010
0000
0100
,  // measure 56
1000
0000
0000
1001
0000
1000
0001
0000
0000
0000
0000
0000
;

//---------------dance-single - ----------------
#NOTES:
     dance-single:
     X-Scale 8:
     Medium:
     6:
     0.386479,0.465679,0.155145,0.019393,0.169690,279.000000,263.000000,16.000000,2.000000,0.000000,0.000000,0.386479,0.465679,0.155145,0.019393,0.169690,279.000000,263.000000,16.000000,2.000000,0.000000,0.000000:
0000
0000
0000
0000
,
0000
0000
0000
0000
,
0000
0000
0000
0000
,
0000
0000
0000
0000
,
0000
0000
0000
0000
,
0000
0000
0000
0000
,
0000
0000
0000
0000
,
0000
0000
0000
0000
,
0000
0000
1001
0000
,
0100
0000
1000
0001
,
1000
0100
0010
0000
,
0100
0000
0000
0000
1000
0001
0100
0001
,
2000
3000
0100
0000
,
0010
0000
0001
0100
,
1000
0100
0001
0000
,
0010
0000
0000
0000
0100
0010
0001
1000
,
0002
0000
0003
0000
1001
0000
1000
0100
,
1000
0000
0001
0001
,
0001
0010
1000
0010
0001
0000
0100
0010
,
0100
0000
0000
0001
0010
1000
0010
0100
,
1000
0000
0001
1000
0001
0000
0100
0010
,
0100
0000
0001
0001
,
0001
1000
0010
0000
1000
0000
0100
0010
,
0001
0000
0000
1000
0100
0001
0100
0010
,
0001
1001
0110
0100
,
0010
0100
0001
0010
,
0100
1000
0001
1000
,
0010
0100
0010
1000
,
0100
0000
0010
0000
0001
0010
0001
0010
,
0100
1000
0100
1000
0010
0100
0010
0100
,
0001
0010
0001
0010
0100
1000
0001
1000
,
0010
0001
0010
0100
0010
1000
0001
0010
,
0100
0000
1100
0000
0101
0000
0001
0100
,
0001
0000
1000
0100
0010
0000
0010
0000
,
0010
0001
1000
0001
0010
0000
0100
1000
,
0001
0000
0100
0010
1000
0001
0010
0100
,
1000
0000
0010
1000
0001
0000
0010
0001
,
1000
0000
0100
0001
1000
0000
1000
0000
,
1000
0010
0001
0010
1000
0000
0001
0010
,
0100
0000
0010
0001
1000
0100
0001
0100
,
1000
0000
0000
1100
0000
0000
1001
0000
0000
0001
0000
0010
,
0100
0000
0000
0010
0000
0001
1000
0000
0000
0100
0000
0000
,
1000
0000
0100
0010
0000
0100
1000
0000
0000
0001
0000
0100
,
0001
0000
0000
0010
0000
0100
1000
0000
0100
0010
0000
0100
,
1000
0000
0000
0010
0000
0100
0001
0000
0000
1000
0000
0010
,
0100
0000
0000
0001
0000
0010
0100
0000
0000
0010
0000
0000
,
0001
0000
1000
0010
0000
1000
0001
0000
0000
0100
0000
0010
,
0100
0000
0000
0001
0000
0010
0100
0000
1000
0010
0000
0001
,
0010
0000
0000
1010
0000
0000
1001
0000
0000
1000
0000
0100
,
0010
0000
0100
1000
0000
0001
0100
0000
0000
0010
0000
0000
,
1000
0000
0100
0010
0000
0100
1000
0000
0000
0001
0000
0100
,
0001
0000
0000
1000
0000
0010
1000
0000
0001
0010
0000
0100
,
1000
0000
0100
0010
0000
0100
1000
0000
0000
0001
0000
0100
,
0010
0101
0001
1001
,
1000
0000
0001
0100
0000
0001
1000
0000
0000
1100
0000
0100
,
0010
0000
0000
0101
0000
0001
1000
0000
0100
0010
0000
0100
,
1000
1100
0101
0000
;

//---------------dance-single - ----------------
#NOTES:
     dance-single:
     X-Scale 5:
     Easy:
     3:
     0.243800,0.356107,0.096966,0.000000,0.000000,176.000000,166.000000,10.000000,0.000000,0.000000,0.000000,0.243800,0.356107,0.096966,0.000000,0.000000,176.000000,166.000000,10.000000,0.000000,0.000000,0.000000:
0000
0000
0000
0000
,
0000
0000
0000
0000
,
0000
0000
0000
0000
,
0000
0000
0000
0000
,
0000
0000
0000
0000
,
0000
0000
0000
0000
,
0000
0000
0000
0000
,
0000
0000
0000
0000
,
0000
0000
1100
0000
,
0000
0000
0001
0000
,
0010
0000
0001
0000
,
0000
0000
1000
0000
,
0010
0000
1000
0000
,
0001
0000
0010
0000
,
0100
1000
0100
0000
,
0010
0000
0001
1000
,
0001
0000
1001
1000
,
0001
0000
0010
0100
,
0010
0000
1000
0001
,
1000
0000
0100
0010
,
0100
0000
1000
0010
,
1000
0000
0001
0010
,
0001
0000
0100
0010
,
0100
0000
0001
0100
,
0001
0000
1001
0000
,
1000
0000
0001
0000
,
1000
0000
0000
0100
,
0000
0010
0000
0100
,
0000
0010
0100
0001
,
1000
0100
0010
0100
,
1000
0001
1001
0000
,
0110
0000
1001
0000
,
0000
0000
1001
0000
1000
0000
0001
0100
,
0001
0000
0010
0100
0010
0000
0010
0000
,
0001
1000
0010
0000
0100
0000
0001
0010
,
0001
0000
1000
0100
1000
0000
0001
0100
,
0001
0000
0010
0000
0100
0000
1000
0100
,
1000
0000
0001
0010
0100
0000
0100
0000
,
1000
0001
0010
0000
0001
0000
1000
0010
,
1000
0000
0100
0000
0010
0100
1000
0001
,
0100
0001
1001
1000
,
0100
1000
0001
0010
,
0100
0010
0001
1000
,
0001
0100
0010
0100
,
0001
0010
0100
1000
,
0001
1000
0010
1000
,
0001
0010
0100
0010
,
0001
1000
0010
0000
,
1000
0000
1001
0001
,
0010
0100
1000
0010
,
1000
0100
0010
0001
,
1000
0001
0010
0001
,
1000
0010
1000
0001
,
0100
0010
0100
0001
,
0010
0100
1000
0001
,
1000
0100
1000
0000
,
0001
1000
1001
0000
;

//---------------dance-single - ----------------
#NOTES:
     dance-single:
     X-Scale 2:
     Beginner:
     1:
     0.109433,0.164357,0.048483,0.000000,0.000000,79.000000,74.000000,5.000000,0.000000,0.000000,0.000000,0.109433,0.164357,0.048483,0.000000,0.000000,79.000000,74.000000,5.000000,0.000000,0.000000,0.000000:
0000
0000
0000
0000
,
0000
0000
0000
0000
,
0000
0000
0000
0000
,
0000
0000
0000
0000
,
0000
0000
0000
0000
,
0000
0000
0000
0000
,
0000
0000
0000
0000
,
0000
0000
0000
0000
,
0000
0000
1001
0000
,
0000
0000
0001
0000
,
0000
0000
1000
0000
,
0000
0000
0100
0000
,
0000
0000
1000
0000
,
0000
0000
0001
0000
,
0000
0000
0010
0000
,
0000
0000
0100
0000
,
0000
0000
1000
0000
,
0000
0000
0001
0000
,
0000
0000
1000
0000
,
0000
0000
0010
0000
,
0000
0000
1000
0000
,
0000
0000
0001
0000
,
0000
0000
0010
0000
,
0000
0000
0100
0000
,
0000
0000
1000
0000
,
0000
0000
0100
0000
,
0000
0000
0010
0000
,
0000
0000
0001
0000
,
0000
0000
1000
0000
,
0010
0000
1000
0000
,
0001
0000
0010
0000
,
0100
0000
0010
0000
,
0000
0000
0110
0000
,
0010
0000
0001
0000
,
1000
0000
0001
0000
,
0010
0000
0100
0000
,
1000
0000
0010
0000
,
1000
0000
0001
0000
,
1000
0000
0100
0000
,
0010
0000
0100
0000
,
1000
0000
1001
0000
,
0001
0000
0100
0000
,
0001
0000
0010
0000
,
0100
0000
0010
0000
,
0001
0000
1000
0000
,
0010
0000
1000
0000
,
0001
0000
0100
0000
,
0010
0000
0100
0000
,
0000
0000
0110
0000
,
0010
0000
1000
0000
,
0001
0000
0010
0000
,
0001
0000
1000
0000
,
0100
0000
0010
0000
,
0100
0000
1000
0000
,
0001
0000
0100
0000
,
0001
0000
1000
0000
,
0000
0000
1001
0000
;
