#TITLE:거짓말;
#SUBTITLE:;
#ARTIST:BIGBANG;
#TITLETRANSLIT:Lies;
#SUBTITLETRANSLIT:;
#ARTISTTRANSLIT:;
#GENRE:K-Pop;
#CREDIT:;
#BANNER:lies-bn.png;
#BACKGROUND:lies-bg.png;
#LYRICSPATH:;
#CDTITLE:cdtitle.png;
#MUSIC:lies.ogg;
#OFFSET:0.000000;
#SAMPLESTART:46.100002;
#SAMPLELENGTH:32.000000;
#SELECTABLE:YES;
#BPMS:0.000000=62.499996
,64.000000=124.999992
;
#STOPS:
;
#BGCHANGES:;
#KEYSOUNDS:;
#ATTACKS:;

//---------------dance-single - ----------------
#NOTES:
     dance-single:
     :
     Beginner:
     1:
     0.147214,0.165244,0.104091,0.176954,0.000000,99.000000,89.000000,10.000000,17.000000,0.000000,0.000000,0.147214,0.165244,0.104091,0.176954,0.000000,99.000000,89.000000,10.000000,17.000000,0.000000,0.000000:
// measure 0
0000
0000
0000
0000
,  // measure 1
0000
0000
0000
0000
,  // measure 2
0200
0000
0000
0000
0000
0000
0000
0300
0020
0000
0000
0030
0002
0000
0000
0003
,  // measure 3
0020
0000
0000
0000
0000
0000
0000
0030
2000
0000
0000
0000
0000
0000
0000
3000
,  // measure 4
2020
0000
0000
0000
0000
0000
0000
3030
0100
0000
0000
0000
1000
0000
0000
0000
,  // measure 5
0002
0000
0000
0000
0000
0000
0000
0003
0010
0000
0000
0000
0000
0000
0000
0000
,  // measure 6
0202
0000
0000
0000
0000
0000
0000
0303
0010
0000
0000
0000
0001
0000
0000
0000
,  // measure 7
2000
0000
0000
0000
0000
0000
0000
3000
1000
0000
0000
0000
0001
0000
0000
0000
,  // measure 8
0011
0001
0010
0100
,  // measure 9
0020
0000
0000
0000
0000
0000
0000
0030
0100
0000
0000
0000
0010
0000
0000
0000
,  // measure 10
0001
0000
0000
1000
0000
0000
0001
0000
,  // measure 11
0200
0000
0000
0000
0000
0000
0000
0300
0010
0000
0000
0000
0100
0000
0000
0000
,  // measure 12
0110
0000
0100
0010
,  // measure 13
0002
0000
0000
0003
0010
0001
0010
0001
,  // measure 14
0010
0000
0100
0010
,  // measure 15
2000
0000
0000
0000
0000
0000
0000
0000
3020
0000
0000
0000
0000
0000
0000
0030
,  // measure 16
1010
0010
0000
1000
,  // measure 17
0100
0010
0001
0000
,  // measure 18
0001
0001
0000
0100
,  // measure 19
0000
0010
0000
0100
,  // measure 20
0110
0100
0000
0001
,  // measure 21
0010
0100
1000
0100
,  // measure 22
1000
0000
0000
0002
0000
0000
0000
0003
,  // measure 23
0001
0100
0010
1000
,  // measure 24
1001
0001
0000
0010
,  // measure 25
0100
0010
0100
1010
,  // measure 26
0010
0000
0100
0000
,  // measure 27
0010
0000
0001
0001
,  // measure 28
0101
0100
0000
0001
,  // measure 29
0000
1000
0000
0001
,  // measure 30
0101
0100
0000
0001
,  // measure 31
0001
0000
0100
0100
;

//---------------dance-single - ----------------
#NOTES:
     dance-single:
     :
     Easy:
     3:
     0.239409,0.249818,0.208182,0.156136,0.026023,161.000000,141.000000,20.000000,15.000000,0.000000,0.000000,0.239409,0.249818,0.208182,0.156136,0.026023,161.000000,141.000000,20.000000,15.000000,0.000000,0.000000:
// measure 0
0000
0000
0000
0000
,  // measure 1
0000
0000
0000
0000
,  // measure 2
0100
0000
0000
0100
0000
0000
0010
0000
0200
0000
0000
0300
0002
0000
0000
0003
,  // measure 3
0020
0000
0000
0000
0000
0000
0000
0030
0002
0000
0000
0000
0000
0000
0000
0003
,  // measure 4
2002
0000
0000
3000
0003
0000
1000
0000
0001
0000
0000
0000
1000
0000
0100
0000
,  // measure 5
0020
0000
0000
0000
2000
0000
0000
3030
0010
0000
0000
0000
0100
0000
0000
0000
,  // measure 6
0110
0000
0000
0010
0000
0000
0100
0000
0010
0000
0001
0000
0010
0000
0100
0000
,  // measure 7
2000
0000
0000
0000
0000
0000
0000
3000
1000
0000
0100
0000
0010
0000
0001
0000
,  // measure 8
0011
0001
0010
0100
,  // measure 9
0020
0000
0000
0000
0001
0000
0000
0030
0010
0000
0000
0000
0100
0000
1000
0000
,  // measure 10
1100
0000
0100
1000
0100
0010
0001
0010
,  // measure 11
0200
0000
0000
0000
0010
0000
0000
0300
0010
0000
0000
0000
0001
0000
0000
0000
,  // measure 12
0101
0000
0000
0100
0000
0000
0010
0000
0010
0000
0000
0100
0000
0000
0010
0000
,  // measure 13
0200
0000
0000
0000
0000
0000
0000
0300
0010
0000
0100
0000
0001
0000
0100
0000
,  // measure 14
0011
0010
0100
0010
,  // measure 15
0200
0000
0000
0000
1000
0000
0000
0300
2000
0000
0000
0000
0010
0000
0000
3000
,  // measure 16
1010
0000
0010
0000
0100
0000
0010
0001
,  // measure 17
0010
0000
0010
0000
1000
0000
0100
0010
,  // measure 18
0011
0010
0100
1000
,  // measure 19
0100
0010
0001
0101
,  // measure 20
0001
0000
0100
0000
0010
0000
0100
0001
,  // measure 21
0010
0001
1000
0010
,  // measure 22
1000
0000
0000
0100
0000
0000
0020
0000
0000
0000
0000
0000
0000
0000
0030
0000
,  // measure 23
0101
1010
0110
1001
,  // measure 24
0101
0000
0001
0000
0100
0000
1000
0100
,  // measure 25
0010
0000
0100
0000
0010
0000
0100
0100
,  // measure 26
0010
0010
0000
1000
1000
0000
0001
0001
,  // measure 27
0010
0100
0100
0010
0100
0000
0010
0000
,  // measure 28
0110
0000
0100
0000
0001
0000
0100
0010
,  // measure 29
0001
0010
0100
0001
,  // measure 30
1000
0010
0100
0001
,  // measure 31
0011
0101
1001
0101
,  // measure 32
0011
0000
0000
0000
;

//---------------dance-single - ----------------
#NOTES:
     dance-single:
     :
     Medium:
     6:
     0.339039,0.399709,0.208182,0.104091,0.093682,228.000000,208.000000,20.000000,10.000000,0.000000,0.000000,0.339039,0.399709,0.208182,0.104091,0.093682,228.000000,208.000000,20.000000,10.000000,0.000000,0.000000:
// measure 0
0000
0000
0000
0000
,  // measure 1
0000
0000
0000
0000
,  // measure 2
0100
0000
0010
0100
0000
0001
0010
0000
0200
0000
0010
0301
0002
0000
0010
0103
,  // measure 3
2000
0000
0000
0000
0000
0000
0000
0000
0000
0000
0000
0000
0000
0100
3000
0000
0200
0000
0000
0000
0000
0000
0000
0000
0000
0000
0000
0000
0000
0000
0000
0300
,  // measure 4
0220
0000
0000
0330
0000
0000
0100
0000
0100
0000
0000
0010
0001
0000
1000
0100
,  // measure 5
1000
0000
0001
0000
1000
0000
0001
0000
0100
0000
0000
0000
0001
0010
0001
0010
,  // measure 6
0001
0010
0100
1000
0100
0010
0001
0100
,  // measure 7
0001
1000
0001
1000
1001
1001
1010
1010
,  // measure 8
1001
0010
0001
0010
0100
1000
0100
0010
,  // measure 9
0020
0000
0100
0000
0001
0000
0100
0030
0001
0000
0010
0000
0100
0000
1000
0000
,  // measure 10
1001
0000
1000
0000
0100
0000
1100
0000
0001
0000
0100
0000
0001
0000
0010
0001
,  // measure 11
0020
0001
0100
0001
0130
0010
0001
0010
,  // measure 12
0011
0001
0010
0100
0010
0001
0010
0100
0010
0000
0100
0000
1000
0000
0010
1000
,  // measure 13
0200
0000
0010
0000
1000
0000
0010
0300
1000
0000
0100
0000
0010
0000
0001
0000
,  // measure 14
0011
0001
0010
0100
0010
0001
0010
0100
,  // measure 15
0110
0100
1000
0100
0040
0000
0001
0000
,  // measure 16
0031
0000
0010
0001
1000
0000
0010
0100
,  // measure 17
1000
0000
0100
0000
0010
0100
0010
0010
,  // measure 18
1010
0000
0010
0100
0001
0010
0100
1000
,  // measure 19
0000
1000
0001
1000
0100
0001
0100
1000
,  // measure 20
1100
0000
0100
1000
0010
0000
0100
0001
,  // measure 21
0010
0100
0100
0010
,  // measure 22
0101
0000
0000
0100
0000
0000
0020
0000
0000
0000
0000
0000
0000
0000
0030
0000
,  // measure 23
0011
0000
0000
0010
0000
0000
0100
0000
0000
0000
0001
0000
0000
0000
0010
0000
,  // measure 24
0110
0100
1000
0010
0100
1000
0100
0001
,  // measure 25
0010
0100
1000
0000
0010
0000
1000
0100
,  // measure 26
1000
0001
0000
1000
0001
0000
0001
0010
,  // measure 27
0001
1000
0100
0010
0100
0000
0100
0000
,  // measure 28
0110
0000
0100
0001
1000
0000
0010
1000
,  // measure 29
0001
0000
0010
0000
0100
0000
0010
0100
,  // measure 30
0110
0000
0100
0001
0000
0000
0100
0000
0000
0000
0010
0000
1000
0000
0010
0000
,  // measure 31
0110
0000
0100
0010
1000
0000
0001
0000
,  // measure 32
1001
0000
0000
0000
;

//---------------dance-single - ----------------
#NOTES:
     dance-single:
     :
     Hard:
     9:
     0.420824,0.582908,0.229000,0.052045,0.307068,283.000000,261.000000,22.000000,5.000000,0.000000,0.000000,0.420824,0.582908,0.229000,0.052045,0.307068,283.000000,261.000000,22.000000,5.000000,0.000000,0.000000:
// measure 0
0000
0000
0000
0000
,  // measure 1
0000
0000
0000
0000
,  // measure 2
0001
0000
0010
1000
0000
0010
0001
0000
0200
0000
0010
0310
0020
0000
0100
0130
,  // measure 3
0200
0000
0000
0000
0000
0000
0000
0000
0000
0000
0000
0000
0000
0001
0000
0000
0302
0000
0000
0000
0000
0000
0000
0000
0000
0000
0000
0000
0000
0000
0000
0000
,  // measure 4
0103
0000
0001
0010
0000
0001
0100
0000
0010
0000
0010
0000
0010
0000
1000
0100
,  // measure 5
4000
0000
0000
0000
3004
0000
0000
0000
0043
0000
0000
0000
0430
0000
0000
0000
0310
0000
0000
0000
0000
0000
0100
0000
1000
0000
0100
1000
0000
0000
0000
0000
,  // measure 6
0100
0000
1000
0100
0000
1000
0001
0000
0100
0000
0001
0010
0001
0000
0010
0100
,  // measure 7
4000
0000
0000
0000
3040
0000
0000
0000
0430
0000
0000
0000
0304
0000
0000
0003
1010
0000
0000
0000
1001
0000
0000
0000
1010
0000
0000
0000
1001
0000
0000
0000
,  // measure 8
1100
0000
0000
0000
0100
0010
0100
0000
0001
0000
0000
0000
0010
0001
0010
0000
0100
0000
0000
1000
0100
1000
0010
0000
1000
0000
0000
0000
0010
0100
0010
0000
,  // measure 9
0400
0000
0340
0000
0034
0000
0043
0000
0031
0010
0100
0010
0001
0010
0100
0010
,  // measure 10
0011
0000
0000
0000
1000
0000
0000
0000
0010
0000
0000
0000
1010
0000
0000
0000
1000
0000
0000
0000
0001
0000
0000
0000
0001
0010
0100
0010
0001
0000
1000
0000
,  // measure 11
0400
0000
0000
0000
4300
0000
0000
0000
3001
0000
1000
0000
0001
0000
0100
0000
0010
0000
0000
0000
0100
0010
1000
0010
0100
0000
0000
0100
0001
0000
0001
1000
,  // measure 12
0001
0000
0001
0000
0010
0000
0100
0000
1000
0000
0100
0000
0010
0000
0100
0000
1000
0100
0000
1000
0000
0001
0000
1000
0000
0000
0000
0010
0100
0010
0000
0100
,  // measure 13
0400
0340
4030
3004
0103
0100
0010
0010
,  // measure 14
0011
0000
0001
0100
0010
1000
0100
0000
0100
0000
0010
0001
0010
0000
0100
1000
,  // measure 15
1100
0100
1000
0100
4010
0001
0010
0001
,  // measure 16
3010
0100
0010
1000
0100
1000
0010
0001
,  // measure 17
0010
0000
0000
0000
0100
0000
0010
0000
1000
0000
0000
0010
0100
0000
0010
0000
,  // measure 18
1010
0000
0010
0001
0100
0001
0010
0100
,  // measure 19
0000
1000
0010
0100
0001
1000
0001
1000
,  // measure 20
1010
0100
1000
0100
0010
0100
0010
0001
,  // measure 21
0010
0000
0010
0000
0100
1000
0010
1000
,  // measure 22
1100
0000
0000
0100
0000
0000
0200
0000
0010
0000
0000
0000
0010
0000
0300
0000
,  // measure 23
0011
0000
0000
0010
0000
0000
0001
0000
0100
0000
0001
0000
0000
0000
0010
0000
,  // measure 24
0011
0001
1000
0001
0100
1000
0100
0001
,  // measure 25
0010
0100
1000
0000
0010
0000
0100
0001
,  // measure 26
0100
0010
0000
0100
0010
0000
0010
0100
,  // measure 27
1000
0100
0010
0100
0001
0000
0001
0000
,  // measure 28
0011
0001
0100
0001
1000
0100
0010
0001
,  // measure 29
0010
0100
0010
0000
0000
0010
0001
0010
,  // measure 30
0101
0000
0100
0001
0000
0000
0100
0000
0000
0000
0010
0000
1000
0000
0010
0000
,  // measure 31
0110
0000
1001
0100
0110
0000
1001
0000
,  // measure 32
0110
0000
0000
0000
;

//---------------dance-single - ----------------
#NOTES:
     dance-single:
     :
     Challenge:
     10:
     0.511532,0.682835,0.197772,0.052045,0.624545,344.000000,325.000000,19.000000,5.000000,0.000000,0.000000,0.511532,0.682835,0.197772,0.052045,0.624545,344.000000,325.000000,19.000000,5.000000,0.000000,0.000000:
// measure 0
0000
0000
0000
0000
,  // measure 1
0000
0000
0000
0000
,  // measure 2
1000
0000
0010
0100
0000
0001
0010
0000
2000
0000
0100
3010
0200
0000
0010
0310
,  // measure 3
0020
0000
0000
0000
0000
0000
0000
0000
0000
0000
0000
0000
0000
0100
0030
0000
0200
0000
0000
0000
0000
0000
0000
0000
0000
0000
0000
0000
0000
0000
0000
0000
,  // measure 4
0310
0000
0000
0000
1000
0000
0010
0000
0000
0000
0100
0000
0010
0000
1000
0000
0001
0000
1000
0001
1000
0000
0001
1000
0010
0000
0000
1000
0001
1000
0100
0000
,  // measure 5
0004
0000
0000
0000
0403
0000
0000
0000
0310
0000
1000
0000
0001
0000
0100
0000
0010
0000
0000
0000
0000
0000
0100
0000
1000
0000
0100
0001
0000
0000
0100
0000
,  // measure 6
1100
0000
0000
0000
0010
0000
0010
0000
0000
0000
1000
0000
0100
0000
0010
0000
0100
0010
0000
0001
0000
0000
0010
0000
0001
0000
0100
0000
0010
0000
0100
0000
,  // measure 7
0004
0000
0000
0000
4003
0000
0000
0000
3100
1000
0100
0000
1000
0000
0001
0000
0100
0000
0010
0000
0001
0000
0010
0000
0100
0000
0010
0000
0001
0000
0010
0100
,  // measure 8
0010
0000
0100
0010
0100
0010
0100
0000
0001
0000
0000
0001
0010
0001
1000
0000
0100
0000
0000
1000
0100
1000
0010
0000
1000
0000
0000
0010
0100
0001
0100
0000
,  // measure 9
0010
0000
0100
0000
0001
0000
1000
0000
0100
0000
1000
0100
0000
1000
0010
0000
0100
0000
0001
0000
0010
0000
0100
0000
1000
0000
0100
0000
0010
0000
0001
0000
,  // measure 10
1001
0000
0100
0000
0001
0000
0010
0000
0100
0010
0100
0000
0101
0000
0010
0000
0001
0000
0010
0000
0100
0000
1000
0000
0100
0010
0100
0010
0001
0000
1000
0000
,  // measure 11
0400
0000
0000
0000
1300
0000
1000
0001
1000
0000
0001
0000
0100
0000
0001
0000
0010
0000
0000
0000
0100
0010
0001
0010
0100
0000
0000
0100
0001
0000
0010
1000
,  // measure 12
1001
0000
0001
0000
0010
0000
0100
0000
0010
0000
0001
0000
0010
0000
0100
0000
0010
0010
0000
0100
0000
0010
0000
0001
0000
0000
0000
0100
0010
0100
0000
0001
,  // measure 13
1000
1000
0000
0010
0000
0100
0000
0001
0000
0000
1000
0000
0100
0000
0010
0000
0001
0000
0000
0000
1000
0000
0000
0000
0001
0000
0000
0000
0100
0000
0000
0000
,  // measure 14
0101
0000
0001
0000
0010
0000
0001
0000
0000
0000
1000
0000
0100
0000
1000
0000
0000
0100
1000
0100
0010
0100
1000
0100
0010
0100
1000
0000
0100
0000
0010
0000
,  // measure 15
0110
0010
0100
0010
1000
0100
1000
0001
4010
0000
0001
0000
0010
0000
0001
0010
,  // measure 16
3100
1000
0100
0010
0100
1000
0010
0001
,  // measure 17
0010
0000
0100
0000
0010
0000
0100
0000
0001
0000
0000
0001
1000
0000
0001
0000
,  // measure 18
1001
0000
0010
0001
0100
0001
0010
0100
,  // measure 19
0000
1000
0010
0100
0001
0100
0001
1000
,  // measure 20
1010
0001
1000
0100
0010
0100
0010
0001
,  // measure 21
0010
0100
0010
0001
0010
0100
0010
0001
,  // measure 22
0101
0000
0000
0100
0000
0000
0200
0000
0010
0000
0000
0000
0010
0000
0300
0000
,  // measure 23
0011
0000
0000
0010
0000
0000
0100
0000
0010
0000
0001
0000
0010
0000
0100
0000
,  // measure 24
0110
0100
1000
0010
0100
1000
0100
0001
,  // measure 25
0010
0100
1000
0100
0010
0000
0001
0100
,  // measure 26
0010
1000
0000
0010
1000
0000
1000
0010
,  // measure 27
0100
0001
0100
0010
0100
0000
0001
0010
,  // measure 28
0011
0001
0100
0001
1000
0100
0010
0001
,  // measure 29
0010
0100
0010
0001
0010
0000
0001
0010
,  // measure 30
0101
0000
0100
0001
0100
0000
0010
0000
0000
0000
0010
0000
1000
0000
0010
0000
,  // measure 31
0110
0100
0101
0001
1001
0000
1100
0000
,  // measure 32
1010
0000
0000
0000
;
