#TITLE:Let Me Bang 2009;
#SUBTITLE:;
#ARTIST:Kid Sister;
#TITLETRANSLIT:;
#SUBTITLETRANSLIT:;
#ARTISTTRANSLIT:;
#GENRE:Hip-Hop;
#CREDIT:;
#BANNER:Let Me Bang 2009-bn.png;
#BACKGROUND:Let Me Bang 2009-bg.png;
#LYRICSPATH:;
#CDTITLE:cdtitle.png;
#MUSIC:Let Me Bang 2009.ogg;
#OFFSET:-0.036000;
#SAMPLESTART:34.524998;
#SAMPLELENGTH:30.250000;
#SELECTABLE:YES;
#BPMS:0.000000=126.925003
;
#STOPS:
;
#BGCHANGES:;
#KEYSOUNDS:;
#ATTACKS:;

//---------------dance-single - ----------------
#NOTES:
     dance-single:
     X-Scale 14:
     Challenge:
     10:
     0.697198,0.634202,0.041289,0.123868,0.755593,591.000000,586.000000,5.000000,15.000000,10.000000,0.000000,0.697198,0.634202,0.041289,0.123868,0.755593,591.000000,586.000000,5.000000,15.000000,10.000000,0.000000:
// measure 0
0000
0000
0000
0000
,  // measure 1
0000
0000
0000
0000
,  // measure 2
0000
0000
0000
0000
1001
0000
1000
0000
0001
0010
0100
0000
0010
0000
0001
1000
,  // measure 3
0001
0010
1000
0010
0001
0100
0010
1000
,  // measure 4
0200
0000
0000
0000
1300
0100
0000
1000
0000
0010
0100
0001
0100
0000
0000
0001
,  // measure 5
1000
0000
0100
1000
0100
0000
0001
0000
0100
0000
1000
0000
0010
0000
0100
0000
,  // measure 6
0002
0000
0000
0000
0013
0001
0000
0010
0001
1000
0000
0000
0010
1000
0000
0010
,  // measure 7
1000
0000
0000
0100
0000
0000
00M0
0000
0100
0000
0000
0000
0001
0000
0000
0000
0010
0000
0000
0000
0001
0000
0000
0000
0100
0000
0000
0000
0001
0000
0000
0000
,  // measure 8
0010
0000
0001
1000
0000
0100
0000
1000
0010
0000
0100
0000
1000
0000
0100
0000
,  // measure 9
0010
0000
0100
0010
0100
0000
0001
0000
1000
0100
0010
0000
0100
0000
1000
0000
,  // measure 10
0010
0000
1000
0000
1001
0001
0000
1000
0000
0001
0010
0100
1000
0000
0010
0000
,  // measure 11
1000
0000
0100
0000
0010
0100
0000
0010
0000
0001
0100
0001
0010
0000
0100
0000
,  // measure 12
1000
0100
1000
0000
0001
0000
0100
0000
0001
0100
0001
0100
0000
0010
M000
0010
,  // measure 13
0001
0010
1000
0100
0001
1000
0010
0100
,  // measure 14
0001
0000
0100
0000
0010
0100
0000
0001
0000
1000
0001
1000
0000
0100
0000
0010
,  // measure 15
0001
0100
0001
0010
0001
0000
0100
0000
0001
0000
1000
0100
0010
0000
0100
0000
,  // measure 16
1000
0000
0010
0000
1000
0001
1000
0000
0010
0000
0100
0010
0100
0000
0001
0000
,  // measure 17
0010
0000
0100
0000
1000
0000
0010
0000
1000
0000
0100
0010
0000
0000
0001
0000
,  // measure 18
0200
0000
0000
0000
0301
0000
1000
0010
0100
0000
0010
0000
1000
0000
0100
0000
,  // measure 19
1000
0100
1000
0100
1000
0000
0001
0010
0100
0000
0010
0000
0001
0000
0010
0000
,  // measure 20
0001
0100
0001
0100
0001
0000
0010
0100
1000
0000
0010
0000
1000
0000
0100
0000
,  // measure 21
0010
0001
0100
0001
0010
1000
0010
0001
,  // measure 22
0100
0001
0100
0001
0100
0000
0010
1000
0100
0000
0010
0000
0001
0000
1000
0000
,  // measure 23
0010
0100
0010
0100
0010
0000
1000
0100
0010
0000
0001
0000
0100
0000
0001
0000
,  // measure 24
0010
0100
0010
0100
0010
0000
0001
1000
0010
0000
1000
0000
0100
0000
0001
0000
,  // measure 25
1000
0010
0001
0100
0010
0001
0010
1000
,  // measure 26
0001
0000
0100
0000
0101
0000
0001
0000
1000
0010
1000
0010
0000
1000
0100
0010
,  // measure 27
0000
0010
0001
0000
1000
0000
0010
0100
0000
0010
0100
0000
0001
0000
0100
0000
,  // measure 28
0001
0000
1000
0000
0010
0000
1000
0000
0100
0010
0100
0010
0000
0001
1000
0100
,  // measure 29
M000
0100
0001
0000
0001
0000
1000
0100
0000
1000
0100
0000
0010
0000
0100
0000
,  // measure 30
1000
0000
0001
0000
1000
0000
0010
0000
0100
0010
0100
0010
0000
1000
0100
0010
,  // measure 31
0000
0010
0001
0000
0100
0000
0001
0000
0010
0000
0001
0100
0000
0001
0100
0000
,  // measure 32
0010
0000
1000
0000
0001
0000
1000
0000
0100
0010
0100
0010
0000
0001
0100
0001
,  // measure 33
0000
0001
1000
0000
0100
0000
1000
0010
0000
1000
0010
0000
0100
0000
0001
0000
,  // measure 34
1000
0000
0000
0000
0000
0000
0001
0000
0000
0000
0000
0000
1001
0000
0000
0000
0000
0000
0100
0000
0000
0000
0000
0000
0010
0000
0000
0000
0000
0000
0001
0000
0000
1000
0000
0000
0001
0000
0000
0000
0010
0000
0000
0000
0001
0000
0000
0000
,  // measure 35
1000
0000
0000
0000
0000
0000
0000
0000
0000
0100
0000
0000
1000
0000
0000
0000
0100
0000
0000
0000
1000
0000
0000
0000
0010
0000
0000
0000
0100
0000
0000
0000
0001
0000
0000
0000
1000
0000
0000
0000
0100
0000
0000
0000
0010
0000
0000
0000
,  // measure 36
0001
0100
0001
0010
0100
0010
0100
1000
0010
1000
0100
0010
,  // measure 37
0001
0000
0000
0100
0001
0100
0001
0000
0010
0000
0400
0000
1000
0000
1000
0000
,  // measure 38
2300
0000
0000
3100
1000
0000
0100
0000
0001
0000
1000
0000
0010
0000
0001
0000
,  // measure 39
0001
0000
0000
0000
0000
0000
0000
0000
0000
0100
0000
0000
0001
0000
0000
0000
0100
0000
0000
0000
0010
0000
0000
0000
1000
0000
0000
0000
0001
0000
0000
0000
0010
0000
0000
0000
0100
0000
0000
0000
0010
0000
0000
0000
0001
0000
0000
0000
,  // measure 40
2000
0000
0000
0000
3010
0000
1000
0000
0001
0010
0100
0000
0010
0000
0001
0000
,  // measure 41
1000
0100
0010
0000
0100
0000
1000
0000
0010
0000
0100
0000
0001
0000
1000
0000
,  // measure 42
0002
0000
0000
0103
0001
1000
0001
0010
0100
0010
0001
1000
,  // measure 43
0020
0000
0000
0000
0000
0000
0000
0000
0000
0130
0000
0000
0010
0000
0000
0000
0100
0000
0000
0000
0001
0000
0000
0000
1000
0000
0000
0000
0010
0000
0000
0000
0100
0000
0000
0000
0001
0000
0000
0000
0010
0000
0000
0000
0100
0000
0000
0000
,  // measure 44
2000
0000
0000
3010
1000
0100
0001
0100
1000
0010
0100
0001
,  // measure 45
0020
0000
1030
0010
0001
0100
0002
0000
,  // measure 46
2003
0000
0000
0000
3001
0000
1000
0100
0010
0000
0100
0000
1000
0000
0001
0000
,  // measure 47
1000
0100
0010
0001
1000
0000
0010
0100
0001
0000
0010
0000
0100
0000
0010
0000
,  // measure 48
0001
0100
0010
1000
0001
0000
1000
0001
0100
0000
0010
0000
1000
0000
0100
0000
,  // measure 49
0010
0001
0100
1000
0100
0001
0010
0100
,  // measure 50
1000
0010
0100
0010
1000
0000
0100
0010
0001
0000
1000
0000
0001
0000
0100
0000
,  // measure 51
0001
0010
0100
1000
0001
0000
0100
0010
1000
0000
0001
0000
1000
0000
0010
0000
,  // measure 52
1000
0010
0100
0001
1000
0000
0100
0010
0001
0000
0100
0000
0001
0000
0010
0000
,  // measure 53
1000
0010
0001
0100
0010
1000
0100
0010
,  // measure 54
0001
0000
0100
0000
0101
0000
0001
0000
1000
0100
0000
1000
0100
0000
1000
0100
,  // measure 55
1000
0010
0100
0010
1000
0000
0001
0100
0001
0000
0100
0010
0000
0010
0000
0010
,  // measure 56
1000
0000
0001
0000
1000
0000
0010
0000
0100
0010
0000
0100
0010
0000
0100
0010
,  // measure 57
1000
0001
0010
0001
1000
0000
0100
0010
0100
0000
1000
0001
0000
0001
0000
0001
,  // measure 58
1000
0001
0010
0100
1000
0000
0010
0100
,  // measure 59
0001
0100
0001
0100
0001
0000
1000
0100
1000
0000
0100
0000
00M0
0000
0100
0000
,  // measure 60
0001
0000
0000
0100
0000
0000
0001
0000
0000
0100
0000
0000
0001
0000
0000
0000
0100
0000
0000
0000
0010
0000
0000
0000
1000
0000
0000
0000
0100
0000
0000
0000
0010
0000
0000
0000
0001
0000
0000
0000
1000
0000
0000
0000
0001
0000
0000
0000
,  // measure 61
0020
0000
0130
0010
0001
0010
0200
0000
,  // measure 62
2300
0000
3020
0000
,  // measure 63
0130
0100
0100
M000
00M0
M000
00M0
M000
,  // measure 64
00M0
0000
0000
0000
;

//---------------dance-single - ----------------
#NOTES:
     dance-single:
     X-Scale 13:
     Hard:
     9:
     0.592205,0.624293,0.033031,0.313798,0.404634,502.000000,498.000000,4.000000,38.000000,0.000000,0.000000,0.592205,0.624293,0.033031,0.313798,0.404634,502.000000,498.000000,4.000000,38.000000,0.000000,0.000000:
// measure 0
0000
0000
0000
0000
,  // measure 1
0000
0000
0000
0000
,  // measure 2
0000
0000
0000
0000
1100
0000
0010
0000
1000
0001
1000
0000
0100
0010
0000
0100
,  // measure 3
0010
0001
0100
0001
0010
0100
1000
0010
,  // measure 4
1000
0000
0010
0000
1000
0010
0000
0100
0000
0001
0100
0001
0010
0000
0100
1000
,  // measure 5
0000
0010
1000
0100
0001
0100
1000
0010
,  // measure 6
0200
0000
0000
0000
0301
0100
0000
0001
1000
0000
0100
0000
0010
0001
0000
0100
,  // measure 7
0001
0010
0100
0010
0001
1000
0010
1000
,  // measure 8
0100
0000
0010
0001
0000
0100
0000
0001
0100
0000
0010
0000
1000
0000
0001
0000
,  // measure 9
1000
0100
0001
1000
0010
0001
0100
0010
,  // measure 10
1000
0010
1010
0001
1000
0100
0010
0001
,  // measure 11
0100
0001
0010
0100
1000
0010
1000
0001
,  // measure 12
1000
0100
0010
0001
0100
1000
0100
0001
,  // measure 13
0010
0100
1000
0010
1000
0100
0010
0001
,  // measure 14
0100
0000
0001
0000
0010
0100
0000
0010
0000
0001
1000
0001
0000
0100
0000
0010
,  // measure 15
0100
0010
0100
0010
0100
0000
0001
0000
1000
0000
0100
1000
0100
0000
0010
0000
,  // measure 16
0001
0000
0100
0000
0001
0100
0001
0000
0010
0000
0100
0000
1000
0000
0010
0000
,  // measure 17
0001
0000
0010
0000
1000
0000
0100
0000
0010
0000
0001
0100
0000
0000
0001
0000
,  // measure 18
0020
0000
0000
0000
0130
0000
0010
0100
0010
0000
0001
0000
2000
0000
0100
0000
,  // measure 19
3200
0000
0000
0000
0310
0000
0100
0010
0100
0000
1000
0000
0002
0000
0010
0000
,  // measure 20
0023
0000
0000
0000
0130
0000
0010
0100
0010
0000
0001
0000
0100
0000
0010
0000
,  // measure 21
0001
0010
0100
0001
1000
0010
1000
0100
,  // measure 22
0020
0000
0000
0000
0031
0000
0010
0100
0010
0000
0001
0000
2000
0000
0100
0000
,  // measure 23
3200
0000
0000
0000
0310
0000
0100
0010
0100
0000
1000
0000
0002
0000
0010
0000
,  // measure 24
0023
0000
0000
0000
0130
0000
0010
0100
0010
0000
0001
0000
1000
0000
0100
0000
,  // measure 25
0010
0100
1000
0001
1000
0100
0010
0001
,  // measure 26
0100
0010
2000
0000
3010
1000
0100
1000
,  // measure 27
0001
0000
0100
0000
0010
0000
1000
0010
0000
1000
0010
0000
0100
0000
0010
0000
,  // measure 28
1000
0100
0020
0000
0031
0100
1000
0100
,  // measure 29
0001
0000
0010
0000
0001
0000
1000
0010
0000
1000
0010
0000
0100
0000
0010
0000
,  // measure 30
0001
0010
0200
0000
0301
0100
0010
0100
,  // measure 31
1000
0000
0100
0000
0010
0000
1000
0010
0000
1000
0010
0000
0100
0000
0001
0000
,  // measure 32
0010
0100
2000
0000
3010
1000
0100
1000
,  // measure 33
0001
0000
0100
0000
0010
0000
1000
0100
0000
1000
0100
0000
0010
0000
0001
0000
,  // measure 34
0100
0000
0000
0000
0000
0000
0001
0000
0000
0000
0000
0000
0011
0000
0000
0000
0000
0000
1000
0000
0000
0000
0000
0000
0100
0000
0000
0000
0000
0000
0010
0000
0000
0100
0000
0000
0010
0000
0000
0000
0001
0000
0000
0000
1000
0000
0000
0000
,  // measure 35
0001
0000
0000
0000
0000
0000
0000
0000
0000
1000
0000
0000
0010
0000
0000
0000
1000
0000
0000
0000
0100
0000
0000
0000
1000
0000
0000
0000
0010
0000
0000
0000
0100
0000
0000
0000
0010
0000
0000
0000
1000
0000
0000
0000
0001
0000
0000
0000
,  // measure 36
1000
0100
0010
0001
0100
0001
0010
0100
0010
0001
1000
0010
,  // measure 37
1000
0000
0000
0010
0100
0010
0100
0000
0001
0000
1000
0000
0100
0000
0010
0000
,  // measure 38
0002
0000
1003
0001
0100
0001
1000
0100
,  // measure 39
0010
0000
0000
0001
0000
0000
0100
0000
0001
0000
1000
0000
0001
0000
0010
0000
0100
0000
1000
0000
0010
0000
1000
0000
,  // measure 40
0200
0000
0000
0000
0310
0000
0100
0000
1000
0100
1000
0000
0010
0000
0100
0000
,  // measure 41
0001
0100
0001
0000
0010
0000
0100
0000
1000
0000
0010
0000
1000
0000
0100
0000
,  // measure 42
0020
0000
0000
0031
0010
0001
0100
0001
0010
0001
0100
0010
,  // measure 43
2000
0000
0000
3010
1000
0100
1000
0010
1000
0100
0010
0001
,  // measure 44
0200
0000
0000
0310
0100
0001
0100
0010
0100
0001
0010
0100
,  // measure 45
2000
0000
3100
1000
0010
0100
0002
0000
,  // measure 46
0023
0000
0000
0000
0031
0000
0010
0100
0010
0000
0001
0000
2000
0000
0100
0000
,  // measure 47
3200
0000
0000
0000
0310
0000
0100
0010
0100
0000
1000
0000
0002
0000
0010
0000
,  // measure 48
0023
0000
0000
0000
0130
0000
0010
0100
0010
0000
0001
0000
1000
0000
0010
0000
,  // measure 49
0001
0010
1000
0100
0010
0001
0100
0001
,  // measure 50
0020
0000
0000
0000
0130
0000
0010
0100
0010
0000
0001
0000
2000
0000
0100
0000
,  // measure 51
3200
0000
0000
0000
0310
0000
0100
0010
0100
0000
1000
0000
0002
0000
0010
0000
,  // measure 52
0023
0000
0000
0000
0130
0000
0010
0100
0010
0000
0001
0000
1000
0000
0100
0000
,  // measure 53
0001
0100
1000
0010
0100
1000
0100
0010
,  // measure 54
1000
0001
1001
0000
0010
0000
1000
0100
,  // measure 55
0010
0000
0001
0000
0100
0010
0001
0010
,  // measure 56
1000
0100
2000
0000
3010
0000
1000
0100
,  // measure 57
0010
0000
0001
0000
0100
0010
0001
0010
,  // measure 58
1000
0100
2000
0000
3001
0000
1000
0010
,  // measure 59
0100
0000
0001
0000
0100
0010
0001
0010
,  // measure 60
1000
0000
0000
0100
0000
0000
1000
0000
0100
0000
0010
0000
0001
0000
0100
0000
0010
0000
1000
0000
0001
0000
1000
0000
,  // measure 61
0020
0000
0031
0010
1000
0100
0020
0000
,  // measure 62
0032
0000
0023
0000
,  // measure 63
0030
0000
0000
0000
;

//---------------dance-single - ----------------
#NOTES:
     dance-single:
     X-Scale 10:
     Medium:
     7:
     0.404634,0.412892,0.049547,0.189930,0.094965,343.000000,337.000000,6.000000,23.000000,0.000000,0.000000,0.404634,0.412892,0.049547,0.189930,0.094965,343.000000,337.000000,6.000000,23.000000,0.000000,0.000000:
// measure 0
0000
0000
0000
0000
,  // measure 1
0000
0000
0000
0000
,  // measure 2
0000
0000
0101
0000
0001
0000
1000
0100
,  // measure 3
1000
0000
0001
0100
0010
1000
0001
0010
,  // measure 4
0100
1000
0001
0000
1000
0000
0100
0010
,  // measure 5
0100
0000
1000
0010
0100
0001
1000
0100
,  // measure 6
0010
0001
1000
0000
0010
0000
1000
0001
,  // measure 7
1000
0000
0001
0010
0100
1000
0001
0100
,  // measure 8
0010
1000
0001
0000
1000
0000
0001
0100
,  // measure 9
0001
0000
1000
0000
0010
0000
1000
0100
,  // measure 10
0010
0001
1000
0000
0010
0000
1000
0100
,  // measure 11
0010
0000
0001
0000
0100
0010
0001
0010
,  // measure 12
0100
0000
0001
0000
1000
0000
0100
0010
,  // measure 13
0001
0000
1000
0000
0010
0100
1000
0100
,  // measure 14
0010
0000
1000
0000
0010
0000
1000
0100
,  // measure 15
0010
0000
0001
0000
0100
0010
1000
0010
,  // measure 16
0100
0000
0001
0000
1000
0000
0100
0010
,  // measure 17
0001
0000
1000
0000
0010
0100
1000
0100
,  // measure 18
0010
0000
1010
0000
0001
0000
1000
0100
,  // measure 19
0010
0000
0001
0000
0100
0000
0001
0010
,  // measure 20
0100
0000
1000
0000
0010
0000
1000
0100
,  // measure 21
0010
0100
1000
0000
0001
0000
0100
0010
,  // measure 22
1000
0000
0001
0000
0100
0000
0010
1000
,  // measure 23
0001
0000
1000
0000
0100
0000
0001
0100
,  // measure 24
1000
0000
0010
0000
0100
0000
0001
0010
,  // measure 25
1000
0010
0001
0000
0100
0000
0010
0000
,  // measure 26
1000
0100
1100
0000
0010
0200
0300
0200
,  // measure 27
0301
0000
0000
0000
1000
0000
0000
1000
0000
0000
2000
0000
3000
0000
2000
0000
,  // measure 28
3100
0010
0001
0000
1000
0020
0030
0020
,  // measure 29
0031
0000
0000
0000
0100
0000
0000
0100
0000
0000
0200
0000
0300
0000
0200
0000
,  // measure 30
0310
1000
0001
0000
1000
0200
0300
0200
,  // measure 31
0310
0000
0000
0000
0001
0000
0000
0001
0000
0000
0002
0000
0003
0000
0002
0000
,  // measure 32
1003
0100
0010
0000
0001
0200
0300
0200
,  // measure 33
1300
0000
0000
0000
0010
0000
0000
0010
0000
0000
0020
0000
0030
0000
0020
0000
,  // measure 34
1030
0000
0000
0001
0000
0000
1001
0000
0000
0000
0000
0000
0100
0000
0000
0000
0000
0000
1000
0000
0010
0000
1000
0000
,  // measure 35
0010
0000
0000
0000
0000
0000
0100
0000
0000
0000
0000
0000
0001
0000
0000
0010
0000
0000
0100
0000
0010
0000
0100
0000
,  // measure 36
0010
0000
0000
0001
0000
0000
1000
0000
0000
0010
1000
0010
,  // measure 37
1000
0000
0100
0000
0010
0000
0001
0100
,  // measure 38
0020
0000
1030
0000
0010
0000
1000
0100
,  // measure 39
0010
0000
0000
0001
0000
0000
0100
0000
0000
0001
0010
0100
,  // measure 40
1000
0000
0010
1000
0001
1000
0010
0100
,  // measure 41
1000
0100
0010
0000
1000
0100
0001
0100
,  // measure 42
1000
0000
0000
0010
0000
0000
0100
0000
0000
0001
0100
0010
,  // measure 43
1000
0000
0000
0100
0000
0000
0010
0000
0000
0001
0010
0100
,  // measure 44
1000
0000
0000
0010
0000
0000
0100
0000
0000
0001
0100
0010
,  // measure 45
1000
0000
0010
0100
1000
0100
0010
0000
,  // measure 46
1000
0000
1001
0000
0100
0000
0001
0010
,  // measure 47
0100
0000
1000
0000
0010
0000
1000
0100
,  // measure 48
0010
0000
0001
0000
0100
0000
0010
1000
,  // measure 49
0100
1000
0001
0000
0010
0000
0100
1000
,  // measure 50
0010
0000
1000
0000
0100
0000
1000
0010
,  // measure 51
0100
0000
0001
0000
0010
0000
1000
0010
,  // measure 52
0001
0000
1000
0000
0010
0000
0100
1000
,  // measure 53
0100
0010
0100
0000
0001
0000
1000
0000
,  // measure 54
0010
1000
2100
0000
3010
0000
0000
1000
,  // measure 55
0010
0000
0000
0000
1000
0000
0000
1000
0000
0000
1000
0000
0000
0000
0100
0000
,  // measure 56
0010
0001
0200
0000
0301
0000
0000
0100
,  // measure 57
0010
0000
0000
0000
1000
0000
0000
1000
0000
0000
1000
0000
0000
0000
0100
0000
,  // measure 58
0010
0001
0200
0000
0310
0000
0000
0100
,  // measure 59
0001
0000
0000
0000
1000
0000
0000
1000
0000
0000
1000
0000
0000
0000
0100
0000
,  // measure 60
0010
0000
0000
0001
0000
0000
0200
0000
0000
0000
0000
0000
0310
0000
0000
0000
0000
0000
1000
0000
0100
0000
0010
0000
,  // measure 61
0001
0000
1000
0100
0001
0100
2000
0000
,  // measure 62
3020
0000
0030
0000
;

//---------------dance-single - ----------------
#NOTES:
     dance-single:
     X-Scale 6:
     Easy:
     4:
     0.302001,0.307192,0.016516,0.198188,0.000000,256.000000,254.000000,2.000000,24.000000,0.000000,0.000000,0.302001,0.307192,0.016516,0.198188,0.000000,256.000000,254.000000,2.000000,24.000000,0.000000,0.000000:
// measure 0
0000
0000
0000
0000
,  // measure 1
0000
0000
0000
0000
,  // measure 2
0000
0000
1100
0000
0010
0000
0000
1000
,  // measure 3
0010
0000
1000
0000
0001
0000
0100
0010
,  // measure 4
0100
0010
0100
0000
0001
0000
0000
1000
,  // measure 5
0001
0000
1000
0000
0100
0000
0010
0001
,  // measure 6
0010
0001
0010
0000
0100
0000
0000
1000
,  // measure 7
0010
0000
1000
0000
0001
0000
0010
0100
,  // measure 8
0010
0100
0010
0000
0001
0000
0000
1000
,  // measure 9
0001
0010
0100
1000
,  // measure 10
0010
0000
1000
0000
0100
0000
0000
0010
,  // measure 11
0001
0000
1000
0000
0001
0000
0000
1000
,  // measure 12
0010
0000
0100
0000
0010
0000
0000
1000
,  // measure 13
0100
0000
0010
0000
0001
0000
0000
0100
,  // measure 14
0001
0000
1000
0000
0100
0000
0000
0010
,  // measure 15
0100
0000
1000
0000
0001
0000
0000
1000
,  // measure 16
0100
0000
0010
0000
0001
0000
0000
1000
,  // measure 17
0010
0000
1000
0000
0100
0000
0000
0010
,  // measure 18
0200
1300
0010
1000
,  // measure 19
0100
0010
0100
1000
,  // measure 20
0001
0100
0010
1000
,  // measure 21
0001
0010
0100
0010
,  // measure 22
0001
1000
0010
0100
,  // measure 23
0001
1000
0100
1000
,  // measure 24
0010
0100
0001
0010
,  // measure 25
0100
0010
0001
1000
,  // measure 26
0010
0100
0010
0000
0000
0200
0300
0200
,  // measure 27
0300
0000
0001
0000
0000
2000
3000
2000
,  // measure 28
3100
0010
0100
0000
0000
2000
3000
2000
,  // measure 29
3000
0000
0001
0000
0000
0020
0030
0020
,  // measure 30
0130
0010
0100
0000
0000
0020
0030
0020
,  // measure 31
0030
0000
0001
0000
0000
2000
3000
2000
,  // measure 32
3010
1000
0010
0000
0000
0200
0300
0200
,  // measure 33
0300
0000
0001
0000
0000
2000
3000
2000
,  // measure 34
3000
0000
1001
0000
0100
0000
0000
0001
,  // measure 35
0100
0000
0001
0000
1000
0000
0000
0100
,  // measure 36
1000
0000
0010
0000
1000
0000
0000
0100
,  // measure 37
0010
0000
0001
0000
0100
0000
0001
0010
,  // measure 38
0200
0000
1300
0000
0010
0000
0000
1000
,  // measure 39
0100
0000
0010
0000
0001
0000
0000
0100
,  // measure 40
0001
0000
0010
0000
0100
0000
0000
0010
,  // measure 41
0100
0000
1000
0000
0001
0000
0000
1000
,  // measure 42
0010
0000
1000
0000
0100
0000
0000
0010
,  // measure 43
0001
0000
0100
0000
0001
0000
0000
0010
,  // measure 44
0100
0000
1000
0000
0010
0000
0000
1000
,  // measure 45
0100
0000
1000
0010
0100
0001
2000
3000
,  // measure 46
0002
0013
0001
0100
,  // measure 47
0001
0010
0100
1000
,  // measure 48
0010
1000
0100
0010
,  // measure 49
0100
1000
0001
0100
,  // measure 50
0010
0100
0001
1000
,  // measure 51
0010
1000
0100
0010
,  // measure 52
0100
1000
0001
0100
,  // measure 53
0010
1000
0001
1000
,  // measure 54
0100
0010
0200
0000
1300
0000
0000
0010
,  // measure 55
1000
0000
0001
0000
1000
0000
0000
0100
,  // measure 56
1000
0100
0020
0000
0031
0000
0000
0100
,  // measure 57
0001
0000
0010
0000
0100
0000
0000
0010
,  // measure 58
0100
1000
0200
0000
1300
0000
0000
0010
,  // measure 59
1000
0000
0001
0000
0100
0000
0000
0001
,  // measure 60
0010
0100
2000
0000
3010
0000
0000
1000
,  // measure 61
0001
0000
1000
0100
0010
0100
1000
0000
,  // measure 62
0001
0000
0000
0000
;

//---------------dance-single - ----------------
#NOTES:
     dance-single:
     X-Scale 1:
     Beginner:
     1:
     0.102633,0.127997,0.000000,0.000000,0.000000,87.000000,87.000000,0.000000,0.000000,0.000000,0.000000,0.102633,0.127997,0.000000,0.000000,0.000000,87.000000,87.000000,0.000000,0.000000,0.000000,0.000000:
0000
0000
0000
0000
,
0000
0000
0000
0000
,
0000
0001
0000
0000
,
1000
0000
0010
0000
,
0100
0000
0001
0000
,
1000
0000
0001
0000
,
0010
0000
0100
0000
,
1000
0000
0010
0000
,
1000
0000
0100
0000
,
1000
0000
0001
0000
,
0000
1000
0000
0000
,
0100
0000
0010
0000
,
0001
0000
1000
0000
,
0010
0000
0100
0000
,
0001
0000
1000
0000
,
0100
0000
1000
0000
,
0001
0000
0100
0000
,
0001
0000
1000
0000
,
0010
0010
0000
0000
,
0000
1000
0000
0000
,
0000
0100
0000
0000
,
0000
0010
0000
0000
,
0000
0001
0000
0000
,
0000
1000
0000
0000
,
0000
0001
0000
0000
,
0000
0010
0000
0000
,
0000
0100
0000
0000
,
0000
1000
0000
0000
,
0000
0001
0000
0000
,
0000
1000
0000
0000
,
0000
0100
0000
0000
,
0000
0010
0000
0000
,
0000
0001
0000
0000
,
0000
1000
0000
0000
,
0000
0001
0000
0000
,
0100
0000
0010
0000
,
0100
0000
0010
0000
,
1000
0000
0001
0000
,
0000
1000
0000
0000
,
0100
0000
1000
0000
,
0001
0000
1000
0000
,
0100
0000
0010
0000
,
0001
0000
0100
0000
,
0001
0000
0010
0000
,
0100
0000
1000
0000
,
0001
0000
1000
0000
,
0100
0100
0000
0000
,
0000
1000
0000
0000
,
0000
0001
0000
0000
,
0000
0100
0000
0000
,
0000
0010
0000
0000
,
0000
1000
0000
0000
,
0000
0001
0000
0000
,
0000
1000
0000
0000
,
0000
0100
0000
0000
,
1000
0000
0000
0000
,
0100
0000
0000
0000
,
0010
0000
0000
0000
,
0001
0000
0000
0000
,
1000
0000
0000
0000
,
0001
0000
0000
0000
,
0010
0000
0000
0000
,
0100
0000
0000
0000
;
