#VERSION:0.83;
#TITLE:Last Forever;
#SUBTITLE:;
#ARTIST:Alvin Risk;
#TITLETRANSLIT:;
#SUBTITLETRANSLIT:;
#ARTISTTRANSLIT:;
#GENRE:House;
#ORIGIN:;
#CREDIT:;
#BANNER:Last Forever-bn.png;
#BACKGROUND:Last Forever-bg.png;
#PREVIEWVID:;
#JACKET:Last Forever-jacket.png;
#CDIMAGE:;
#DISCIMAGE:;
#LYRICSPATH:;
#CDTITLE:cdtitle.png;
#MUSIC:last forever.ogg;
#OFFSET:0.000000;
#SAMPLESTART:75.000000;
#SAMPLELENGTH:15.000000;
#SELECTABLE:YES;
#BPMS:0.000=128.000;
#STOPS:;
#DELAYS:;
#WARPS:;
#TIMESIGNATURES:0.000=4=4;
#TICKCOUNTS:0.000=4;
#COMBOS:0.000=1;
#SPEEDS:0.000=1.000=0.000=0;
#SCROLLS:0.000=1.000;
#FAKES:;
#LABELS:0.000=Song Start;
#BGCHANGES:;
#KEYSOUNDS:;
#ATTACKS:
;

//---------------dance-single - ----------------
#NOTEDATA:;
#CHARTNAME:X-Scale 11;
#STEPSTYPE:dance-single;
#DESCRIPTION:;
#CHARTSTYLE:;
#DIFFICULTY:Hard;
#METER:8;
#RADARVALUES:0.516607,0.586379,0.072037,0.165685,0.144074,502.000000,492.000000,10.000000,23.000000,0.000000,0.000000,0.000000,0.000000,0.000000,0.516607,0.586379,0.072037,0.165685,0.144074,502.000000,492.000000,10.000000,23.000000,0.000000,0.000000,0.000000,0.000000,0.000000;
#CREDIT:;
#NOTES:
// measure 0
0000
0000
0000
0000
,  // measure 1
0000
0000
0000
0000
,  // measure 2
0000
0000
0000
0000
,  // measure 3
0000
0000
0000
0000
,  // measure 4
1001
0000
0000
0000
0001
0000
0100
0001
0100
0000
0010
0000
0010
0000
1000
0010
,  // measure 5
1000
0000
1000
0100
1000
0000
0010
0100
0010
0000
0100
0000
0100
0000
0001
0000
,  // measure 6
1000
0000
0010
0000
1000
0000
0100
0010
0100
0010
0100
0000
1000
0000
0001
0000
,  // measure 7
0010
0001
0100
0010
1000
0100
0001
0100
,  // measure 8
1000
0000
0010
0000
0100
0000
0100
0001
,  // measure 9
1000
0000
0001
0100
1000
0000
1000
0100
,  // measure 10
0001
0000
1000
0010
0001
0000
0001
0010
,  // measure 11
1000
0000
0100
0010
1000
0010
0001
0010
,  // measure 12
1000
0010
0100
0010
0001
0000
0001
1000
,  // measure 13
0010
0000
1000
0010
0100
0000
0100
0010
,  // measure 14
1000
0000
0001
0100
0010
0000
0010
0100
,  // measure 15
0001
0000
1000
0000
0100
0000
1000
0000
0100
0000
0010
0100
0010
0000
0001
0010
,  // measure 16
0001
0000
0000
0000
1000
0000
0001
0100
0001
0000
0001
0000
0100
0000
0010
0100
,  // measure 17
0010
0000
0000
0000
1000
0000
0100
0000
1000
0000
0000
0000
0001
0000
0010
0100
,  // measure 18
0010
0000
0001
0000
1000
0000
0001
0000
0100
0000
0000
0000
0100
0000
0010
0100
,  // measure 19
0010
1000
0001
0100
1000
0100
0010
1000
,  // measure 20
0001
0000
0010
0000
0100
0000
0000
0000
0010
0000
0000
0000
0001
0000
0100
0001
,  // measure 21
0100
0000
0000
0000
0010
0000
1000
0000
0100
0000
0000
0000
0100
0000
1000
0010
,  // measure 22
1000
0000
0001
0000
1000
0000
0100
0000
0010
0000
0000
0000
0100
0000
1000
0100
,  // measure 23
1000
0010
1000
0010
1000
0001
1000
0001
,  // measure 24
1001
0000
1000
0000
1000
0000
0001
0100
0000
0001
0100
0000
0010
0000
0100
0010
,  // measure 25
0100
0000
0001
0010
0001
0000
1000
0000
0200
0000
0000
0000
2300
0000
0000
0000
,  // measure 26
0010
0000
3001
1000
0001
0000
0100
0010
,  // measure 27
0100
0000
0001
1000
0001
0010
1000
0010
,  // measure 28
0001
0000
1000
0000
1000
0000
0010
0100
0000
0010
0100
0000
0100
0000
0001
0010
,  // measure 29
0001
0000
1000
0100
1000
0000
0010
0000
0200
0000
0000
0000
0302
0000
0000
0000
,  // measure 30
0010
0000
1003
0001
1000
0000
0010
0100
,  // measure 31
0010
0000
0010
1000
0010
0001
0010
1000
,  // measure 32
1010
0000
0010
0000
0100
0000
0001
0010
0000
0001
0010
0000
0100
0000
1000
0100
,  // measure 33
1000
0000
0001
0010
0001
0000
0100
0000
0002
0000
0000
0000
2003
0000
0000
0000
,  // measure 34
0001
0000
3100
1000
0100
0000
0010
0001
,  // measure 35
0010
0000
0000
0000
0001
0000
1000
0010
1000
0000
0100
0000
0001
0000
0100
0000
,  // measure 36
1000
0000
1000
0000
0001
0000
0100
0001
0000
0100
0001
0000
0010
0000
0100
0000
,  // measure 37
0010
0000
0001
0000
1000
0000
0100
1000
0200
0000
0000
0000
2300
0000
0000
0000
,  // measure 38
3020
2030
3200
0320
0032
0010
0013
0001
,  // measure 39
1001
0110
1001
0110
,  // measure 40
1001
0001
0100
0001
0000
1000
0010
1000
,  // measure 41
0000
0000
0001
0000
0100
0000
0010
0100
0000
0000
0100
0000
0001
0000
1000
0000
,  // measure 42
0100
0001
0100
1000
0000
0100
0010
0001
,  // measure 43
0000
0000
1000
0000
0010
0000
0100
0000
0001
0000
0100
0000
0010
0000
1000
0010
,  // measure 44
1000
0010
0001
0010
1000
0010
0001
0010
,  // measure 45
0100
0000
0010
0000
0100
0000
0010
1000
0000
0000
0010
0000
0100
0000
0001
0000
,  // measure 46
0100
1000
0100
0010
0100
1000
0100
0010
,  // measure 47
1000
0000
0001
0000
1000
0000
0001
0100
0001
0000
0100
0000
0010
0000
1000
0100
,  // measure 48
1000
0001
0100
0010
0000
0010
1000
0001
,  // measure 49
0000
0000
1000
0000
0001
0000
0100
0001
0000
0000
1000
0000
0001
0000
0100
0000
,  // measure 50
0001
0010
0100
1000
0000
0001
1000
0001
,  // measure 51
0000
0000
1000
0000
0010
0000
0100
0010
0100
0000
0010
0000
1000
0000
1000
0000
,  // measure 52
0001
0010
1000
0010
0001
0010
1000
0010
,  // measure 53
0100
0000
1000
0000
0100
0000
1000
0010
0000
0000
1000
0000
0001
0000
0010
0000
,  // measure 54
0100
1000
0100
0001
0100
1000
0100
0010
,  // measure 55
0001
0000
1000
0000
0001
0000
1000
0100
1000
0000
0010
0000
0200
0000
0000
0000
,  // measure 56
0000
0000
0300
0001
0200
0000
0000
0000
,  // measure 57
0000
0000
0000
0000
0000
0000
0000
0000
0000
0000
0000
0000
0002
0000
0000
0303
,  // measure 58
0101
0100
0001
0000
0001
0000
0001
2000
,  // measure 59
0001
3000
1000
0100
0010
0000
0010
0100
,  // measure 60
1000
0000
0001
0100
0001
0000
1000
0010
,  // measure 61
1000
0000
0010
0100
0010
0000
0100
0001
,  // measure 62
0100
0000
0100
0000
0100
0000
0100
0002
,  // measure 63
0100
0003
0001
0010
0100
0000
0100
0010
,  // measure 64
0001
0000
1000
0010
1000
0100
0010
0100
,  // measure 65
0010
0100
1000
0010
0100
0000
0001
0100
,  // measure 66
0120
0000
0000
0030
0200
0000
0000
0301
,  // measure 67
0100
0000
1000
0100
0010
0000
0100
0001
,  // measure 68
1000
0000
0001
0010
0100
0000
0010
0001
,  // measure 69
1000
0000
0010
0100
0010
0000
1000
0002
,  // measure 70
2000
0000
0000
3003
0002
0000
0000
0103
,  // measure 71
0001
0000
0001
0100
0010
0000
1000
0010
,  // measure 72
0100
0000
0001
0100
1000
0100
0001
0100
,  // measure 73
1000
0100
0001
0010
0001
0000
0100
0010
,  // measure 74
1000
0000
0000
0000
;

//---------------dance-single - ----------------
#NOTEDATA:;
#CHARTNAME:X-Scale 8;
#STEPSTYPE:dance-single;
#DESCRIPTION:;
#CHARTSTYLE:;
#DIFFICULTY:Medium;
#METER:6;
#RADARVALUES:0.396202,0.451580,0.194499,0.309758,0.025213,385.000000,358.000000,27.000000,43.000000,0.000000,0.000000,0.000000,0.000000,0.000000,0.396202,0.451580,0.194499,0.309758,0.025213,385.000000,358.000000,27.000000,43.000000,0.000000,0.000000,0.000000,0.000000,0.000000;
#CREDIT:;
#NOTES:
// measure 0
0000
0000
0000
0000
,  // measure 1
0000
0000
0000
0000
,  // measure 2
0000
0000
0000
0000
,  // measure 3
0000
0000
0000
0000
,  // measure 4
1100
0000
1000
0001
0100
0010
1000
0000
,  // measure 5
0001
0000
1000
0001
0100
0010
1000
0000
,  // measure 6
0001
0000
1000
0001
0100
0010
1000
0000
,  // measure 7
1001
0110
1001
0110
,  // measure 8
2001
0000
3200
0000
0320
0000
0000
0032
,  // measure 9
0000
0000
1000
0000
0000
0000
1003
0002
,  // measure 10
0000
0000
0103
0010
2000
0000
3010
0200
,  // measure 11
0000
0000
1300
0100
0002
0000
0013
0100
,  // measure 12
1000
0001
1000
0010
0200
0000
0000
0320
,  // measure 13
0000
0000
0001
0000
0000
0030
0010
2000
,  // measure 14
0000
0000
3001
1000
0200
0000
0310
0001
,  // measure 15
1000
0010
0001
0010
1000
0010
0001
0010
,  // measure 16
2000
3200
0320
0032
,  // measure 17
1000
0000
0000
0000
0013
0000
0001
0200
,  // measure 18
1000
0000
0310
0100
0002
0000
1003
0200
,  // measure 19
0001
0000
0310
0100
1000
0001
1000
0010
,  // measure 20
0200
0000
0302
0000
2003
0000
3000
0020
,  // measure 21
0100
0000
0000
0000
0031
0010
1000
0002
,  // measure 22
0100
0000
0103
0001
2000
0000
3100
0010
,  // measure 23
0001
0100
1000
0100
0001
0100
1000
0100
,  // measure 24
0201
0000
0000
0000
0000
0000
0000
0302
,  // measure 25
0000
0000
0000
0003
1000
0000
0200
0000
,  // measure 26
1000
0300
0000
0020
0000
0000
0000
0001
,  // measure 27
0000
0000
0000
0100
0000
0000
0000
0000
,  // measure 28
0032
0000
0000
0000
0000
0000
0000
2003
,  // measure 29
0000
0000
0000
3000
0010
0000
0200
0000
,  // measure 30
0000
0000
0300
0001
0002
0000
0000
0003
,  // measure 31
1001
0110
1001
0110
,  // measure 32
1001
1000
0001
1000
0000
0010
0100
0010
,  // measure 33
0000
1000
0100
1000
0001
0000
0010
0000
,  // measure 34
0100
0010
0001
1000
0000
0100
1000
0001
,  // measure 35
0000
0100
0001
1000
0100
0001
0100
1000
,  // measure 36
0001
0010
0100
1000
0000
0010
0100
0001
,  // measure 37
0000
1000
0100
0010
0001
0000
1000
0000
,  // measure 38
0001
1000
0010
0100
0000
0010
0100
0001
,  // measure 39
0101
1010
0101
1010
,  // measure 40
1001
0000
1000
0200
0010
0300
0100
2000
,  // measure 41
0001
0000
3000
0000
0100
0000
0000
0010
0000
0000
0001
0000
0010
0000
0100
0000
,  // measure 42
1000
0000
0001
0200
0010
0300
0100
0020
,  // measure 43
1000
0000
0030
0000
0010
0000
0000
0100
0000
0000
0001
0000
0100
0000
0010
0000
,  // measure 44
1000
1000
0100
0100
,  // measure 45
1000
0000
0001
0000
1000
0000
0001
0010
0000
0000
0100
0000
0010
0000
0001
0000
,  // measure 46
1000
0000
1000
0000
1000
0001
1000
0000
,  // measure 47
1000
0000
0001
0000
1000
0000
0001
0010
0000
0000
0100
0000
0010
0000
0001
0000
,  // measure 48
1000
0100
0010
0002
0000
0103
0001
2000
,  // measure 49
0000
0000
3010
0000
1000
0000
0001
1000
0000
0000
0100
0000
1000
0000
0001
0000
,  // measure 50
0010
1000
0010
0002
0000
1003
0001
0200
,  // measure 51
0000
0310
0100
0001
1000
0100
0001
0100
,  // measure 52
1000
1000
0100
0100
,  // measure 53
1000
0000
0001
0000
1000
0000
0001
0010
0000
0000
0100
0000
0010
0000
0001
0000
,  // measure 54
1000
0000
1000
0000
1000
0001
1000
0000
,  // measure 55
1000
0000
0001
0000
1000
0000
0001
0010
0000
0000
0100
0000
0020
0000
0001
0000
,  // measure 56
0000
0000
0030
0001
0002
0000
0000
0000
,  // measure 57
0000
0000
0000
1000
,  // measure 58
1003
0000
0010
0000
1000
0000
0010
0110
,  // measure 59
0100
0001
0100
0001
,  // measure 60
1001
0000
0100
0000
1000
0000
0100
1001
,  // measure 61
0001
0000
0010
0001
1000
0000
0010
0000
,  // measure 62
1010
0000
1000
0000
0001
0000
1000
1001
,  // measure 63
0001
0010
0001
0010
,  // measure 64
0110
0000
0100
0000
1000
0100
0010
0001
,  // measure 65
1000
1000
0000
0001
1001
0000
1000
0001
,  // measure 66
0011
0000
0000
0100
0110
0000
0010
0011
,  // measure 67
0001
0000
0010
0100
1000
0000
0001
1000
,  // measure 68
0001
0000
0100
0001
1000
0000
0100
1000
,  // measure 69
0001
0000
0010
0100
1000
0000
0001
1000
,  // measure 70
0100
0000
0010
0100
1000
0000
0001
0100
,  // measure 71
0010
0000
1000
0100
0010
0000
0001
0000
,  // measure 72
1000
0000
0001
0000
0010
0000
0000
0100
,  // measure 73
0000
1000
0001
1000
;

//---------------dance-single - ----------------
#NOTEDATA:;
#CHARTNAME:X-Scale 6;
#STEPSTYPE:dance-single;
#DESCRIPTION:;
#CHARTSTYLE:;
#DIFFICULTY:Easy;
#METER:4;
#RADARVALUES:0.262420,0.391700,0.144074,0.223314,0.000000,255.000000,235.000000,20.000000,31.000000,0.000000,0.000000,0.000000,0.000000,0.000000,0.262420,0.391700,0.144074,0.223314,0.000000,255.000000,235.000000,20.000000,31.000000,0.000000,0.000000,0.000000,0.000000,0.000000;
#CREDIT:;
#NOTES:
0000
0000
0000
0000
,
0000
0000
0000
0000
,
0000
0000
0000
0000
,
0000
0000
0000
0000
,
0101
0000
0100
0000
0010
0000
0100
0002
,
1000
0000
1003
0001
0020
0000
0130
2000
,
0001
0000
3100
0010
0002
0000
1003
0200
,
0010
0000
1300
0100
0020
0000
0031
0000
,
0011
0000
0001
0000
2000
0000
0000
3200
,
0000
0000
0010
0000
1000
0000
0310
0002
,
0000
0000
1003
0010
0200
0000
0301
2000
,
0000
0000
3100
0010
0002
0000
1003
0000
,
0001
0000
0100
0000
0020
0000
0030
1000
,
2000
0000
0001
0000
0100
3000
1000
0002
,
0000
0000
0013
0100
2000
0000
3001
1000
,
0010
0100
0010
0100
,
0110
1000
0001
0020
,
0100
0000
0001
0000
0100
0030
0010
0002
,
0000
0000
1003
0001
0200
0000
0310
2000
,
0000
0000
3100
0010
0002
0000
1003
0000
,
0001
0000
0100
0000
0020
0000
0030
2000
,
0001
0000
0100
0000
0001
0000
3010
0200
,
0000
0000
0310
0100
0002
0000
1003
0100
,
0010
0001
1000
0001
0010
0001
1000
0001
,
1001
0000
0000
0000
0000
0000
0000
0001
,
0000
0000
0000
1000
0000
0000
0000
0000
,
0100
0000
0000
0000
0000
0000
0000
0010
,
0000
0000
0000
0001
0000
0000
0000
0000
,
1000
0000
0000
0000
0000
0000
0000
0001
,
0000
0000
0000
0100
0000
0000
0000
0000
,
0010
0000
0000
0000
,
1000
0001
1000
0001
,
0010
0000
0000
1000
0000
0000
0000
0001
,
0000
0000
0000
1000
0000
0000
0100
0000
,
1000
0000
0000
0001
0000
0000
0000
0010
,
0000
0000
0000
0001
0000
0000
0100
0000
,
0010
0000
0000
1000
0000
0000
0000
0001
,
0000
0000
0000
1000
0000
0000
0100
0000
,
0010
0000
0000
0002
0000
0000
0000
0000
,
0013
0000
0010
0000
,
0101
0001
0100
0010
,
1000
0001
0100
0010
,
1000
0100
0010
0001
,
1000
0100
0010
0001
,
1000
0010
1000
0010
,
1000
0010
1000
0000
0001
0000
0010
0100
,
0010
0000
0001
0000
0010
0100
0010
0000
,
0010
0100
0010
0000
0002
0000
2003
0000
,
3010
0100
0001
1000
,
0010
0100
0001
1000
,
0100
0010
0001
1000
,
0100
0010
0001
1000
,
0010
0000
1000
0000
0010
0000
1000
0010
,
1000
0000
0001
0000
0010
0000
0100
0010
,
0100
0000
1000
0000
0100
0010
0100
0000
,
0100
0010
0100
0000
2000
0000
3002
0000
,
0000
0000
0003
0020
0000
0000
0000
0000
,
0000
0000
0000
0000
,
0130
0000
0000
0000
0110
0000
0000
0001
,
0000
0000
1001
0000
,
1000
0000
0000
0000
1010
0000
0000
0001
,
0000
0000
0011
0000
,
0001
0000
0000
0000
1001
0000
0000
0100
,
0000
0000
1100
0000
,
1000
0000
0000
0000
1010
0000
0000
0001
,
0000
0000
0101
0000
,
0100
0000
0000
0000
1010
0000
0000
1000
,
0000
0000
1001
0000
,
0001
0000
0000
0000
0011
0000
0000
0100
,
0000
0000
0000
0010
0110
0000
0000
0000
,
1000
0000
0000
0000
1001
0000
0000
0001
,
0000
0000
0000
0010
0011
0000
0000
0000
,
0001
0000
1001
0000
;

//---------------dance-single - ----------------
#NOTEDATA:;
#CHARTNAME:X-Scale 1;
#STEPSTYPE:dance-single;
#DESCRIPTION:;
#CHARTSTYLE:;
#DIFFICULTY:Beginner;
#METER:1;
#RADARVALUES:0.103939,0.130567,0.000000,0.000000,0.000000,101.000000,101.000000,0.000000,0.000000,0.000000,0.000000,0.000000,0.000000,0.000000,0.103939,0.130567,0.000000,0.000000,0.000000,101.000000,101.000000,0.000000,0.000000,0.000000,0.000000,0.000000,0.000000,0.000000;
#CREDIT:;
#NOTES:
0000
0000
0000
0000
,
0000
0000
0000
0000
,
0000
0000
0000
0000
,
0000
0000
0000
0000
,
1000
0000
0000
0000
,
0100
0000
0000
0000
,
0010
0000
0000
0000
,
0001
0000
0000
0000
,
1000
0000
0010
0000
,
1000
0000
0010
0000
,
0100
0000
0001
0000
,
0100
0000
0001
0000
,
0010
0000
0100
0000
,
0010
0000
0100
0000
,
1000
0000
0001
0000
,
1000
0000
0001
0000
,
0010
0000
0100
0000
,
0010
0000
0100
0000
,
1000
0000
0100
0000
,
1000
0000
0100
0000
,
0010
0000
0001
0000
,
0010
0000
0001
0000
,
1000
0000
0010
0000
,
1000
0000
0010
0000
,
0100
0000
0000
0000
,
0000
0000
0000
0000
,
0001
0000
0000
0000
,
0000
0000
0000
0000
,
0010
0000
0000
0000
,
0000
0000
0000
0000
,
0100
0000
0000
0000
,
1000
0000
0000
0000
,
0001
0000
0000
0000
,
0000
0000
0000
0000
,
0010
0000
0000
0000
,
0000
0000
0000
0000
,
0100
0000
0000
0000
,
0000
0000
0000
0000
,
1000
0000
0000
0000
,
0001
0000
0000
0000
,
1000
0000
0001
0000
,
1000
0000
0001
0000
,
0010
0000
0100
0000
,
0010
0000
0100
0000
,
1000
0000
0001
0000
,
1000
0000
0001
0000
,
0010
0000
0100
0000
,
0010
0000
0100
0000
,
1000
0000
0001
0000
,
1000
0000
0001
0000
,
0010
0000
0100
0000
,
0010
0000
0100
0000
,
0010
0000
0001
0000
,
0010
0000
0001
0000
,
1000
0000
0100
0000
,
1000
0000
0100
0000
,
0000
0000
0000
0000
,
0000
0000
0000
0000
,
1000
0000
1000
0000
,
0000
0000
0001
0000
,
0010
0000
0001
0000
,
0000
0000
0100
0000
,
0010
0000
0100
0000
,
0000
0000
0001
0000
,
0100
0000
0001
0000
,
0000
0000
0010
0000
,
0100
0000
0010
0000
,
0000
0000
0001
0000
,
1000
0000
0001
0000
,
0000
0000
1000
0000
,
0100
0000
1000
0000
,
0000
0000
0100
0000
,
0010
0000
0100
0000
;
