#TITLE:Language;
#SUBTITLE:;
#ARTIST:Porter Robinson;
#TITLETRANSLIT:;
#SUBTITLETRANSLIT:;
#ARTISTTRANSLIT:;
#GENRE:Electro House;
#CREDIT:;
#BANNER:Language-bn.png;
#BACKGROUND:Language-bg.png;
#LYRICSPATH:;
#CDTITLE:cdtitle.png;
#MUSIC:Language.ogg;
#OFFSET:-0.007000;
#SAMPLESTART:37.507000;
#SAMPLELENGTH:15.000000;
#SELECTABLE:YES;
#DISPLAYBPM:64.000000:128.000000;
#BPMS:0.000000=64.000000
,16.000000=128.000000
,60.000000=64.000000
,62.000000=128.000000
,87.000000=256.000000
,88.000000=128.000000
,89.000000=256.000000
,90.000000=128.000000
,91.000000=256.000000
,92.000000=128.000000
,93.000000=256.000000
,94.000000=128.000000
,110.000000=64.000000
,150.000000=128.000000
,174.000000=256.000000
,174.500000=128.000000
,174.750000=64.000000
,175.000000=128.000000
,198.000000=64.000000
,206.000000=128.000000
,214.000000=64.000000
;
#STOPS:87.000000=0.117000,
87.500000=0.117000,
89.000000=0.117000,
89.500000=0.117000,
91.000000=0.117000,
91.500000=0.117000,
93.000000=0.117000,
93.500000=0.117000
;
#BGCHANGES:
;
#KEYSOUNDS:;
#ATTACKS:;

//---------------dance-single - ----------------
#NOTES:
     dance-single:
     X-Scale 13:
     Hard:
     9:
     0.550053,0.644714,0.052234,0.194011,0.522337,516.000000,509.000000,7.000000,26.000000,0.000000,0.000000,0.550053,0.644714,0.052234,0.194011,0.522337,516.000000,509.000000,7.000000,26.000000,0.000000,0.000000:
// measure 0
0000
0000
0000
0000
,  // measure 1
0000
0000
0000
0000
,  // measure 2
2000
0000
3000
0020
0000
0000
0000
0000
0100
0000
1000
0000
0130
0000
2000
3000
,  // measure 3
0002
0000
0003
0020
0000
0000
0000
0030
2000
3000
0020
0032
0000
0000
0000
0000
,  // measure 4
0013
0000
0001
0010
0200
0000
1300
0000
0010
1000
0200
0000
0310
0000
0001
0010
,  // measure 5
0200
0000
1300
0000
0001
1000
0020
0000
0130
0000
0001
0010
0002
0000
0003
0000
,  // measure 6
1000
0000
0000
0100
1000
0000
0001
0000
1000
0100
0000
0000
0010
0000
0000
0001
,  // measure 7
1000
0000
0100
0000
0010
0100
0000
0000
1000
0000
0000
0001
1001
0000
1000
0000
,  // measure 8
0001
0000
0010
0100
2000
0000
3001
0000
1000
0001
0200
0000
0310
0000
1000
0010
,  // measure 9
0200
0000
0301
0000
1000
0001
0020
0000
0130
0000
0010
0001
2000
0000
3001
0000
,  // measure 10
1000
0000
0000
0100
0010
0000
0100
0000
1000
0001
0000
0000
1000
0000
0000
0100
,  // measure 11
0010
0000
0001
0000
1000
0001
0000
0000
0100
0000
0000
0010
0100
0000
0010
0000
,  // measure 12
1000
0000
0001
0100
0020
0000
0031
0000
0010
0100
0020
0000
1030
0000
0100
0010
,  // measure 13
0002
0000
1003
0000
0010
1000
0002
0000
0103
0000
0010
0100
0002
0000
1003
0000
,  // measure 14
0001
0010
0100
1000
0001
0010
0100
1000
0001
0010
0100
1000
0001
0010
0100
1000
,  // measure 15
1001
0000
0000
1000
0000
0000
0001
0000
0000
1000
0000
0000
0001
0000
0001
0000
1001
0000
0000
0000
1000
0000
0000
0000
0100
0000
0000
0000
0001
0000
0000
0000
,  // measure 16
0100
1000
0100
0010
0100
1000
0001
0010
,  // measure 17
1000
0001
0100
1000
0001
0100
1000
0100
,  // measure 18
0001
0010
0100
1000
0010
0100
0010
1000
,  // measure 19
0100
0001
0100
1000
0001
0100
0010
1000
,  // measure 20
0100
1000
0001
0010
0100
0010
0001
0100
,  // measure 21
1000
0001
0010
1000
0001
1000
0100
0100
,  // measure 22
0001
1000
0100
0100
0001
1000
0100
0100
,  // measure 23
0001
1000
0100
0100
1001
0000
1000
0010
,  // measure 24
0100
1000
0100
0001
0010
1000
0010
0001
,  // measure 25
0100
0010
0100
0000
0001
1000
0100
0001
,  // measure 26
0100
1000
0010
0100
0010
1000
0001
1000
,  // measure 27
0010
0000
0001
0000
0010
0000
1000
0000
0010
1000
0001
0100
0001
0010
0100
1000
,  // measure 28
0000
0100
0010
0001
1000
0001
0100
0010
1000
0001
0010
0100
1000
0001
1000
0010
,  // measure 29
0100
1000
0100
0001
0010
1000
0010
0001
1000
0100
0001
1000
0010
0001
1000
0001
,  // measure 30
0000
0100
0010
0100
1000
0100
0001
0010
0100
1000
0001
0010
1000
0010
0100
1000
,  // measure 31
0000
0001
1000
0100
0001
0100
1000
0010
0100
1000
0100
0001
1000
0010
0100
0010
,  // measure 32
0000
1000
0100
0001
0100
0010
0001
1000
0001
0100
1000
0100
0010
0100
0001
0010
,  // measure 33
0000
0100
0010
0001
1000
0100
0001
0100
1000
0001
0010
0100
1000
0001
1000
0010
,  // measure 34
0000
0100
0010
0001
0010
1000
0001
0010
1000
0001
0100
1000
0001
1000
0010
0100
,  // measure 35
0000
0010
1000
0100
0010
0100
1000
0001
0100
1000
0100
0001
0010
0100
1000
0001
,  // measure 36
0000
1000
0001
0100
0010
0100
0001
0010
0100
1000
0001
1000
0100
0010
0100
1000
,  // measure 37
0002
0000
0000
0000
0000
1000
0100
1003
1001
0000
1000
0000
0001
0000
1000
0000
,  // measure 38
0100
0001
0100
1000
0010
0100
0010
1000
,  // measure 39
0100
0001
1000
0010
0001
0100
1000
0100
,  // measure 40
0001
0010
0100
0010
0001
1000
0010
0100
,  // measure 41
0010
0001
0010
1000
0001
0010
1000
0010
,  // measure 42
0001
1000
0010
0100
0010
1000
0001
0100
,  // measure 43
0010
0000
0100
0000
0001
0000
1000
0000
0200
0000
0000
0000
0310
0000
0100
1000
,  // measure 44
0000
1000
0000
0000
0001
0000
1000
0000
0100
0010
0100
0010
0100
0000
1000
0000
,  // measure 45
0001
1000
0100
0100
1001
0000
0001
0100
,  // measure 46
1000
0100
0010
0100
0001
0010
1000
0010
,  // measure 47
0001
0100
0010
0000
1000
0010
0001
0010
,  // measure 48
1000
0001
0100
0001
1000
0100
0010
0100
,  // measure 49
1000
0000
0001
0000
1000
0000
0010
0000
0100
0010
1000
0001
0010
0100
1000
0001
,  // measure 50
0000
1000
0100
0001
0100
1000
0010
0100
1000
0100
0010
1000
0001
0010
0100
1000
,  // measure 51
0000
0001
1000
0100
0001
0100
0010
0001
0011
0000
0000
0000
0010
0000
0100
0000
,  // measure 52
0010
0000
0000
0001
1000
0000
0001
0000
0100
0000
0000
0000
0010
0000
0100
0000
,  // measure 53
0001
0000
0000
1000
0100
0000
1000
0000
0002
0000
0000
0000
0000
0000
0000
0000
,  // measure 54
0003
0000
0000
0000
;

//---------------dance-single - ----------------
#NOTES:
     dance-single:
     X-Scale 10:
     Medium:
     7:
     0.382692,0.543977,0.082082,0.276093,0.227590,359.000000,348.000000,11.000000,37.000000,0.000000,0.000000,0.382692,0.543977,0.082082,0.276093,0.227590,359.000000,348.000000,11.000000,37.000000,0.000000,0.000000:
0000
0000
0000
0000
,
0000
0000
0000
0000
,
0001
0000
0000
0020
0000
0000
0000
0000
0000
0000
0000
0000
0030
0000
0100
0000
,
1000
0000
0000
0002
0000
0000
0000
0000
1003
0000
0100
2000
0000
0000
0000
0000
,
3100
1000
0010
0001
0010
1000
0001
0100
,
0010
0100
0001
1000
0100
0010
0001
0000
,
1000
0000
0000
0100
1000
0000
0001
0000
0000
0100
0001
0000
0010
0000
0000
0100
,
1000
0000
0001
0000
0000
0100
0001
0000
1000
0000
0000
0000
1000
0000
0000
0000
,
0001
0010
0100
1000
0001
0010
0100
1000
,
0001
0100
0010
1000
0001
0100
0010
1000
,
0100
0001
0100
1000
0100
0001
0100
1000
,
0001
0100
1000
0100
0001
0000
0001
0000
,
1000
0100
0010
0001
1000
0100
0010
0001
,
1000
0010
0100
0001
1000
0010
0100
0001
,
1000
0100
0001
0100
0010
0001
1000
0001
,
1002
0000
0000
0000
0000
0000
1000
1003
1001
0000
0000
0000
0100
0000
1000
0000
,
0001
0000
0100
0001
1000
0000
0100
1000
,
0001
0000
0100
0001
1000
0000
0100
0010
,
0001
0000
1000
0100
0010
0000
0100
0010
,
0001
0000
1000
0100
0010
0000
0001
1000
,
0010
0000
0100
0010
1000
0000
0001
1000
,
0010
0000
0100
0010
1000
0001
0000
0000
,
1000
0001
0000
0000
1000
0001
0000
0000
,
1000
0001
1001
0000
0210
0000
0301
2000
,
0100
0000
0010
0000
3100
1000
0001
1000
,
0100
0010
0002
0000
0203
0000
0310
2000
,
0100
0000
3002
0000
0013
0200
0000
0310
,
0001
0000
1000
0000
0001
0000
0010
0000
0001
0000
0000
2000
0000
0000
0000
0000
,
3000
0100
1000
0001
1000
0100
1000
0000
0001
0000
0000
0020
0000
0000
0000
0030
,
1000
0000
0010
0002
0000
0000
0000
2000
3003
0200
0000
0000
0010
0000
0000
0000
,
1300
0000
0000
0002
0000
0003
2000
0000
3000
0200
0000
0000
0000
0000
0000
0000
,
0300
0000
1000
0000
0100
0000
0010
0000
0001
0000
1000
0000
0010
0000
0100
0000
0001
0000
0010
0001
0010
0000
0100
0000
0000
0000
1000
0000
0000
0000
0001
0000
,
0000
1000
0000
0010
0000
0200
0000
0000
0301
0100
1000
0100
0010
0100
0001
0100
,
0000
0010
0100
0001
0010
1000
0010
0001
1000
0200
0000
0000
0010
0000
0000
0000
,
1300
0100
0010
0001
1000
0001
0100
0010
1000
0002
0000
0000
0100
0000
0000
0000
,
0003
1000
0001
0100
0010
1000
0001
0010
0100
1000
0000
0010
0000
1000
0000
0001
,
0000
0010
0000
0100
0000
1000
0000
0000
0001
0000
1000
0000
0001
0000
1000
0000
,
0200
0010
0010
0310
0110
0100
1000
0000
,
0001
1000
0100
0000
0010
0100
1000
0000
,
0001
1000
0010
0000
0100
0010
0001
0000
,
0001
0010
1000
0000
0001
0100
0010
0000
,
0100
0010
1000
0000
0100
0010
0001
0000
,
1000
0001
0100
0000
0010
0100
0001
0000
,
1000
0001
0010
0000
0011
0000
1001
1000
,
2000
0000
3200
0000
0310
0100
0010
0001
,
1000
0001
1001
0000
0210
0000
0301
0002
,
1000
0000
0100
0000
1003
0001
0010
1000
,
0010
0001
2000
0000
3020
0000
0130
2000
,
0001
0000
3200
0000
0310
0001
0000
1000
,
0100
0000
0001
0000
1000
0000
0010
0000
0002
0000
0003
2000
0000
0000
0000
0000
,
3000
0001
0100
1000
0001
0010
1000
0000
0200
0000
0300
0020
0000
0000
0000
0000
,
0031
0000
1000
0020
0000
0000
0000
0000
0130
0000
0000
0000
0010
0000
0100
0000
,
0001
0000
1001
0000
0001
0000
0010
0100
,
1000
1100
0200
0000
,
0300
0000
0000
0000
;

//---------------dance-single - ----------------
#NOTES:
     dance-single:
     X-Scale 5:
     Easy:
     3:
     0.241981,0.359294,0.037310,0.149239,0.000000,227.000000,222.000000,5.000000,20.000000,0.000000,0.000000,0.241981,0.359294,0.037310,0.149239,0.000000,227.000000,222.000000,5.000000,20.000000,0.000000,0.000000:
0000
0000
0000
0000
,
0000
0000
0000
0000
,
0001
0000
0000
0000
,
1000
0000
0000
0000
,
0010
0000
0000
0100
0000
0000
0010
0000
,
0000
0100
0000
0000
0010
0000
0000
0000
,
1000
0100
0000
0010
0001
0000
1000
0010
,
0000
0100
0001
0000
1000
0000
1000
0000
,
0001
0000
0000
0100
0000
0000
0001
0000
,
0000
0100
0000
0000
0001
0000
0000
0000
,
0010
0100
0000
1000
0010
0000
0100
0001
,
0000
0010
0100
0000
0010
0000
0010
0000
,
0001
0000
0000
1000
0000
0000
0001
0000
,
0000
1000
0000
0000
0001
0000
0000
0000
,
1000
0100
0000
0010
0001
0000
1000
0001
,
1002
1000
1003
0001
,
1000
0001
0010
0100
,
0010
0100
1000
0010
,
1000
0010
0100
0001
,
0100
0001
0010
0100
,
0010
0100
0010
0001
,
0010
0001
1000
0000
,
1000
0000
1000
0000
,
1000
0000
1001
0001
,
0010
0001
0010
0100
,
1000
0100
1000
0001
,
0100
0001
0100
0010
,
1000
0000
0010
0000
1000
0100
0010
0001
,
1000
0100
0010
0001
1000
0010
0100
0001
,
1000
0010
0100
0001
0020
0000
0230
0000
,
2300
3002
0203
0000
,
0320
0000
2030
3020
,
0230
0302
2003
0000
,
3020
0000
0230
0320
,
2030
3002
0023
0000
,
0230
0000
0000
0000
0310
0100
0010
0100
,
1000
0001
1000
0001
0010
0100
0010
0100
,
1000
0010
1000
0010
0110
0000
0100
0000
,
0010
0100
0001
0010
,
0100
0010
0001
1000
,
0100
0010
0100
1000
,
0001
0100
0001
1000
,
0010
0100
0010
1000
,
0001
0000
0010
0000
0200
0000
1300
0100
,
1000
0000
0010
0000
0100
0001
0100
0000
,
0010
0000
1000
0000
1001
0000
0001
1000
,
0010
0000
0100
0000
0001
0010
0001
0000
,
1000
0010
1000
0000
0001
0000
0100
0010
,
0100
0000
0001
0000
1000
0100
1000
0000
,
0001
0100
0001
0000
1000
0100
0010
0001
,
1000
0100
0010
0001
1000
0010
0100
0001
,
1000
0010
0100
0001
1001
0000
1000
0100
,
1000
0000
0001
0000
0010
0000
0100
0010
,
0100
1000
0100
0000
;

//---------------dance-single - ----------------
#NOTES:
     dance-single:
     X-Scale 1:
     Beginner:
     1:
     0.097006,0.119765,0.014924,0.000000,0.000000,91.000000,89.000000,2.000000,0.000000,0.000000,0.000000,0.097006,0.119765,0.014924,0.000000,0.000000,91.000000,89.000000,2.000000,0.000000,0.000000,0.000000:
0000
0000
0000
0000
,
0000
0000
0000
0000
,
0000
0000
0000
0000
,
0000
0000
0000
0000
,
1000
0000
0000
0000
,
0000
0000
0000
0000
,
1000
0000
0010
0000
,
0100
0000
0001
0000
,
1000
0000
0100
0000
,
0010
0000
0001
0000
,
1000
0000
0010
0000
,
0100
0000
0001
0000
,
1000
0000
0100
0000
,
0010
0000
0001
0000
,
1000
0000
0001
0000
,
1000
0000
0100
0000
,
0010
0000
0100
0000
,
0010
0000
0001
0000
,
1000
0000
0001
0000
,
1000
0000
0010
0000
,
0100
0000
0010
0000
,
0100
0000
0001
0000
,
0000
0000
0000
0000
,
0000
0000
1001
0000
,
0100
0000
0001
0000
,
1000
0000
0001
0000
,
0010
0000
0100
0000
,
1000
0000
0001
0000
,
0000
0000
0010
0000
,
0100
0000
0010
0000
,
0001
0000
1000
0000
,
0000
0000
0100
0000
,
1000
0000
0001
0000
,
0000
0000
0010
0000
,
0100
0000
1000
0000
,
0000
0000
0001
0000
,
0000
0000
1000
0000
,
0001
0000
1000
0000
,
0100
0000
1000
0000
,
0100
0000
0010
0000
,
0001
0000
0010
0000
,
0001
0000
1000
0000
,
0010
0000
1000
0000
,
0010
0000
0100
0000
,
0100
0000
0010
0000
,
0010
0000
0110
0000
,
0100
0000
0010
0000
,
1000
0000
0001
0000
,
0010
0000
0100
0000
,
1000
0000
0001
0000
,
0010
0000
0100
0000
,
1000
0000
0001
0000
,
1000
0000
0100
0000
,
1000
0000
0001
0000
;
