#VERSION:0.83;
#TITLE:Lalala Remix;
#SUBTITLE:;
#ARTIST:Y2K, bbno$, Carly Rae Jepsen & Enrique Iglesias;
#TITLETRANSLIT:;
#SUBTITLETRANSLIT:;
#ARTISTTRANSLIT:;
#GENRE:Trap;
#ORIGIN:;
#CREDIT:;
#BANNER:Lalala Remix-bn.png;
#BACKGROUND:Lalala Remix-bg.png;
#PREVIEWVID:;
#JACKET:Lalala Remix-jacket.png;
#CDIMAGE:;
#DISCIMAGE:;
#LYRICSPATH:;
#CDTITLE:cdtitle.png;
#MUSIC:Lalala Remix.ogg;
#OFFSET:-0.327000;
#SAMPLESTART:8.596000;
#SAMPLELENGTH:15.250000;
#SELECTABLE:YES;
#BPMS:0.000=130.000;
#STOPS:;
#DELAYS:;
#WARPS:;
#TIMESIGNATURES:0.000=4=4;
#TICKCOUNTS:0.000=4;
#COMBOS:0.000=1;
#SPEEDS:0.000=1.000=0.000=0;
#SCROLLS:0.000=1.000;
#FAKES:;
#LABELS:0.000=Song Start;
#BGCHANGES:;
#KEYSOUNDS:;
#ATTACKS:
;

//---------------dance-single - ----------------
#NOTEDATA:;
#CHARTNAME:X-Scale 11;
#STEPSTYPE:dance-single;
#DESCRIPTION:;
#CHARTSTYLE:;
#DIFFICULTY:Hard;
#METER:8;
#RADARVALUES:0.531906,0.605167,0.168791,0.238294,0.134040,375.000000,358.000000,17.000000,24.000000,0.000000,0.000000,0.000000,0.000000,0.000000,0.531906,0.605167,0.168791,0.238294,0.134040,375.000000,358.000000,17.000000,24.000000,0.000000,0.000000,0.000000,0.000000,0.000000;
#CREDIT:;
#NOTES:
0000
0000
0000
0000
,
0000
0000
0000
0000
,
0000
0000
0000
0000
,
0000
0000
0000
0000
,
0000
0000
0000
0000
1000
0100
2100
0000
,
3002
0000
0013
1000
0010
0101
0000
1000
,
0100
0001
0100
1000
0100
0010
0002
0000
,
2003
0000
3010
0100
0010
1010
0000
0001
,
0010
1000
0010
0001
1000
0100
0020
0230
,
0320
0030
0001
1000
0100
1010
0000
0001
,
0010
0100
1000
0000
0001
1000
0010
0100
,
0010
0001
0010
0100
0001
1001
0000
1000
,
0100
0010
0001
0100
0010
1000
0001
0001
,
0001
0000
0000
0001
0001
0001
0000
0001
,
0010
0100
1000
0010
0100
0001
1000
1000
,
1000
0000
0000
1000
1000
1000
0000
1000
,
0100
0000
0010
0000
0001
0010
0000
0000
0001
0000
1000
0000
0001
0000
0001
0000
,
0001
0000
1000
0001
0001
0001
0000
0001
,
0100
0010
1000
0100
0010
0001
1000
1000
,
1000
0000
0001
1000
1000
1000
0020
0000
,
0000
0000
0000
0000
0030
0000
1000
0010
1000
0002
0000
0003
1001
0000
1000
0000
,
1000
0000
0100
1000
1000
1000
0000
0001
,
0010
0100
1000
0010
0100
0001
1000
1000
,
1000
0000
0000
0000
0100
0000
1000
0000
1000
0000
1000
0000
0100
0000
0010
0100
,
1000
0000
0001
0000
0100
0000
0001
0010
0100
0000
1000
0001
0100
0000
0001
0000
,
0001
0000
1000
0001
0001
0001
0000
0010
,
0100
0000
1000
0000
0001
0000
0100
0000
0010
0000
1000
0010
1000
0000
1000
0000
,
1000
0000
0000
0000
0100
0000
1000
0000
1000
0000
1000
0001
0000
0000
0000
0000
,
1000
0100
0020
0000
0032
0000
1003
0001
,
0010
1000
0010
0001
0100
0010
1000
0001
,
1000
0000
0100
0000
1010
0000
0000
0000
0100
0000
0001
1000
0001
0000
0001
0000
,
0010
0000
1000
0000
0010
0000
0001
1000
0010
0000
0100
0000
0010
0000
1000
0100
,
0010
0000
0000
0000
0000
0000
0001
0000
0000
0000
0000
0000
0101
0000
0000
0000
0000
0000
0100
0000
0010
0000
0100
0000
0010
0000
0000
0000
0000
0000
1000
0000
0000
0010
0000
0000
1000
0000
0000
0000
0000
0000
0001
0000
0000
0000
0000
0000
,
0010
0000
1000
0000
0010
0000
0001
0010
0100
0000
0010
0000
0001
0000
1000
0000
,
0010
0000
1000
0000
1010
0000
0001
0000
1000
0000
0100
0010
0001
0000
0001
0000
,
1000
0000
0100
0000
0010
0000
0100
0010
0001
0000
1000
0000
0002
0000
0203
0000
,
0302
0003
0000
0000
1000
0100
2100
0000
,
3002
0000
0103
0010
0100
1010
1000
0100
,
0010
0000
0001
0000
0101
0000
0100
0000
1100
0000
1000
0001
2000
0000
0000
0000
,
3002
0000
0000
0000
0013
0000
0100
0000
1000
0000
1001
0000
0001
0000
0010
0001
,
1000
0000
0010
0000
0001
0000
0010
0100
0010
0000
1000
0010
2000
0000
3002
0000
,
2003
3000
0100
1000
0001
1001
1000
0100
,
0001
0000
0010
0000
1000
0000
0001
0000
1000
0000
0010
1000
0001
0000
0100
0000
,
1000
0000
0001
0000
0010
0000
1000
0010
1000
0000
1010
0000
0000
0000
0001
0000
,
0010
0100
1000
0010
0100
0001
1001
1000
,
1000
0000
0100
1000
1000
1000
0000
1000
,
0100
0010
0001
0100
0010
1000
0001
0001
,
0001
0000
0000
0000
0100
0000
0001
0000
0001
0000
0001
0000
0000
0000
1000
0001
,
1000
0000
0100
0000
0010
0000
0001
0010
0001
0000
1000
0010
1000
0000
1000
0000
,
1000
0000
0001
1000
1000
1000
0000
0001
,
0100
1000
0100
0010
0100
0001
0001
0001
,
0001
0000
0000
0000
0100
0000
0001
0000
0001
0000
0001
1000
0000
0000
0000
0000
,
0001
1000
0020
0000
0230
0000
0302
0000
,
0003
0000
0000
0000
;

//---------------dance-single - ----------------
#NOTEDATA:;
#CHARTNAME:X-Scale 9;
#STEPSTYPE:dance-single;
#DESCRIPTION:;
#CHARTSTYLE:;
#DIFFICULTY:Medium;
#METER:6;
#RADARVALUES:0.411341,0.447297,0.158863,0.109218,0.000000,290.000000,274.000000,16.000000,11.000000,0.000000,0.000000,0.000000,0.000000,0.000000,0.411341,0.447297,0.158863,0.109218,0.000000,290.000000,274.000000,16.000000,11.000000,0.000000,0.000000,0.000000,0.000000,0.000000;
#CREDIT:;
#NOTES:
0000
0000
0000
0000
,
0000
0000
0000
0000
,
0000
0000
0000
0000
,
0000
0000
0000
0000
,
0000
0000
0000
1001
,
1000
0000
0001
0010
0100
1000
0000
1000
,
0010
0100
0001
0100
0010
1000
0001
0000
,
1000
0000
0010
0100
0001
1000
0000
1000
,
0100
0010
0001
0010
0100
1000
0001
0100
,
0001
0000
1000
0100
0010
0001
0000
0001
,
1000
0100
0001
0000
1000
0010
0001
0100
,
0010
0100
0001
0010
0100
1000
0000
0000
,
0001
0100
0010
0100
0001
0100
0010
1000
,
0010
0000
0000
1000
0010
1000
0000
0000
,
0001
1000
0100
1000
0001
1000
0100
0010
,
0100
0000
0000
0010
0100
0010
0000
0000
,
0001
0010
0100
0010
0001
0010
0100
1000
,
0100
0000
0000
1000
0100
1000
0000
0000
,
0001
1000
0100
1000
0001
1000
0100
0010
,
0100
0000
0000
0010
0100
0010
0000
0000
,
0000
0000
0000
0000
0000
0000
1001
1000
,
0001
0000
1000
0001
1000
0100
0000
0000
,
0010
0100
1000
0001
1000
0100
0010
0001
,
0010
0000
0001
1000
0001
0010
0000
0000
,
0100
1000
0100
0001
0100
0010
0100
1000
,
0100
0000
1000
0001
0100
0001
0000
0000
,
1000
0100
0001
0010
1000
0100
0010
0001
,
0010
0000
0001
1000
0010
1000
0000
0000
,
0001
0020
0230
2300
,
3010
0000
0100
0000
0001
0010
0200
0000
,
0300
1100
0110
0011
,
1000
0000
0010
0000
0100
0010
2000
0000
,
3000
0101
0110
1010
,
1000
0000
0001
0000
0010
0100
2000
0000
,
3000
1100
0110
0011
,
0001
0000
1000
0000
0010
0100
0002
0000
,
0003
2000
0000
3001
,
1000
0000
0001
0100
0010
1001
0000
0001
,
0010
1000
0010
0100
0010
0001
1000
0000
,
0001
0000
0010
0100
1000
1100
0000
0001
,
0100
1000
0100
0010
1000
0100
0010
0001
,
1000
0000
0001
0010
0100
1010
0000
1000
,
0001
0100
0001
0000
1000
0100
0010
0100
,
1000
0001
0100
0010
1000
1001
0000
0000
,
1000
0100
0001
0100
1000
0100
1010
1000
,
0010
0000
0000
1000
0010
1000
0000
0000
,
0001
0100
1000
0100
0010
0100
0001
1000
,
0001
0000
0000
1000
0001
1000
0000
0000
,
0001
0010
0100
1000
0010
0100
0001
1000
,
0001
0000
0000
1000
0001
1000
0000
0000
,
0010
0100
1000
0100
0001
0010
0100
1000
,
0100
0000
0000
1000
0100
1000
0000
0000
,
0001
0020
0230
2300
,
3000
0000
0000
0000
;

//---------------dance-single - ----------------
#NOTEDATA:;
#CHARTNAME:X-Scale 5;
#STEPSTYPE:dance-single;
#DESCRIPTION:;
#CHARTSTYLE:;
#DIFFICULTY:Easy;
#METER:4;
#RADARVALUES:0.256733,0.340437,0.099289,0.000000,0.000000,181.000000,171.000000,10.000000,0.000000,0.000000,0.000000,0.000000,0.000000,0.000000,0.256733,0.340437,0.099289,0.000000,0.000000,181.000000,171.000000,10.000000,0.000000,0.000000,0.000000,0.000000,0.000000,0.000000;
#CREDIT:;
#NOTES:
0000
0000
0000
0000
,
0000
0000
0000
0000
,
0000
0000
0000
0000
,
0000
0000
0000
0000
,
0000
0000
0000
1001
,
1000
0000
0001
0000
0000
1001
0000
0000
,
1000
0100
0010
0001
,
1000
0000
0001
0000
0000
1001
0000
0000
,
0001
0000
0100
0000
0010
0000
1000
0010
,
1000
0000
0001
0000
0000
1001
0000
0000
,
1000
0100
0010
0000
0100
0010
0001
0000
,
1000
0000
0010
0100
0010
0100
0000
0000
,
0001
0010
0100
1000
,
1000
0000
0000
1000
0000
1000
0000
0000
,
0001
1000
0010
1000
,
1000
0000
0000
1000
0000
1000
0000
0000
,
0100
0010
0001
1000
,
1000
0000
0000
1000
0000
1000
0000
0000
,
0001
1000
0010
1000
,
1000
0000
0000
1000
0000
1000
0000
0000
,
0000
0000
0000
0000
0000
0000
1100
1000
,
0100
0000
0000
1000
0100
1000
0000
0000
,
0001
0000
1000
0000
0010
0000
0100
0010
,
0100
0000
0000
0010
0100
0010
0000
0000
,
1000
0000
0001
0000
0010
0000
0100
1000
,
0100
0000
0000
1000
0100
1000
0000
0000
,
0001
0000
1000
0000
0100
0000
0010
0100
,
0010
0000
0000
0100
0010
0100
0000
0000
,
0000
0000
0001
1001
,
0000
1000
0000
0100
,
0000
0010
0100
1000
,
0000
0001
0000
0100
,
0000
0010
0100
0001
,
0000
1000
0000
0100
,
0000
0010
0100
1000
,
0000
0001
0000
0010
,
0000
0000
0000
0011
,
0010
0000
0001
0000
0000
0011
0000
0000
,
1000
0001
1000
0100
,
0010
0000
0001
0000
0000
1001
0000
0000
,
0010
0000
1000
0000
0001
0000
1000
0100
,
0010
0000
0100
0000
0000
1010
0000
0000
,
0001
0010
0100
0000
0010
0100
1000
0000
,
0001
0000
0100
0010
0100
0010
0000
0000
,
1000
0100
0010
0001
,
0001
0000
0000
0001
0000
0001
0000
0000
,
1000
0001
0100
0001
,
0001
0000
0000
0001
0000
0001
0000
0000
,
0010
0100
1000
0001
,
0001
0000
0000
0001
0000
0001
0000
0000
,
1000
0001
0100
0001
,
0001
0000
0000
0001
0000
0001
0000
0000
,
0000
1000
0100
1000
;

//---------------dance-single - ----------------
#NOTEDATA:;
#CHARTNAME:X-Scale 2;
#STEPSTYPE:dance-single;
#DESCRIPTION:;
#CHARTSTYLE:;
#DIFFICULTY:Beginner;
#METER:2;
#RADARVALUES:0.163118,0.209500,0.009929,0.000000,0.000000,115.000000,114.000000,1.000000,0.000000,0.000000,0.000000,0.000000,0.000000,0.000000,0.163118,0.209500,0.009929,0.000000,0.000000,115.000000,114.000000,1.000000,0.000000,0.000000,0.000000,0.000000,0.000000,0.000000;
#CREDIT:;
#NOTES:
// measure 0
0000
0000
0000
0000
,  // measure 1
0000
0000
0000
0000
,  // measure 2
0000
0000
0000
0000
,  // measure 3
0000
0000
0000
0000
,  // measure 4
0000
0000
0000
1000
,  // measure 5
0000
0000
0001
0000
0000
0001
0000
0000
,  // measure 6
0000
0010
0000
0100
,  // measure 7
0000
0000
1000
0000
0000
1000
0000
0000
,  // measure 8
0000
0001
0000
1000
,  // measure 9
0000
0000
0100
0000
0000
0100
0000
0000
,  // measure 10
0000
0010
0000
0100
,  // measure 11
0000
0000
1000
0000
0000
1000
0000
0000
,  // measure 12
0000
0000
0000
0001
,  // measure 13
0000
0000
1000
0000
0000
1000
0000
0000
,  // measure 14
0000
0100
0000
0010
,  // measure 15
0000
0000
0001
0000
0000
0001
0000
0000
,  // measure 16
0000
0100
0000
0010
,  // measure 17
0000
0000
0100
0000
0000
0100
0000
0000
,  // measure 18
0000
0001
0000
1000
,  // measure 19
0000
0100
0000
1000
,  // measure 20
0000
0000
0000
0001
,  // measure 21
0001
0000
0000
0001
0000
0001
0000
0000
,  // measure 22
1000
0100
1000
0100
,  // measure 23
0100
0000
0000
0100
0000
0100
0000
0000
,  // measure 24
0010
0001
0010
0001
,  // measure 25
0001
0000
0000
0001
0000
0001
0000
0000
,  // measure 26
1000
0010
1000
0010
,  // measure 27
0010
0000
0000
0010
0000
0010
0000
0000
,  // measure 28
0000
0000
0000
1000
,  // measure 29
0000
0001
0000
1000
,  // measure 30
0000
0001
0000
0100
,  // measure 31
0000
0010
0000
0100
,  // measure 32
0000
0010
0000
1000
,  // measure 33
0000
0010
0000
1000
,  // measure 34
0000
0010
0000
0100
,  // measure 35
0000
0001
0000
0100
,  // measure 36
0000
0000
0000
1001
,  // measure 37
0000
0000
0001
0000
0000
0010
0000
0000
,  // measure 38
0000
0001
0000
1000
,  // measure 39
0000
0000
0100
0000
0000
1000
0000
0000
,  // measure 40
0000
0001
0000
0010
,  // measure 41
0000
0000
0001
0000
0000
0100
0000
0000
,  // measure 42
0000
0010
0000
1000
,  // measure 43
0000
0000
0001
0000
0000
1000
0000
0000
,  // measure 44
0000
0001
0000
1000
,  // measure 45
1000
0000
0000
1000
0000
1000
0000
0000
,  // measure 46
0001
1000
0001
0010
,  // measure 47
0010
0000
0000
0010
0000
0010
0000
0000
,  // measure 48
0100
0010
0001
1000
,  // measure 49
1000
0000
0000
1000
0000
1000
0000
0000
,  // measure 50
0010
1000
0001
0100
,  // measure 51
0100
0000
0000
0100
0000
0100
0000
0000
,  // measure 52
0000
0001
0010
0100
;
