#VERSION:0.83;
#TITLE:LOOP feat. Lil Cherry;
#SUBTITLE:;
#ARTIST:Yves;
#TITLETRANSLIT:;
#SUBTITLETRANSLIT:;
#ARTISTTRANSLIT:;
#GENRE:UK Garage;
#ORIGIN:;
#CREDIT:;
#BANNER:LOOP feat. Lil Cherry-bn.png;
#BACKGROUND:LOOP feat. Lil Cherry-bg.png;
#PREVIEWVID:;
#JACKET:LOOP feat. Lil Cherry-jacket.png;
#CDIMAGE:;
#DISCIMAGE:;
#LYRICSPATH:;
#CDTITLE:cdtitle.png;
#MUSIC:LOOP feat. Lil Cherry.ogg;
#OFFSET:-0.005000;
#SAMPLESTART:37.500000;
#SAMPLELENGTH:15.000000;
#SELECTABLE:YES;
#BPMS:0.000=128.000;
#STOPS:13.000=0.234,
13.500=0.234,
14.000=0.469,
43.000=1.406,
72.000=0.234,
72.500=0.234,
73.000=0.469;
#DELAYS:;
#WARPS:;
#TIMESIGNATURES:0.000=4=4;
#TICKCOUNTS:0.000=4;
#COMBOS:0.000=1;
#SPEEDS:0.000=1.000=0.000=0;
#SCROLLS:0.000=1.000;
#FAKES:;
#LABELS:0.000=Song Start;
#BGCHANGES:1.000=LOOP feat. Lil Cherry.avi=1.000=0=0=0=StretchNoLoop====,
99999=-nosongbg-=1.000=0=0=0 // don't automatically add -songbackground-
;
#KEYSOUNDS:;
#ATTACKS:
;

//---------------dance-single - ----------------
#NOTEDATA:;
#CHARTNAME:X-Scale 3;
#STEPSTYPE:dance-single;
#DESCRIPTION:;
#CHARTSTYLE:;
#DIFFICULTY:Beginner;
#METER:2;
#RADARVALUES:0.098980,0.125580,0.000000,0.000000,0.000000,90.000000,90.000000,0.000000,0.000000,0.000000,0.000000,0.000000,0.000000,0.000000,0.098980,0.125580,0.000000,0.000000,0.000000,90.000000,90.000000,0.000000,0.000000,0.000000,0.000000,0.000000,0.000000,0.000000;
#CREDIT:iamthek3n;
#NOTES:
0000
0000
0000
0000
,
0000
0000
0000
0000
,
0000
0000
0000
0000
,
0000
0000
0000
0000
,
1000
0000
0001
0000
,
0100
0000
0001
0000
,
1000
0000
0001
0000
,
0100
0000
0010
0000
,
1000
0000
0001
0000
,
1000
0000
0010
0000
,
1000
0000
0100
0000
,
1000
0000
0000
0000
,
0001
0000
0100
0001
,
0100
0000
0000
0000
,
0010
0000
1000
0001
,
1000
0000
0000
0000
,
0100
0000
0010
0000
,
0001
0000
0000
0000
,
1000
0000
0001
0000
,
0000
0000
0100
0000
,
0000
0000
0001
0000
,
0000
0000
1000
0000
,
0000
0000
0100
0000
,
0000
0000
0010
0000
,
0000
0000
0001
0000
,
0000
0000
1000
0000
,
0000
0000
0001
0000
,
1000
0000
0001
0000
,
1000
0000
0100
0000
,
0010
0000
0100
0000
,
0010
0000
0001
0000
,
1000
0000
0001
0000
,
1000
0000
0010
0000
,
0100
0000
0010
0000
,
0100
0000
0001
0000
,
0000
0000
1000
0000
,
0000
0000
0100
0000
,
0000
0000
1000
0000
,
0000
0000
0001
0000
,
0010
0000
0100
0000
,
0010
0000
0001
0000
,
1000
0000
0001
0000
,
0000
0000
0100
0000
,
0000
0000
0010
0000
,
0000
0000
1000
0000
,
0000
0000
0001
0000
,
0000
0000
0010
0000
,
0000
0000
0100
0000
,
0000
0000
1000
0000
,
0000
0000
0001
0000
,
0000
0000
1000
0000
,
0100
0000
1000
0000
,
0100
0000
0010
0000
,
0001
0000
0010
0000
,
0001
0000
1000
0000
,
0001
0000
1000
0000
,
0001
0000
0000
0000
,
0000
0000
0000
0000
,
0000
0000
0010
0000
,
0000
0100
0000
0000
,
0000
0000
1000
0000
,
0000
0001
0000
0000
,
0000
0000
0100
0000
,
0000
0010
0000
0000
,
0000
0000
1000
0000
,
0000
0001
0000
0000
;

//---------------dance-single - ----------------
#NOTEDATA:;
#CHARTNAME:X-Scale 7;
#STEPSTYPE:dance-single;
#DESCRIPTION:;
#CHARTSTYLE:;
#DIFFICULTY:Easy;
#METER:5;
#RADARVALUES:0.291440,0.330262,0.061587,0.153968,0.000000,265.000000,257.000000,8.000000,20.000000,0.000000,0.000000,0.000000,0.000000,0.000000,0.291440,0.330262,0.061587,0.153968,0.000000,265.000000,257.000000,8.000000,20.000000,0.000000,0.000000,0.000000,0.000000,0.000000;
#CREDIT:iamthek3n;
#NOTES:
0000
0000
0000
0000
,
0000
0000
0000
0000
,
0000
0000
0000
0000
,
0000
0000
0000
0001
,
1000
0000
0000
0001
0100
0000
0001
0000
,
1000
0000
0000
0100
0010
0000
0100
0000
,
1000
0000
0000
0001
0010
0000
0001
0000
,
1000
0000
0000
0100
0010
0000
0100
0000
,
1000
0000
0000
0001
0100
0000
0001
0000
,
1000
0000
0000
0010
0100
0000
0001
0000
,
1000
0000
0000
0100
0010
0000
0011
0000
,
2001
0000
0100
0000
0000
3100
1000
0001
,
0000
0000
0100
0000
0001
1000
0001
0000
,
0010
0000
0100
0000
1000
0100
1000
0000
,
0001
0000
0100
0000
0001
1000
0001
1000
,
0001
0000
0100
0000
0010
0100
0001
0000
,
1000
0000
0100
0000
0010
0100
1000
0000
,
0001
0000
0010
0000
0100
0010
0001
0000
,
0000
0000
1001
0001
,
1000
0002
0103
0010
,
1000
0100
0010
0100
,
1000
0002
0103
0001
,
0010
0100
1100
1000
,
0001
0100
0002
0000
0013
0000
0100
0000
,
1000
0100
1000
0000
0100
0000
0010
0000
,
0100
1000
0001
0000
,
0100
0001
1000
0001
,
0100
0010
0100
0010
1000
0000
0001
0000
,
0100
0001
1000
0000
0001
0000
0010
0000
,
0100
1000
0100
1000
0001
0000
1000
0000
,
0010
0100
0001
0000
1000
0000
0100
0000
,
0010
0001
0010
0001
1000
0000
0001
0000
,
0100
0001
1000
0000
0001
0000
0100
0000
,
0001
1000
0001
1000
0010
0000
0100
0000
,
0001
0010
0001
0000
0011
0000
0000
0000
,
1000
0000
0001
0100
0001
0000
0000
0000
,
0010
0000
0100
1000
0100
0000
0000
0000
,
0010
0000
0001
0010
0001
0000
0000
0000
,
1000
0001
1000
0000
1001
0000
0100
0000
,
1000
0000
0001
0010
0100
0000
0010
0000
,
0001
0000
1000
0000
0001
0000
0100
0001
,
1000
0000
0100
0000
0010
0100
1000
0001
,
2000
3000
1001
1000
,
0001
0100
0001
0000
1000
0000
0100
0000
,
0010
0100
0010
0000
0001
0000
1000
0000
,
0010
0100
0010
0000
1000
0000
0001
0000
,
0100
0001
0100
0000
0010
0000
1000
0000
,
0001
0010
0001
0000
1000
0000
0100
0000
,
0010
0001
0010
0000
0200
0000
2300
0000
,
3002
0000
0103
0000
0002
0000
1003
0100
,
0020
0230
1300
1100
,
1000
0001
1000
0001
0100
0000
0001
0000
,
0010
0100
1000
0000
0001
0000
0100
0000
,
0010
0100
0010
0100
0001
0000
1000
0000
,
0100
0010
0001
0000
1000
0000
0001
0000
,
0010
0001
0010
0001
1000
0000
0001
0000
,
0010
0001
1000
0000
0000
0000
0000
0000
,
0200
0000
0000
0000
,
0000
0000
2300
0000
,
0000
3002
0000
0000
,
0000
0000
0203
0000
,
0000
0302
0000
0000
,
0000
0000
0023
0000
,
0000
0230
0000
0000
,
0000
0000
2300
0000
,
0000
0002
0000
0000
,
3003
0000
0000
0000
;

//---------------dance-single - ----------------
#NOTEDATA:;
#CHARTNAME:X-Scale 10;
#STEPSTYPE:dance-single;
#DESCRIPTION:;
#CHARTSTYLE:;
#DIFFICULTY:Medium;
#METER:7;
#RADARVALUES:0.406916,0.482690,0.207857,0.200159,0.161667,370.000000,343.000000,27.000000,26.000000,0.000000,0.000000,0.000000,0.000000,0.000000,0.406916,0.482690,0.207857,0.200159,0.161667,370.000000,343.000000,27.000000,26.000000,0.000000,0.000000,0.000000,0.000000,0.000000;
#CREDIT:iamthek3n;
#NOTES:
0000
0000
0000
0000
,
0000
0000
0000
0000
,
0000
0000
0000
0000
,
0000
0000
0000
0001
,
1001
0000
0000
0000
1000
0000
0000
0100
0000
0000
0010
0000
0001
0000
0000
0100
,
0000
0001
1000
0000
1001
0000
0100
0000
,
1100
0000
0000
0000
1000
0000
0000
0001
0000
0000
0100
0000
0001
0000
0000
1000
,
0000
0010
0100
0000
0110
0000
0001
0000
,
1001
0000
0000
0000
1000
0000
0000
0100
0000
0000
1000
0000
0001
0000
0000
0010
,
0000
0001
0100
0000
0101
0000
1000
0000
,
1001
0000
0000
0000
1000
0000
0000
0100
0000
0000
0010
0000
0022
0000
0033
0000
,
1001
0000
0010
0000
1000
0010
1000
0001
,
0000
0001
0000
0000
0010
0000
0000
1000
0000
0000
1000
0000
0010
0000
0100
0000
,
1000
0000
0001
0000
1000
0100
1000
0001
,
0000
0001
0000
0000
0100
0000
0001
0100
0000
0000
0001
0000
1000
0000
0001
0000
,
1000
0000
0000
0000
0100
0000
0010
0000
0001
0000
0000
1000
0000
0000
0001
0000
,
0000
0100
0001
0100
0010
0000
1000
0010
,
0100
0000
0001
0010
0100
0000
1000
0001
,
0200
0000
0000
0000
0000
0000
0000
0000
0000
0000
0000
0000
0000
0000
0000
0000
0000
0000
0000
0000
0000
0000
0000
0000
0000
0000
0000
0000
0000
0000
0000
0000
0000
0000
0000
0000
0000
0000
0000
0000
0000
0000
0000
0000
0000
0000
0000
0000
0000
0300
0000
0000
0000
0000
0000
0000
0000
0000
0000
0000
0000
0000
0000
0000
0000
0000
0000
0000
0000
0000
0000
0000
0000
0000
0000
0000
0000
0000
0000
0000
0000
0000
0000
0000
0000
0000
0000
0000
0000
0000
0000
0000
0000
0000
0000
0000
1001
0000
0000
0000
0000
0000
0000
0000
0000
0000
0000
0000
0000
0000
0000
0000
0000
0000
0000
0000
0000
0000
0000
0000
0000
0000
0000
0000
0000
0000
0000
0000
0000
0000
0000
0000
0000
0000
0000
0000
0000
0000
0000
0000
0000
0000
0000
0000
0001
0000
0000
0000
0000
0000
0000
0000
0000
0000
0000
0000
0000
0000
0000
0000
0000
0000
0000
0000
0000
0000
0000
0000
0100
0000
0000
0000
0000
0000
0000
0000
0000
0000
0000
0000
0000
0000
0000
0000
0000
0000
0000
0000
0000
0000
0000
0000
,
1000
0100
0002
0000
1003
0000
0010
0100
,
0001
1000
0200
0000
0310
0000
0001
0010
,
1000
0010
0002
0000
0103
0000
0001
0100
,
0010
1000
0001
0000
1001
0000
1000
0100
,
0001
0100
2000
0000
3001
0000
0100
0001
,
1000
0000
0001
0000
0010
0100
0000
0000
2000
0000
0000
0000
3002
0000
0003
0000
,
0002
0000
0003
0000
1000
0100
0000
0000
0020
0000
0000
0000
1030
0000
0010
0000
,
0002
0103
0001
1001
,
0001
0100
1000
0100
0001
0000
0001
0000
,
1000
0100
0010
0000
0100
0000
1100
0000
,
1000
0100
0001
0100
1000
0000
1000
0000
,
0001
0100
0010
0000
0100
0000
0101
0000
,
0001
0100
1000
0100
0001
0000
0001
0000
,
0010
0100
1000
0000
0010
0000
1001
0000
,
0001
0000
0100
0000
1000
0000
0100
0000
0001
0000
0000
0001
1000
0000
0000
1000
,
0010
0000
0000
0010
0200
0000
0300
0000
0101
0000
0000
0001
0000
0000
1000
0000
,
0010
0000
0000
0010
0000
0000
1000
0000
0100
0000
0000
0100
0000
0000
0010
0000
,
0001
0000
0010
0000
1000
0000
0010
0000
0001
0000
0000
0001
0000
0000
0100
0000
,
0001
0000
0000
0010
0000
0000
0100
0000
1000
0000
0000
1000
0000
0000
0001
0000
,
0100
0000
0001
0000
0202
0000
0303
0000
1100
0000
0000
0100
1000
0000
0001
0000
,
1000
0000
0000
0100
0010
0000
0100
0000
1000
0000
0000
0001
0100
0000
0001
0000
,
1000
0000
0010
0100
0020
0000
0000
0000
1030
0000
0000
1000
0001
0000
0100
0000
,
0001
0000
0000
0001
0010
0000
0100
0000
1000
0001
0000
1000
0001
0000
0010
0100
,
0000
0010
0100
0000
0000
0000
0000
0000
1100
0000
0000
0000
1000
0000
0100
0000
,
0001
0100
2000
0000
3001
0000
0100
0001
,
1000
0001
0020
0000
0130
0000
1000
0010
,
0001
0010
2000
0000
3001
0000
0010
0100
,
1000
0000
0001
0000
0100
0000
0000
0000
0101
0000
0000
0000
0001
0000
0000
0100
,
0001
0000
1000
0000
0200
0000
0000
0000
0301
0000
0100
0000
0010
0000
0000
0010
,
0001
0000
1000
0000
0000
0001
0000
0000
0020
0000
0000
0000
0230
0000
0000
0000
,
2300
0000
3001
0000
0200
0000
0310
0100
,
0002
0000
0000
0000
2003
0000
0000
0000
3100
0000
0000
0000
1100
0000
0000
0100
,
1000
0000
0100
0000
0001
0000
0100
0000
1000
0000
0000
0000
1000
0000
0000
0001
,
0100
0000
0001
0000
1000
0000
0001
0000
0100
0000
0000
0000
0101
0000
0000
0100
,
0001
0000
1000
0000
0010
0000
1000
0000
0001
0000
0000
0000
0001
0000
0000
0010
,
0100
0000
0010
0000
1000
0000
0010
0000
0001
0000
0000
0000
1001
0000
0000
0100
,
0001
0000
0100
0000
1000
0000
0100
0000
0001
0000
0000
0000
0001
0000
0000
1000
,
0010
1000
0100
0010
0001
0000
0000
0000
,
1000
0000
0100
0100
,
0100
0000
1000
0000
,
1001
0000
0001
0001
,
0001
0000
0100
0000
,
0110
0000
1000
1000
,
1000
0000
0001
0000
,
1001
0000
0100
0100
,
0100
0000
0001
0000
,
0011
0000
1000
1000
,
1000
0000
0000
0000
;

//---------------dance-single - ----------------
#NOTEDATA:;
#CHARTNAME:X-Scale 12;
#STEPSTYPE:dance-single;
#DESCRIPTION:;
#CHARTSTYLE:;
#DIFFICULTY:Hard;
#METER:8;
#RADARVALUES:0.490499,0.559963,0.323333,0.331032,0.307936,446.000000,404.000000,42.000000,43.000000,0.000000,0.000000,1.000000,0.000000,0.000000,0.490499,0.559963,0.323333,0.331032,0.307936,446.000000,404.000000,42.000000,43.000000,0.000000,0.000000,1.000000,0.000000,0.000000;
#CREDIT:iamthek3n;
#NOTES:
// measure 0
0000
0000
0000
0000
,  // measure 1
0000
0000
0000
0000
,  // measure 2
0000
0000
0000
0000
,  // measure 3
0000
0000
0000
0000
0000
0000
1100
1000
,  // measure 4
0001
0000
0000
0000
0100
0000
0000
0020
0000
0000
1030
0000
0001
0000
0000
0020
,  // measure 5
0000
0000
0130
1000
0000
0000
1000
0000
0001
0000
1000
0000
0100
0000
0010
0000
,  // measure 6
0001
0000
0000
0000
0100
0000
0000
0002
0000
0000
1003
0000
0010
0000
1000
0000
,  // measure 7
0001
0000
0010
0100
0000
0000
0010
0000
0001
0000
1000
0000
0001
0000
0010
0000
,  // measure 8
0100
0000
0000
0000
1000
0000
0000
0200
0000
0000
0301
0000
0100
0000
0000
0020
,  // measure 9
0000
0000
0031
0010
0000
0000
0010
0000
0100
0000
1000
0000
0001
0000
0100
0000
,  // measure 10
0010
0000
0000
0000
1000
0000
0000
0200
0000
0000
1300
0000
2002
0000
3003
0000
,  // measure 11
1200
0000
0000
0000
0000
0000
1300
0000
0001
0100
0000
0001
0000
0000
1000
0000
,  // measure 12
0100
0001
1000
0010
0002
0000
0023
0000
,  // measure 13
0230
0000
0000
0301
0100
1000
0001
1000
,  // measure 14
0010
1000
0000
0000
0001
0000
0000
0001
0000
0000
0100
0000
0100
0000
0100
0000
,  // measure 15
0001
0000
1000
0000
0100
0000
0001
0000
0100
0000
1000
0100
1000
0000
0001
0100
,  // measure 16
0000
0010
1000
0000
0100
0000
0001
0000
1000
0000
0010
0100
1000
0000
0001
0000
,  // measure 17
0100
0000
0010
0001
0000
0010
0000
0000
1000
0000
0001
1000
0000
0100
0010
0000
,  // measure 18
0001
0000
0001
0000
0001
0000
0000
0000
1001
0000
0000
0000
0100
0000
0000
0100
,  // measure 19
0000
0000
0001
0000
0020
0000
0000
0000
1030
0000
0000
0000
0010
0000
0000
0001
,  // measure 20
0000
0000
1000
0000
0000
0001
0000
0000
0100
0000
0000
0000
0001
0000
0000
0001
,  // measure 21
0000
0000
0010
0000
0200
0000
0000
0000
1300
0000
0000
0000
0001
0000
0000
0001
,  // measure 22
0100
0010
0100
0001
0100
0000
0000
0000
0110
0000
0100
0000
0001
0000
0000
0001
,  // measure 23
1000
0000
0001
0000
0200
0000
0000
0000
1300
0000
0100
0000
0010
0000
0000
0100
,  // measure 24
0000
0000
0001
0000
1000
0100
0000
0000
1100
0000
0000
0000
0002
0000
0000
0000
,  // measure 25
2003
0000
0000
0000
3001
0010
0000
0000
0011
0000
0000
0000
1000
0000
0001
0000
,  // measure 26
0200
0000
0000
0000
0301
0100
0000
0010
1000
0000
0000
0000
1001
0000
0000
0001
,  // measure 27
0100
0000
0010
0000
0001
0000
0010
0000
1000
0000
0000
0000
0001
0000
0000
0010
,  // measure 28
0100
0000
0010
0000
0001
0000
1000
0000
0001
0000
0000
0000
0110
0000
0000
0010
,  // measure 29
1000
0000
0010
0000
0001
0000
0010
0000
1000
0000
0000
0000
0100
0000
0000
0010
,  // measure 30
0100
0000
1000
0000
0001
0000
0100
0000
0001
0000
0000
0000
0101
0000
0000
1000
,  // measure 31
0001
0000
0100
0000
1000
0000
0100
0000
0010
0000
0000
0000
1000
0000
0000
0100
,  // measure 32
0010
0000
0100
0000
1000
0000
0001
0000
1000
0000
0000
0000
0011
0000
0000
1000
,  // measure 33
0001
0000
0010
0000
1000
0000
0010
0000
0001
0010
0000
0010
0100
0000
1000
0010
,  // measure 34
0000
0010
0100
0000
0040
0000
0030
0000
1001
0000
0000
0100
0000
0000
1000
0000
,  // measure 35
0001
0000
0000
0000
0010
0000
0000
0000
0100
0000
0000
0000
1000
0000
0000
0000
0000
0000
0001
0000
0000
0000
0000
0000
1000
0000
0000
0000
0000
0000
0000
0000
0000
0010
0000
0000
0000
0000
0000
0000
0000
0000
1000
0000
0000
0000
0000
0000
,  // measure 36
0010
0100
0001
0000
1000
0000
0100
0000
0010
0000
0000
0100
0000
0000
1000
0000
,  // measure 37
0001
0100
0001
0000
1000
0000
0100
0000
0010
0000
0000
0100
0000
0000
1000
0000
,  // measure 38
0001
0000
1000
0000
0010
0000
0000
0000
0011
0000
0000
0001
0100
0000
0001
0000
,  // measure 39
1000
0000
0100
0000
0001
0000
0100
0000
1000
0000
0000
0010
1000
0000
0001
0000
,  // measure 40
0010
0000
0100
0010
0100
0000
1000
0000
0001
0000
0000
0010
0100
0000
0010
0000
,  // measure 41
0001
0000
1000
0000
0010
0000
1000
0000
0001
0100
0000
0100
0010
0000
0010
1000
,  // measure 42
0000
1000
0001
0000
0000
0000
0000
0000
1001
0000
0000
0000
1100
0000
0000
0100
,  // measure 43
0000
0000
1001
0000
0000
0001
0000
0000
0011
0000
0000
0000
0101
0000
0000
0001
,  // measure 44
0000
0000
1100
0000
0000
0100
0000
0000
1001
0000
0000
0000
0110
0000
0000
0010
,  // measure 45
0000
0000
0011
0000
0000
0001
0000
0000
1001
0000
0000
0000
1100
0000
0000
0001
,  // measure 46
1000
0010
1000
0001
1000
0010
1000
0000
1010
0000
1000
0000
0001
0000
1000
0000
,  // measure 47
0100
0000
0001
0000
0200
0000
0000
0000
1300
0000
0001
0000
0100
0001
0000
0000
,  // measure 48
0010
0000
0100
0000
1000
0010
0000
0000
2010
0000
0000
0000
3002
0000
0000
0000
,  // measure 49
2003
0000
0000
0000
3100
0010
0000
0000
0011
0000
0000
0000
0001
0000
1000
0000
,  // measure 50
2002
0000
3003
0000
0220
0000
0330
0000
1000
0000
0000
0000
1001
0000
0000
0010
,  // measure 51
0001
0000
1000
0000
0010
0000
0100
0000
0001
0000
0000
0000
0101
0000
0000
0001
,  // measure 52
1000
0000
0001
0000
1000
0000
0100
0000
0010
0000
0000
0000
0011
0000
0000
0001
,  // measure 53
1000
0000
0010
0000
0001
0000
0010
0000
1000
0000
0000
0000
1001
0000
0000
1000
,  // measure 54
0100
0000
1000
0000
0001
0000
0100
0000
0010
0000
0000
0000
1010
0000
0000
0001
,  // measure 55
1000
0000
0010
0000
0001
0000
0010
0000
1000
0000
0000
0000
1100
0000
0000
0100
,  // measure 56
0010
0100
1000
0001
1000
0000
0100
0000
,  // measure 57
0001
0100
0001
0100
1000
0000
0001
0000
,  // measure 58
1000
0000
0100
1000
,  // measure 59
1100
0000
0002
0000
0200
0300
0200
0303
,  // measure 60
0102
0103
0000
0000
0001
0000
1000
0000
,  // measure 61
1010
0000
0002
0000
0200
0300
0200
0303
,  // measure 62
0202
0303
0000
0000
0001
0000
0100
0000
,  // measure 63
1001
0000
0200
0000
2000
3000
2000
3300
,  // measure 64
1200
1300
0000
0000
0100
0000
0010
0000
,  // measure 65
1001
0000
0020
0000
0002
0003
0002
0003
,  // measure 66
0002
0033
0000
0000
0000
0000
0000
0000
;
