#TITLE:LGBT;
#SUBTITLE:;
#ARTIST:cupcakKe;
#TITLETRANSLIT:;
#SUBTITLETRANSLIT:;
#ARTISTTRANSLIT:;
#GENRE:Electrohop;
#CREDIT:;
#BANNER:LGBT-bn.png;
#BACKGROUND:LGBT-bg.png;
#LYRICSPATH:;
#CDTITLE:cdtitle.png;
#MUSIC:LGBT.ogg;
#OFFSET:-0.008000;
#SAMPLESTART:23.048000;
#SAMPLELENGTH:15.500000;
#SELECTABLE:YES;
#BPMS:0.000000=124.999992
;
#STOPS:
;
#BGCHANGES:
;
#KEYSOUNDS:;
#ATTACKS:;

//---------------dance-single - YAAASSS QUEEEEN!----------------
#NOTES:
     dance-single:
     X-Scale 15:
     Hard:
     10:
     0.632578,0.740846,0.037847,0.094616,0.629199,468.000000,464.000000,4.000000,10.000000,13.000000,0.000000,0.632578,0.740846,0.037847,0.094616,0.629199,468.000000,464.000000,4.000000,10.000000,13.000000,0.000000:
// measure 0
0000
0000
0000
0000
,  // measure 1
0000
0000
0000
0000
,  // measure 2
0000
0000
0000
0000
,  // measure 3
0000
0000
0000
0000
,  // measure 4
0002
0000
0000
0000
,  // measure 5
0203
0000
0000
0000
,  // measure 6
2300
0000
0000
0000
,  // measure 7
3200
0000
0320
0000
,  // measure 8
1030
0010
0001
0000
0001
0010
1000
0100
,  // measure 9
1000
0001
0100
0010
0M00
0010
0001
0000
,  // measure 10
0010
0000
0000
0001
0100
1000
0001
0010
,  // measure 11
1000
0010
0100
0001
0010
0100
0010
0100
,  // measure 12
0110
0000
0000
0000
0010
0000
0000
0000
0000
0001
0000
0000
1000
0000
0000
0000
0000
0000
0100
0000
0000
1000
0000
0000
0100
0000
0000
0000
0000
0000
0010
0000
0000
0000
0000
0000
0100
0000
0000
0000
0000
0000
1000
0000
0000
0000
0000
0000
,  // measure 13
0010
0000
1000
0010
0100
0010
1000
0010
0100
0000
0100
0000
0010
0000
0010
0000
,  // measure 14
1000
0000
0000
0000
0001
0000
0000
0000
0000
0100
0000
0000
0001
0000
0000
0000
0000
0000
0010
0000
0000
0100
0000
0000
1000
0000
0000
0000
0000
0000
0001
0000
0000
0000
0000
0000
0010
0000
0000
0000
0000
0000
0001
0000
0000
0000
0000
0000
,  // measure 15
1000
0000
1000
0100
0010
0100
1000
0100
0010
0000
0010
0000
0001
0000
0001
0000
,  // measure 16
1000
0000
0100
1000
0010
1000
0100
1000
0010
0000
0010
0000
0100
0000
0100
0000
,  // measure 17
0001
0000
0010
0001
1000
0001
0010
0001
1000
0000
1000
0000
0100
0000
0100
0000
,  // measure 18
1000
0000
1000
0100
1000
0000
0010
0100
0010
0000
0001
0000
0010
0000
1000
0000
,  // measure 19
0001
0000
1000
0100
0010
0100
1000
0100
0010
0000
0010
0000
0001
0000
0001
0000
,  // measure 20
1000
0000
0010
0000
1000
0100
1000
0100
,  // measure 21
0020
0000
0000
0001
0031
0000
0100
0000
,  // measure 22
0001
0000
1000
0000
0001
0010
0001
0010
,  // measure 23
0200
0000
1000
0010
1300
0100
0010
0000
,  // measure 24
0110
0000
0100
0010
0100
1000
0100
0010
0100
1000
0100
0000
1000
0000
0000
0000
,  // measure 25
0001
0100
0010
0100
0001
0010
0100
1000
0001
1000
0010
0000
1000
0000
0001
0010
,  // measure 26
0001
0010
0100
0010
0100
0010
0001
0010
0001
0000
1000
0010
0000
0000
1000
0100
,  // measure 27
1000
0010
0100
0010
1000
0100
1000
0001
0010
0000
0001
0100
0000
0000
0M00
000M
,  // measure 28
0101
0000
0001
1000
0001
0000
1000
0100
1000
0000
0010
0100
0010
0000
0000
0000
,  // measure 29
0001
0000
1000
0001
1000
0000
0001
0010
0100
1000
0100
0010
0001
0000
M000
M000
,  // measure 30
0001
1000
0001
0000
0100
0000
0010
0100
0001
1000
0100
1000
0010
0000
1000
000M
,  // measure 31
0100
0000
0010
0100
0010
0000
0001
0100
0001
0000
0001
0000
1000
0000
100M
000M
,  // measure 32
0010
1000
0001
1000
0010
0000
0100
0010
1000
0001
0100
0010
1000
0000
00M0
0010
,  // measure 33
0100
0001
0010
0100
1000
0010
0100
0001
0010
0001
0100
0010
1000
0000
01M0
1000
,  // measure 34
0010
0100
0010
1000
0001
0000
1000
0100
1000
0100
0000
0000
1000
0001
1000
0001
,  // measure 35
1000
0000
1000
0000
0100
0000
1000
0010
1000
0000
0002
0000
0203
0000
0302
0000
,  // measure 36
0013
0001
0010
0100
1000
0010
0100
0010
1000
0100
0010
0001
0100
0000
000M
010M
,  // measure 37
0001
0010
0001
1000
0100
0000
0010
0100
1000
0001
1000
0100
0010
0000
00M0
0000
,  // measure 38
0001
0100
1000
0100
0001
0010
0001
0000
1000
0010
0100
0010
1000
0000
0001
0100
,  // measure 39
0001
0000
0010
0100
0010
0001
1000
0001
0100
0000
0100
0000
0010
0000
0010
0000
,  // measure 40
0110
0000
0000
0000
0100
0000
0000
0000
0000
0001
0000
0000
1000
0000
0000
0000
0000
0000
0001
0000
0000
0100
0000
0000
0001
0000
0000
0000
0000
0000
0010
0000
0000
0000
0000
0000
0100
0000
0000
0000
0000
0000
1000
0000
0000
0000
0000
0000
,  // measure 41
0001
0000
1000
0100
0010
0100
1000
0100
0010
0000
0010
0000
0001
0000
0001
0000
,  // measure 42
1000
0000
0000
0000
0100
0000
0000
0000
0000
1000
0000
0000
0001
0000
0000
0000
0000
0000
0010
0000
0000
0001
0000
0000
0010
0000
0000
0000
0000
0000
0001
0000
0000
0000
0000
0000
1000
0000
0000
0000
0000
0000
0010
0000
0000
0000
0000
0000
,  // measure 43
0100
0000
0001
0010
0100
0010
0001
0010
0100
0000
0100
0000
1000
0000
1000
0000
,  // measure 44
0001
0000
1000
0100
0010
0100
1000
0100
0010
0000
0010
0000
0001
0000
0001
0000
,  // measure 45
0100
0000
0010
0100
0001
0100
0010
0100
0001
0000
0001
0000
1000
0000
1000
0000
,  // measure 46
0100
0000
1000
0100
0001
0000
0001
0100
1000
0000
0100
0000
0010
0000
0010
0000
,  // measure 47
0001
0000
1000
0010
0100
0010
1000
0010
0100
0000
0100
0000
0010
0000
0010
0000
,  // measure 48
0100
0000
0001
0000
0001
0010
1000
0010
,  // measure 49
0001
0000
0000
0001
0010
0100
0010
0001
1000
0000
1000
0000
0010
0000
0010
0000
,  // measure 50
1000
0000
0001
0000
1000
0100
0001
0100
,  // measure 51
1000
0000
0000
0100
1000
0001
1000
0100
0010
0000
0010
0000
0100
0000
0100
0000
,  // measure 52
1000
0000
0000
0001
0010
0000
0001
0000
0000
0000
1000
0000
0100
0000
1000
0000
,  // measure 53
0100
0000
0000
0010
0001
0000
0010
0000
0000
0000
0100
0000
1000
0000
0100
0000
,  // measure 54
1000
0000
0000
0000
;

//---------------dance-single - now this sh*t's banging thru----------------
#NOTES:
     dance-single:
     X-Scale 11:
     Medium:
     8:
     0.455510,0.459835,0.028385,0.056770,0.113540,337.000000,334.000000,3.000000,6.000000,0.000000,0.000000,0.455510,0.459835,0.028385,0.056770,0.113540,337.000000,334.000000,3.000000,6.000000,0.000000,0.000000:
// measure 0
0000
0000
0000
0000
,  // measure 1
0000
0000
0000
0000
,  // measure 2
0000
0000
0000
0000
,  // measure 3
0000
0000
0000
0000
,  // measure 4
2000
0000
0000
0000
,  // measure 5
3002
0000
0000
0000
,  // measure 6
2003
0000
0000
0000
,  // measure 7
3002
0000
1000
0000
,  // measure 8
1003
0001
1000
0000
0001
0100
0010
1000
,  // measure 9
0000
0100
0010
0100
0000
1000
0100
0000
,  // measure 10
1000
0000
0000
0001
0010
1000
0010
0001
,  // measure 11
0000
0100
0010
1000
0001
0000
0010
0000
,  // measure 12
0011
0000
0001
0000
1000
0001
0100
1000
,  // measure 13
0100
0000
0001
0000
1000
0000
0100
0010
0100
0000
1000
0000
0010
0000
1000
0000
,  // measure 14
0100
0000
1000
0000
0001
1000
0010
0100
,  // measure 15
0001
0000
0010
0000
0001
0000
1000
0100
1000
0000
0001
0000
0100
0000
0010
0000
,  // measure 16
0001
0000
0000
0000
0010
0000
0100
0010
0100
0000
0001
0000
1000
0000
0010
0000
,  // measure 17
0100
0000
0000
0000
0001
0000
0100
0010
0100
0000
0100
0000
0001
0000
1000
0000
,  // measure 18
0001
0000
0000
0100
0001
0000
0010
0000
0100
0000
0010
0000
0100
0000
1000
0000
,  // measure 19
0001
0000
0000
0000
1000
0000
0010
1000
0010
0000
0100
0000
0001
0000
0100
0000
,  // measure 20
0010
0000
1000
0000
0001
0100
0001
0100
,  // measure 21
0002
0000
0103
0001
,  // measure 22
1000
0000
0100
0000
1000
0010
1000
0010
,  // measure 23
2000
0000
0010
0000
3100
1000
0100
0000
,  // measure 24
1100
1000
0100
0000
1000
0100
0001
0100
,  // measure 25
1000
0100
0010
0001
1000
0010
1000
0000
,  // measure 26
0001
0000
0010
0100
0010
0010
0001
0001
,  // measure 27
1000
0010
0010
1000
0100
0010
0001
0000
,  // measure 28
0100
0001
0010
0000
0001
0100
0010
1000
,  // measure 29
0100
1000
1000
0100
0100
1000
0001
0000
,  // measure 30
1000
0000
0000
0100
1000
0000
0010
0000
1000
0000
1000
0000
0100
0000
0100
0000
,  // measure 31
0010
1000
0010
0001
0010
0100
0010
0100
,  // measure 32
0010
0000
0000
0010
0001
0000
1000
0000
0100
0000
0010
0000
0100
0000
1000
0000
,  // measure 33
1000
0000
0000
0001
0010
0000
0001
0000
1000
0000
0100
0000
1000
0000
0100
0000
,  // measure 34
0010
0000
0000
0001
0010
0000
0001
0000
0100
0000
1000
0000
0100
0000
0001
0000
,  // measure 35
0100
0000
0000
0010
0100
0000
0001
0000
1000
0000
0100
0000
0010
0000
0100
0000
,  // measure 36
1000
0000
0000
1000
0001
0000
0100
0000
0001
0000
0010
0000
1000
0000
0010
0000
,  // measure 37
0001
0000
0000
1000
0100
0000
1000
0000
0001
0000
0100
0000
0010
0000
1000
0000
,  // measure 38
0001
0000
0000
0100
0001
0000
0010
0000
0001
0000
1000
0000
0010
0000
0100
0000
,  // measure 39
0001
0010
0100
1000
0100
1000
0010
1000
,  // measure 40
1010
0000
0000
0010
1000
0000
0010
0000
0100
0000
0001
0000
0010
0000
0001
0000
,  // measure 41
1000
0000
0000
1000
0100
0000
1000
0000
0001
0000
0010
0000
0100
0000
0010
0000
,  // measure 42
0001
0000
0000
0100
0001
0000
1000
0000
0010
0000
0100
0000
1000
0000
0100
0000
,  // measure 43
0010
0000
0000
1000
0010
0000
1000
0000
0100
0000
0010
0000
0100
0000
1000
0000
,  // measure 44
0001
0000
0000
0010
0001
0000
0100
0000
0001
0000
1000
0000
0100
0000
0010
0000
,  // measure 45
0001
0000
0000
0100
0001
0000
0100
0000
0010
0000
1000
0000
0100
0000
1000
0000
,  // measure 46
0010
0000
0000
1000
0001
0000
0100
0000
0001
0000
0010
0000
0100
0000
1000
0000
,  // measure 47
0100
0000
0000
1000
0010
0000
1000
0000
0100
0000
0001
0000
0100
0000
0010
0000
,  // measure 48
0001
0000
1000
0000
0001
0010
0001
0010
,  // measure 49
0100
0000
0000
0100
1000
0100
0001
0100
,  // measure 50
1000
0000
0010
0000
1000
0010
0100
0010
,  // measure 51
1000
0000
0001
0010
0001
1000
0100
0010
,  // measure 52
0001
0000
0000
0010
0000
0000
0001
0000
0000
0000
0010
0000
0100
0000
0010
0000
,  // measure 53
0100
0000
0000
1000
0000
0000
0001
0000
0000
0000
0100
0000
0010
0000
0100
0000
,  // measure 54
0010
0000
0000
0000
;

//---------------dance-single - this sh*t's pickin' up----------------
#NOTES:
     dance-single:
     X-Scale 6:
     Easy:
     4:
     0.320344,0.357650,0.018923,0.104078,0.000000,237.000000,235.000000,2.000000,11.000000,0.000000,0.000000,0.320344,0.357650,0.018923,0.104078,0.000000,237.000000,235.000000,2.000000,11.000000,0.000000,0.000000:
// measure 0
0000
0000
0000
0000
,  // measure 1
0000
0000
0000
0000
,  // measure 2
0000
0000
0000
0000
,  // measure 3
0000
0000
0000
0000
,  // measure 4
0200
0000
0000
0000
,  // measure 5
0010
0000
0000
0000
,  // measure 6
0320
0000
0000
0000
,  // measure 7
0100
0000
1000
0000
,  // measure 8
1030
0000
0100
0000
,  // measure 9
0010
0000
0000
0000
0000
0001
0001
0000
,  // measure 10
1000
0000
0010
0000
,  // measure 11
0100
0000
0001
0000
,  // measure 12
0011
0000
0010
0000
0001
0000
1000
0100
,  // measure 13
1000
0001
0200
0320
,  // measure 14
0130
0000
0001
0000
0010
0000
0100
0010
,  // measure 15
0100
0000
1000
0000
0001
0010
0100
1000
,  // measure 16
0001
0000
0001
0000
1000
0100
0010
0001
,  // measure 17
1000
0000
1000
0000
0001
0010
0100
1000
,  // measure 18
0001
0000
0001
0000
0100
0000
0001
0010
,  // measure 19
0001
0000
1000
0000
1000
0100
0010
0001
,  // measure 20
0100
0000
0010
0000
,  // measure 21
1000
0000
2000
3200
,  // measure 22
1300
0000
0100
0000
,  // measure 23
0010
0000
0000
0000
0001
0010
0002
0000
,  // measure 24
0013
0001
1000
0100
,  // measure 25
0010
0100
1000
0001
,  // measure 26
0010
0001
0100
0010
,  // measure 27
1000
0100
0010
0001
,  // measure 28
0100
0010
0100
0000
0001
0010
0100
0010
,  // measure 29
0001
0000
1000
0000
0010
0100
0010
0000
,  // measure 30
1000
0000
0010
0000
0100
1000
0100
0010
,  // measure 31
0100
0001
0100
0010
,  // measure 32
0110
0000
1000
0001
1000
0000
0001
0100
,  // measure 33
0001
0000
0010
0100
0010
0000
0001
0100
,  // measure 34
0001
0000
1000
0100
1000
0000
0001
0100
,  // measure 35
0001
0000
0010
0100
0010
0002
2003
3002
,  // measure 36
1003
0000
0100
0010
0100
0000
1000
0010
,  // measure 37
1000
0000
0001
1000
0001
0000
0010
0100
,  // measure 38
0010
0000
0001
0010
0001
0000
1000
0100
,  // measure 39
2000
0001
0010
0100
,  // measure 40
3100
0000
1000
0000
0001
0010
0001
0010
,  // measure 41
0100
0000
0001
0000
0100
1000
0100
1000
,  // measure 42
0100
0000
1000
0000
0001
0010
1000
0010
,  // measure 43
0001
0000
1000
0001
0010
0100
0010
0100
,  // measure 44
0010
0000
0001
0000
1000
0100
1000
0100
,  // measure 45
0010
0000
0100
0000
1000
0100
1000
0100
,  // measure 46
0010
0000
0001
0000
0010
0001
1000
0001
,  // measure 47
0010
0000
0100
0010
0100
1000
0100
1000
,  // measure 48
0100
0000
1000
0000
0001
0010
0001
0010
,  // measure 49
0001
0000
1000
0000
0100
0010
0100
0010
,  // measure 50
0100
0000
1000
0000
0001
0000
0100
0010
,  // measure 51
1000
0000
0001
0000
0010
0100
0010
0100
,  // measure 52
0010
0000
0000
0001
0000
1000
0000
0001
,  // measure 53
1000
0000
0000
0001
0000
0100
0000
0001
,  // measure 54
0010
0000
0000
0000
;

//---------------dance-single - ease in to the LGBT----------------
#NOTES:
     dance-single:
     X-Scale 1:
     Beginner:
     1:
     0.110836,0.153278,0.018923,0.000000,0.000000,82.000000,80.000000,2.000000,0.000000,0.000000,0.000000,0.110836,0.153278,0.018923,0.000000,0.000000,82.000000,80.000000,2.000000,0.000000,0.000000,0.000000:
// measure 0
0000
0000
0000
0000
,  // measure 1
0000
0000
0000
0000
,  // measure 2
0000
0000
0000
0000
,  // measure 3
0000
0000
0000
0000
,  // measure 4
0001
0000
0000
0000
,  // measure 5
0000
0000
0000
0000
,  // measure 6
1000
0000
0000
0000
,  // measure 7
0000
0000
0000
0000
,  // measure 8
0001
0000
0000
0000
,  // measure 9
0010
0000
0000
0000
,  // measure 10
0100
0000
0000
0000
,  // measure 11
1000
0000
0000
0000
,  // measure 12
1001
0000
0010
0000
,  // measure 13
0001
0000
1000
0000
,  // measure 14
0100
0000
1000
0000
,  // measure 15
0001
0000
0010
0000
,  // measure 16
0100
0000
0010
0000
,  // measure 17
0001
0000
1000
0000
,  // measure 18
0010
0000
1000
0000
,  // measure 19
0100
0000
0010
0000
,  // measure 20
0001
0000
0000
0000
,  // measure 21
1000
0000
0000
0000
,  // measure 22
0001
0000
0000
0000
,  // measure 23
0010
0000
0000
0000
,  // measure 24
0010
0000
0001
0000
,  // measure 25
1000
0000
0001
0000
,  // measure 26
0010
0000
0100
0000
,  // measure 27
0010
0000
0001
0000
,  // measure 28
1000
0000
0010
0000
,  // measure 29
1000
0000
0100
0000
,  // measure 30
0010
0000
0100
0000
,  // measure 31
1000
0000
0001
0000
,  // measure 32
0100
0000
0001
0000
,  // measure 33
0010
0000
0100
0000
,  // measure 34
1000
0000
0010
0000
,  // measure 35
1000
0000
0100
0000
,  // measure 36
0010
0000
0001
0000
,  // measure 37
0100
0000
0001
0000
,  // measure 38
0010
0000
0100
0000
,  // measure 39
1000
0000
0000
0000
,  // measure 40
1001
0000
0100
0000
,  // measure 41
1000
0000
0010
0000
,  // measure 42
0100
0000
0001
0000
,  // measure 43
0010
0000
0100
0000
,  // measure 44
0010
0000
0001
0000
,  // measure 45
1000
0000
0001
0000
,  // measure 46
0100
0000
0010
0000
,  // measure 47
1000
0000
0100
0000
,  // measure 48
1000
0000
0000
0000
,  // measure 49
0010
0000
0000
0000
,  // measure 50
0100
0000
0000
0000
,  // measure 51
0001
0000
0000
0000
,  // measure 52
0010
0000
0000
0000
,  // measure 53
0100
0000
0000
0000
,  // measure 54
1000
0000
0000
0000
;
