#TITLE:LALALALA;
#SUBTITLE:;
#ARTIST:Marina Satti;
#TITLETRANSLIT:;
#SUBTITLETRANSLIT:;
#ARTISTTRANSLIT:;
#GENRE:Greek Pop;
#CREDIT:;
#BANNER:LALALALA-bn.png;
#BACKGROUND:LALALALA-bg.png;
#LYRICSPATH:;
#CDTITLE:cdtitle.png;
#MUSIC:LALALALA.ogg;
#OFFSET:-0.365000;
#SAMPLESTART:52.056999;
#SAMPLELENGTH:14.769000;
#SELECTABLE:YES;
#BPMS:0.000000=130.000000
;
#STOPS:
;
#BGCHANGES:16.000=LALALALA.avi=1.000=1=0=0=StretchNoLoop==CrossFade==,
99999=-nosongbg-=1.000=0=0=0 // don't automatically add -songbackground-
;
#KEYSOUNDS:;
#ATTACKS:;

//---------------dance-single - ----------------
#NOTES:
     dance-single:
     X-Scale 2:
     Beginner:
     1:
     0.104940,0.156651,0.008850,0.000000,0.000000,83.000000,82.000000,1.000000,0.000000,0.000000,0.000000,0.104940,0.156651,0.008850,0.000000,0.000000,83.000000,82.000000,1.000000,0.000000,0.000000,0.000000:
// measure 0
0000
0000
0000
0000
,  // measure 1
0000
0000
0000
0000
,  // measure 2
0000
0000
0000
0000
,  // measure 3
0000
0000
0000
0000
,  // measure 4
0001
0000
0100
0000
,  // measure 5
0010
0000
1000
0000
,  // measure 6
0100
0000
0010
0000
,  // measure 7
0001
0000
0000
0000
,  // measure 8
1000
0000
0000
0000
,  // measure 9
0001
0000
0000
0000
,  // measure 10
1000
0000
0000
0000
,  // measure 11
0001
0000
0000
0000
,  // measure 12
0010
0000
0000
0000
,  // measure 13
0100
0000
0000
0000
,  // measure 14
0010
0000
0000
0000
,  // measure 15
0100
0000
0000
0000
,  // measure 16
1000
0000
0000
0000
,  // measure 17
0001
0000
0000
0000
,  // measure 18
0100
0000
0000
0000
,  // measure 19
0010
0000
0000
0000
,  // measure 20
1000
0000
0001
0000
,  // measure 21
1000
0000
0001
0000
,  // measure 22
0010
0000
0100
0000
,  // measure 23
0010
0000
0100
0000
,  // measure 24
1000
0000
0010
0000
,  // measure 25
1000
0000
0010
0000
,  // measure 26
1000
0000
0001
0000
,  // measure 27
1000
0000
0001
0000
,  // measure 28
0010
0000
0000
0000
,  // measure 29
0001
0000
0000
0000
,  // measure 30
1000
0000
0000
0000
,  // measure 31
0010
0000
0000
0000
,  // measure 32
1000
0000
0000
0000
,  // measure 33
0001
0000
0000
0000
,  // measure 34
0100
0000
0000
0000
,  // measure 35
0000
0000
0000
0000
,  // measure 36
1001
0000
0001
0000
,  // measure 37
0100
0000
0001
0000
,  // measure 38
1000
0000
0100
0000
,  // measure 39
1000
0000
0001
0000
,  // measure 40
0100
0000
0001
0000
,  // measure 41
1000
0000
0100
0000
,  // measure 42
1000
0000
0001
0000
,  // measure 43
0100
0000
0001
0000
,  // measure 44
1000
0000
0100
0000
,  // measure 45
1000
0000
0001
0000
,  // measure 46
1000
0000
0010
0000
,  // measure 47
0100
0000
0010
0000
,  // measure 48
1000
0000
0001
0000
,  // measure 49
1000
0000
0010
0000
,  // measure 50
0100
0000
0001
0000
,  // measure 51
0010
0000
0100
0000
,  // measure 52
1000
0000
0000
0000
,  // measure 53
0100
0000
0000
0000
,  // measure 54
0010
0000
0000
0000
,  // measure 55
0001
0000
0000
0000
,  // measure 56
0100
0000
0000
0000
,  // measure 57
0010
0000
0000
0000
,  // measure 58
1000
0000
0000
0000
,  // measure 59
0001
0000
0000
0000
;

//---------------dance-single - ----------------
#NOTES:
     dance-single:
     X-Scale 6:
     Easy:
     4:
     0.305969,0.370940,0.044252,0.123905,0.000000,242.000000,237.000000,5.000000,14.000000,0.000000,0.000000,0.305969,0.370940,0.044252,0.123905,0.000000,242.000000,237.000000,5.000000,14.000000,0.000000,0.000000:
// measure 0
0000
0000
0000
0000
,  // measure 1
0000
0000
0000
0000
,  // measure 2
0000
0000
0000
0000
,  // measure 3
0000
0000
0000
0000
,  // measure 4
1000
0000
0001
0000
,  // measure 5
1000
0000
0001
0100
,  // measure 6
0001
0000
0100
0000
,  // measure 7
0010
0000
1000
0001
,  // measure 8
1000
0010
1000
0001
,  // measure 9
1000
0010
1000
0001
,  // measure 10
0010
0100
0010
0001
,  // measure 11
0010
0100
0010
0001
,  // measure 12
1000
0010
1000
0001
,  // measure 13
0100
0001
1000
0100
,  // measure 14
0010
0100
1000
0001
,  // measure 15
1000
0100
0010
0001
,  // measure 16
0002
0000
0010
0000
1003
0000
0001
0010
,  // measure 17
0200
0000
0010
0000
1300
0000
0001
1000
,  // measure 18
0020
0000
0100
0000
1030
0000
0010
0100
,  // measure 19
0002
0000
0100
0000
2003
0000
0000
3000
,  // measure 20
1100
0000
0100
1000
0001
0000
0100
0001
,  // measure 21
1000
0000
0100
1000
0100
1000
0001
0000
,  // measure 22
0100
0000
0001
0010
0100
0000
1000
0001
,  // measure 23
0100
0000
0001
0010
0100
0010
0001
0000
,  // measure 24
1000
0000
0010
0100
0001
0000
1000
0000
,  // measure 25
0100
0010
0110
0000
0001
1000
0100
0000
,  // measure 26
1000
0000
0001
0100
0010
0000
0100
0000
,  // measure 27
0001
0010
0100
0000
1000
0010
0100
0000
,  // measure 28
0010
0100
0002
2003
,  // measure 29
3100
0010
0100
1000
,  // measure 30
0001
0100
0002
2003
,  // measure 31
3010
1000
0001
0100
,  // measure 32
1001
0000
0100
0000
1000
0000
0001
0100
,  // measure 33
0001
0000
0010
0000
0100
0000
1000
0100
,  // measure 34
1000
0002
0003
0002
0003
2000
3000
2000
,  // measure 35
3000
0000
0001
0000
,  // measure 36
1001
0000
0010
1000
0001
0000
1000
0000
,  // measure 37
0100
0000
0010
0100
1000
0000
0100
0000
,  // measure 38
1000
0000
0001
0100
0010
0000
0100
0000
,  // measure 39
0001
0000
1000
0001
0100
0000
0001
0000
,  // measure 40
1000
0000
0100
0010
0001
0000
1000
0000
,  // measure 41
0001
0000
0100
0001
1000
0000
0010
0000
,  // measure 42
1000
0000
0001
0010
0100
0000
0010
0000
,  // measure 43
0001
0000
1000
0001
0100
0000
0001
0000
,  // measure 44
0101
1000
0001
0100
,  // measure 45
0001
0000
1000
0001
1000
0001
0010
0000
,  // measure 46
0100
1000
0001
0100
,  // measure 47
0010
0000
1000
0010
0100
0001
0010
0100
,  // measure 48
1000
0000
0001
0000
1000
0000
0010
0100
,  // measure 49
0010
0000
1000
0000
0001
0100
0001
0000
,  // measure 50
0010
0000
0100
0000
1000
0000
0001
1000
,  // measure 51
0001
0000
0100
0010
1000
0001
0010
0100
,  // measure 52
1000
0000
0100
0000
,  // measure 53
1000
0000
0001
0000
,  // measure 54
1000
0000
0100
0000
,  // measure 55
1000
0000
0001
0000
,  // measure 56
0100
0000
0001
0000
,  // measure 57
1000
0000
0001
0000
,  // measure 58
0100
0000
0001
0000
,  // measure 59
1000
0000
0000
0000
0002
0000
0000
0003
;

//---------------dance-single - ----------------
#NOTES:
     dance-single:
     X-Scale 11:
     Medium:
     8:
     0.515848,0.582906,0.230109,0.238959,0.389415,408.000000,382.000000,26.000000,27.000000,0.000000,0.000000,0.515848,0.582906,0.230109,0.238959,0.389415,408.000000,382.000000,26.000000,27.000000,0.000000,0.000000:
// measure 0
0000
0000
0000
0000
,  // measure 1
0000
0000
0000
0000
,  // measure 2
0000
0000
0000
0000
,  // measure 3
0000
0000
0000
0000
,  // measure 4
0101
0000
0000
0001
0000
0000
1000
0000
0010
0000
0000
1000
0000
0000
0100
0000
,  // measure 5
0010
0000
0000
0100
0000
0000
1000
0000
0001
0000
0100
0000
0001
0000
0000
0000
,  // measure 6
0010
0000
0000
0100
0000
0000
1000
0000
0001
0000
0000
0100
0000
0000
0001
0000
,  // measure 7
1000
0000
0000
0100
0000
0000
0010
0000
0000
0001
0000
0001
0000
0000
1000
0000
,  // measure 8
1000
0010
0100
0020
0000
0000
1030
0100
1000
0002
0003
0000
,  // measure 9
0010
0000
0000
0010
0100
0000
0010
0000
0001
0000
0000
1000
0010
0000
1000
0000
,  // measure 10
0001
0010
1000
0020
0000
0000
0130
1000
0001
0002
0003
0000
,  // measure 11
1000
0000
0000
0000
0000
0000
0000
0000
0000
0100
0000
0000
0010
0000
0000
0000
0000
0000
0100
0000
0000
0000
0000
0000
1000
0000
0000
0000
0001
0000
0000
0000
1000
0000
0000
0000
0010
0000
0000
0000
0000
0000
0000
0000
0000
0000
0000
0000
,  // measure 12
0100
0001
1000
0002
0000
0000
1003
0100
0010
0200
0300
0000
,  // measure 13
1000
0000
0000
0000
0000
0000
0000
0000
0000
0001
0000
0000
0100
0000
0000
0000
0000
0000
0001
0000
0000
0000
0000
0000
1000
0000
0000
0000
0010
0000
0000
0000
0100
0000
0000
0000
0001
0000
0000
0000
0000
0000
0000
0000
0000
0000
0000
0000
,  // measure 14
0010
0100
1000
0200
0000
0000
0301
0100
0010
0002
0003
0000
,  // measure 15
0010
0000
0000
0000
0000
0000
0000
0000
0000
0100
0000
0000
1000
0000
0000
0000
0000
0000
0001
0000
0000
0000
0000
0000
1000
0000
0000
0000
0001
0000
0000
0000
1000
0000
0000
0000
0010
0000
0000
0000
0000
0000
0000
0000
0010
0000
0000
0000
,  // measure 16
0200
0000
0000
1000
0000
0000
0301
0100
0010
1000
0000
0000
,  // measure 17
0200
0000
0000
0000
0000
0000
0010
0000
0000
0000
0000
0000
1300
0000
0100
0000
0010
0000
0001
0000
0000
0010
0000
0000
,  // measure 18
0020
0000
0000
0000
0000
0000
1000
0000
0000
0000
0000
0000
0031
0000
0010
0000
0001
0000
0100
0000
0000
0010
0000
0000
,  // measure 19
0020
0000
0001
0000
1030
1000
0001
0001
,  // measure 20
1001
0000
0000
0100
1000
0000
0001
0000
1000
0000
0000
0100
0010
0000
0100
0000
,  // measure 21
1000
0000
0000
0001
1000
0000
0100
0000
0001
0000
0100
0000
1000
0000
0000
0000
,  // measure 22
0010
0000
0000
0100
0010
0000
1000
0000
0001
0000
0000
0010
0100
0000
0010
0000
,  // measure 23
0001
0000
0000
1000
0001
0000
0100
0000
1000
0000
0100
0000
0001
0000
0000
0000
,  // measure 24
0011
0000
0000
0000
0110
0000
0000
0000
1010
0000
0000
0010
1000
0000
1000
0000
,  // measure 25
1001
0000
0022
0033
1000
0001
1000
0000
,  // measure 26
1100
0000
0000
0000
0110
0000
0000
0000
0101
0000
0000
1000
0001
0000
0001
0000
,  // measure 27
0011
0000
0000
0010
0100
0000
0010
0000
0001
0000
1000
0000
0001
0000
0000
0000
,  // measure 28
0020
0000
0130
1000
0002
0000
0203
0000
,  // measure 29
0300
0000
0010
0000
0100
0000
1000
0000
0200
0000
0000
0301
0000
0100
0000
0000
,  // measure 30
0020
0000
0031
0010
2000
0000
3200
0000
,  // measure 31
0300
0000
0010
0000
0001
0000
1000
0000
0001
0000
0000
0010
0000
0100
0000
0000
,  // measure 32
0110
0000
0100
1000
2100
0000
3002
0000
,  // measure 33
0103
0000
0001
0000
1000
0000
0001
0000
0100
0000
0001
0000
0000
0001
0000
0000
,  // measure 34
0011
0000
0001
1000
2010
0000
3002
0000
,  // measure 35
0003
0000
0000
0000
1000
0000
0001
0100
,  // measure 36
0101
0000
0000
0001
0100
0000
0001
0000
1000
0000
0000
0000
0100
0000
0010
0000
,  // measure 37
0001
0000
0000
0100
0010
0000
0100
0000
0001
0000
0000
0000
0010
0000
0100
0000
,  // measure 38
1000
0000
0000
0010
1000
0000
0001
0000
1000
0000
0000
0000
0010
0000
0100
0000
,  // measure 39
0001
0000
0000
1000
0100
0000
1000
0000
0001
0000
0100
0010
0100
0000
0001
0000
,  // measure 40
0010
0000
0000
0100
1000
0000
0001
0000
1000
0000
0100
0010
0100
0000
1000
0000
,  // measure 41
0001
0000
0000
0100
0001
0000
1000
0000
0010
0000
0100
0010
0100
0000
0001
0000
,  // measure 42
0010
0000
0000
0100
1000
0000
0001
0000
1000
0000
0010
0100
0010
0000
1000
0000
,  // measure 43
0100
0000
0000
0010
0001
0000
1000
0000
0010
0100
0000
0010
0100
0000
0001
0000
,  // measure 44
0101
0000
0000
0001
1000
0000
0001
0000
1001
0000
0000
0100
1000
0000
0001
0000
,  // measure 45
0011
0000
0000
1000
0001
0000
1000
0000
0010
0000
1000
0000
0001
0000
0000
0000
,  // measure 46
1001
0000
0000
0100
1000
0000
0010
0000
1010
0000
0000
0010
1000
0000
0100
0000
,  // measure 47
0011
0000
0000
0001
0100
0000
0001
0000
1000
0100
0000
0100
0010
0000
0100
0000
,  // measure 48
1000
0000
0000
0001
0010
0000
0100
0000
1001
0000
0000
0010
0001
0000
1000
0000
,  // measure 49
1001
0000
0000
0100
1000
0000
0001
0000
0100
0000
1000
0000
0100
0000
0001
0000
,  // measure 50
1000
0000
0000
0100
0010
0000
0001
0000
0101
0000
0000
1000
0001
0000
0100
0000
,  // measure 51
1010
0000
0000
0000
1000
0000
0001
0000
1000
0001
1000
0001
1000
0001
1000
0001
,  // measure 52
1000
0000
0100
0000
0010
0000
0001
1000
,  // measure 53
0001
0000
0100
0000
0010
0000
1000
0100
,  // measure 54
1000
0000
0001
0000
0010
0000
0100
0010
,  // measure 55
0100
0000
1000
0000
0001
0000
0100
0010
,  // measure 56
0100
0000
0001
0000
1000
0000
0001
0100
,  // measure 57
0001
0000
0010
0000
0100
0000
1000
0100
,  // measure 58
1000
0000
0100
0000
0010
0000
0001
0010
,  // measure 59
0001
0000
0000
0000
0000
2000
0000
3000
0200
0000
0000
0000
0000
0000
0300
0000
;

//---------------dance-single - ----------------
#NOTES:
     dance-single:
     X-Scale 13:
     Hard:
     9:
     0.622053,0.609401,0.168156,0.212408,0.650500,492.000000,473.000000,19.000000,24.000000,0.000000,0.000000,0.622053,0.609401,0.168156,0.212408,0.650500,492.000000,473.000000,19.000000,24.000000,0.000000,0.000000:
// measure 0
0000
0000
0000
0000
,  // measure 1
0000
0000
0000
0000
,  // measure 2
0000
0000
0000
0000
,  // measure 3
0000
0000
0000
0000
,  // measure 4
1100
0000
0000
1000
0001
0000
0100
0000
0001
0000
0000
0010
0100
0000
0010
0000
,  // measure 5
0001
0000
0000
0010
0100
0000
1000
0000
0001
0000
1000
0000
0010
0000
0000
0000
,  // measure 6
0011
0000
0000
0001
1000
0000
0001
0000
0100
0000
0000
0010
0100
0000
0001
0000
,  // measure 7
1000
0000
0000
0100
0010
0000
0010
0000
0000
0001
0000
0001
0000
0000
0010
0000
,  // measure 8
0100
1000
1000
2000
0000
0000
3001
0100
0010
0020
0030
0000
,  // measure 9
0100
0001
0001
1000
0010
0001
1000
0100
0010
0020
0030
0000
,  // measure 10
1000
0100
0100
0200
0000
0000
0310
0001
1000
2000
3000
0000
,  // measure 11
0001
0200
0000
1300
0100
0010
0100
0001
1000
0200
0300
0000
,  // measure 12
0010
0100
0100
0200
0000
0000
0301
0100
1000
2000
3000
0000
,  // measure 13
0010
0100
1000
0001
0010
0100
0001
1000
0001
0200
0300
0000
,  // measure 14
0001
1000
1000
2000
0000
0000
3001
0100
0010
0020
0030
0000
,  // measure 15
1000
0000
0000
0000
0100
0000
0000
0000
0001
0000
0000
0000
1000
0000
0000
0000
0010
0000
0000
0000
0100
0000
0000
0000
1000
0000
0000
0000
0001
0000
0000
0000
0100
0000
0000
0000
0020
0000
0000
0000
0000
0000
0030
0000
0000
0100
0000
0000
,  // measure 16
0001
0000
0000
0000
0000
0000
0000
0000
0000
0001
0000
0000
0100
0000
0000
0000
0000
0000
0001
0000
0000
0000
0000
0000
1000
0000
0000
0000
1000
0000
0000
0000
1000
0000
0000
0000
1000
0000
0000
0000
0000
0000
0001
0000
0000
0000
0000
0000
,  // measure 17
0010
0000
0000
0000
0000
0000
0000
0000
0000
0001
0000
0000
0100
0000
0000
0000
0000
0000
0001
0000
0000
0000
0000
0000
0010
0000
0000
0000
0010
0000
0000
0000
0010
0000
0000
0000
0010
0000
0000
0000
0000
0000
0100
0000
0000
0000
0000
0000
,  // measure 18
1000
0000
0000
0000
0000
0000
0000
0000
0000
0010
0000
0000
0100
0000
0000
0000
0000
0000
0001
0000
0000
0000
0000
0000
0100
0000
0000
0000
0100
0000
0000
0000
0100
0000
0000
0000
0100
0000
0000
0000
0000
0000
0001
0000
0000
0000
0000
0000
,  // measure 19
1000
0000
0000
0100
0010
0000
0001
0000
1000
0100
0010
0001
0100
0010
1000
0000
,  // measure 20
1010
0000
0000
0010
1000
0000
0001
0000
0010
0000
0000
0100
0010
0000
0001
0000
,  // measure 21
1000
0000
0000
0100
0010
0000
1000
0000
0010
0000
0000
0100
1000
0000
0001
0000
,  // measure 22
0101
0000
0000
1000
0001
0000
1000
0000
0100
0000
0000
0100
1000
0000
0001
0000
,  // measure 23
0100
0000
0000
0001
1000
0000
0001
0000
1000
0100
0000
0001
0100
0000
0100
0000
,  // measure 24
1000
0000
0000
0010
1000
0000
0001
0000
0001
0000
0000
1000
0100
0000
0100
0000
,  // measure 25
0010
0000
0000
0010
0200
0000
0300
0000
1001
0000
1000
0001
1000
0000
1000
0000
,  // measure 26
0010
0000
0000
0010
0100
0000
0001
0000
0001
0000
0000
1000
0010
0000
1000
0000
,  // measure 27
1000
0000
0000
0100
0010
0000
0001
0000
1000
0001
0100
0010
1000
0001
0100
0010
,  // measure 28
2000
0000
3100
0001
0200
0000
2300
0000
,  // measure 29
3001
0000
0000
0000
0000
0000
0100
0000
0000
0000
0000
0000
1000
0000
0000
0000
0000
0000
0100
0000
0000
0000
0000
0000
0002
0000
0000
0000
0000
0000
0000
0000
0000
0003
0100
0000
0000
0000
0000
0001
0000
0000
0000
0000
0000
0000
0000
0000
,  // measure 30
2000
0000
3001
0010
0200
0000
0320
0000
,  // measure 31
0031
0000
0000
0000
0000
0000
0010
0000
0000
0000
0000
0000
1000
0000
0000
0000
0000
0000
0010
0000
0000
0000
0000
0000
0002
0000
0000
0000
0000
0000
0000
0000
0000
0003
1000
0000
0000
0000
0000
0010
0000
0000
0000
0000
0000
0000
0000
0000
,  // measure 32
1010
0000
0000
0000
0001
0000
1000
0000
1001
0000
0000
1000
0010
0000
0110
0000
,  // measure 33
1001
0000
0000
0000
0101
0000
1000
0000
1001
0000
0100
0000
0000
0110
0000
0000
,  // measure 34
0011
0000
0000
0001
1000
0000
0001
0000
0011
0000
0000
0010
0100
0000
1100
0000
,  // measure 35
0000
0000
0000
0000
0000
0000
0001
0010
1000
0001
0100
1000
,  // measure 36
1100
0000
0000
0000
0000
0000
0000
0000
0000
0100
0000
0000
1000
0000
0000
0000
0001
0000
0000
0000
1000
0000
0000
0000
0100
0000
0000
0000
0000
0000
0000
0000
0000
0010
0000
0000
0001
0000
0000
0000
0000
0000
1000
0000
0000
0000
0000
0000
,  // measure 37
0001
0000
0000
0000
0000
0000
0000
0000
0000
1000
0000
0000
0100
0000
0000
0000
0010
0000
0100
0000
0000
0000
0000
0000
1000
0000
0000
0000
0000
0000
0001
0000
0000
0000
0000
0000
1000
0000
0000
0000
0000
0000
0000
0000
0000
0000
0000
0000
,  // measure 38
1010
0000
0000
0000
0000
0000
0000
0000
0000
0010
0000
0000
1000
0000
0000
0000
0001
0000
1000
0000
0000
0000
0000
0000
0001
0000
0000
0000
0000
0000
0000
0000
0000
0100
0000
0000
0001
0000
0000
0000
0000
0000
1000
0000
0000
0000
0000
0000
,  // measure 39
0001
0000
0000
0100
0010
0000
0001
0000
0010
0100
0000
1000
0100
0000
0001
0000
,  // measure 40
1000
0000
0000
0010
1000
0000
0001
0000
1000
0000
0010
0100
0001
0000
1000
0000
,  // measure 41
0001
0000
0000
0010
0100
0000
0010
0000
1000
0000
0010
0000
0001
0000
0000
0000
,  // measure 42
1001
0000
0000
0010
0001
0000
1000
0000
0100
0000
0010
0100
1000
0000
0001
0000
,  // measure 43
0100
0000
0000
0010
0100
0000
0001
0000
1000
0001
1000
0001
1000
0000
1000
0000
,  // measure 44
1001
0000
0001
0010
0001
0000
1000
0000
0010
0000
0100
0010
0100
0000
0001
0000
,  // measure 45
1000
0000
0100
0010
0100
0000
1000
0000
0001
0000
1000
0001
1000
0000
0100
0000
,  // measure 46
0001
0000
1000
0000
0010
0000
0100
0000
1000
0100
1000
0100
1000
0000
0010
0000
,  // measure 47
0001
0010
0100
0010
1000
0000
1000
0000
0001
0100
0000
0100
0001
0000
0001
0000
,  // measure 48
1000
0000
0100
0010
0100
0000
1000
0000
1000
0000
0001
0100
0010
0000
0010
0000
,  // measure 49
1000
0000
0100
0010
0001
0000
0001
0000
1000
0000
0010
0000
0100
0000
0001
0000
,  // measure 50
1000
0000
0100
0010
0100
0000
0100
0000
1000
0000
0001
0100
0010
0000
0010
0000
,  // measure 51
1000
0000
0100
0000
0001
0000
0100
0000
1000
0001
0010
0100
1000
0001
0010
0100
,  // measure 52
1000
0000
0000
0000
0000
0000
1000
0000
0001
0100
0000
0000
0001
0000
0000
0000
0000
0000
1000
0000
0000
0100
0000
0000
,  // measure 53
0001
0000
0000
0000
0000
0000
0000
0000
0000
0100
0000
0000
0000
0000
0000
0000
1000
0000
0001
0000
0000
0000
0000
0000
0100
0000
0000
0000
0000
0000
0000
0000
0000
0000
0000
0000
0001
0000
0000
0000
0000
0000
0010
0000
0000
0000
0000
0000
,  // measure 54
0100
0000
0000
0000
0000
0000
0000
0000
0000
1000
0000
0000
0000
0000
0000
0000
0001
0000
1000
0000
0000
0000
0000
0000
0010
0000
0000
0000
0000
0000
0000
0000
0000
0000
0000
0000
1000
0000
0000
0000
0000
0000
0001
0000
0000
0000
0000
0000
,  // measure 55
0100
0000
0000
0010
0100
0000
0001
0000
1000
0000
0010
0100
0010
0000
1000
0000
,  // measure 56
0100
0000
0000
1000
0010
0000
0001
0000
0010
0000
0100
0010
1000
0000
0010
0000
,  // measure 57
0100
0000
0000
0100
0001
0000
1000
0000
0010
0000
0001
0010
0100
0000
0001
0000
,  // measure 58
1000
0000
0000
0100
0010
0000
0001
0000
1000
0000
0001
1000
0010
0000
1000
0000
,  // measure 59
0001
0000
0000
0000
0000
0000
0000
0010
0000
0000
0002
0000
0000
0000
0003
0000
2000
0000
0000
0000
0000
0000
0000
0000
0000
0000
0000
0000
3000
0000
0000
0000
;
