#VERSION:0.83;
#TITLE:Кохаю, але не зовсім;
#SUBTITLE:;
#ARTIST:DOROFEEVA;
#TITLETRANSLIT:Kokhayu, ale ne zovsim;
#SUBTITLETRANSLIT:;
#ARTISTTRANSLIT:;
#GENRE:Pop;
#ORIGIN:;
#CREDIT:;
#BANNER:kokhayu-bn.png;
#BACKGROUND:kokhayu-bg.png;
#PREVIEWVID:;
#JACKET:kokhayu-jacket.png;
#CDIMAGE:;
#DISCIMAGE:;
#LYRICSPATH:;
#CDTITLE:cdtitle.png;
#MUSIC:kokhayu.ogg;
#OFFSET:0.001000;
#SAMPLESTART:60.922001;
#SAMPLELENGTH:14.769000;
#SELECTABLE:YES;
#BPMS:0.000=130.000;
#STOPS:;
#DELAYS:;
#WARPS:;
#TIMESIGNATURES:0.000=4=4;
#TICKCOUNTS:0.000=4;
#COMBOS:0.000=1;
#SPEEDS:0.000=1.000=0.000=0;
#SCROLLS:0.000=1.000;
#FAKES:;
#LABELS:0.000=Song Start;
#BGCHANGES:0.000=kokhayu.avi=1.000=1=0=0=StretchNoLoop==CrossFade==,
99999=-nosongbg-=1.000=0=0=0 // don't automatically add -songbackground-
;
#KEYSOUNDS:;
#ATTACKS:
;

//---------------dance-single - ----------------
#NOTEDATA:;
#CHARTNAME:X-Scale 2;
#STEPSTYPE:dance-single;
#DESCRIPTION:;
#CHARTSTYLE:;
#DIFFICULTY:Beginner;
#METER:1;
#RADARVALUES:0.113410,0.129304,0.000000,0.000000,0.000000,99.000000,99.000000,0.000000,0.000000,0.000000,0.000000,0.000000,0.000000,0.000000,0.113410,0.129304,0.000000,0.000000,0.000000,99.000000,99.000000,0.000000,0.000000,0.000000,0.000000,0.000000,0.000000,0.000000;
#CREDIT:iamthek3n;
#NOTES:
// measure 0
0000
0000
0000
0000
,  // measure 1
0000
0000
0000
0000
,  // measure 2
0000
0000
0000
0000
,  // measure 3
0000
0000
0000
0000
,  // measure 4
0001
0000
0000
0000
,  // measure 5
0010
0000
0000
0000
,  // measure 6
0100
0000
0000
0000
,  // measure 7
1000
0000
0000
0000
,  // measure 8
0000
0000
0000
0000
,  // measure 9
0001
0000
0000
0000
,  // measure 10
1000
0000
0000
0000
,  // measure 11
0010
0000
0000
0000
,  // measure 12
1000
0000
0000
0000
,  // measure 13
0001
0000
0010
0000
,  // measure 14
0001
0000
1000
0000
,  // measure 15
0001
0000
0010
0000
,  // measure 16
0001
0000
1000
0000
,  // measure 17
0100
0000
1000
0000
,  // measure 18
0010
0000
1000
0000
,  // measure 19
0001
0000
0010
0000
,  // measure 20
0001
0000
1000
0000
,  // measure 21
0010
0000
1000
0000
,  // measure 22
0001
0000
0010
0000
,  // measure 23
0001
0000
1000
0000
,  // measure 24
0001
0000
0000
0000
,  // measure 25
0100
0000
0000
0000
,  // measure 26
0010
0000
0000
0000
,  // measure 27
1000
0000
0000
0000
,  // measure 28
0001
0000
0000
0000
,  // measure 29
0010
0000
0000
0000
,  // measure 30
0100
0000
0000
0000
,  // measure 31
1000
0000
0000
0000
,  // measure 32
0010
0000
0000
0000
,  // measure 33
1000
0000
0100
0000
,  // measure 34
1000
0000
0001
0000
,  // measure 35
1000
0000
0100
0000
,  // measure 36
1000
0000
0001
0000
,  // measure 37
0100
0000
0010
0000
,  // measure 38
0100
0000
0001
0000
,  // measure 39
0100
0000
0010
0000
,  // measure 40
1000
0000
0000
0000
,  // measure 41
0001
0000
0010
0000
,  // measure 42
0100
0000
1000
0000
,  // measure 43
0100
0000
0010
0000
,  // measure 44
0001
0000
1000
0000
,  // measure 45
0010
0000
1000
0000
,  // measure 46
0001
0000
1000
0000
,  // measure 47
0010
0000
1000
0000
,  // measure 48
0001
0000
0000
0000
,  // measure 49
0010
0000
0100
0000
,  // measure 50
0010
0000
0001
0000
,  // measure 51
1000
0000
0010
0000
,  // measure 52
1000
0000
0001
0000
,  // measure 53
0100
0000
0001
0000
,  // measure 54
1000
0000
0100
0000
,  // measure 55
0010
0000
0001
0000
,  // measure 56
0000
0000
0000
0000
,  // measure 57
1000
0000
0001
0000
,  // measure 58
0000
0100
0001
0000
,  // measure 59
1000
0000
0001
0000
,  // measure 60
0000
1000
0001
0000
,  // measure 61
0010
0000
0100
0000
,  // measure 62
0000
0010
0100
0000
,  // measure 63
1000
0000
0001
0000
,  // measure 64
0000
1000
0001
0000
;

//---------------dance-single - ----------------
#NOTEDATA:;
#CHARTNAME:X-Scale 6;
#STEPSTYPE:dance-single;
#DESCRIPTION:;
#CHARTSTYLE:;
#DIFFICULTY:Easy;
#METER:4;
#RADARVALUES:0.247439,0.310330,0.016038,0.000000,0.000000,216.000000,214.000000,2.000000,0.000000,0.000000,0.000000,0.000000,0.000000,0.000000,0.247439,0.310330,0.016038,0.000000,0.000000,216.000000,214.000000,2.000000,0.000000,0.000000,0.000000,0.000000,0.000000,0.000000;
#CREDIT:iamthek3n;
#NOTES:
// measure 0
0000
0000
0000
0000
,  // measure 1
0000
0000
0000
0000
,  // measure 2
0000
0000
0000
0000
,  // measure 3
0000
0000
0000
0000
,  // measure 4
1000
0000
0000
0000
,  // measure 5
0001
0000
0000
0000
,  // measure 6
1000
0000
0000
0000
,  // measure 7
0001
0000
0000
0000
,  // measure 8
0000
0000
0000
0000
,  // measure 9
0010
0000
0100
0000
,  // measure 10
1000
0000
0001
0000
,  // measure 11
1000
0000
0010
0000
,  // measure 12
1000
0000
0001
0000
,  // measure 13
0010
0001
0010
0100
,  // measure 14
0010
0001
1000
0010
,  // measure 15
1000
0001
1000
0100
,  // measure 16
0010
0100
1000
0001
,  // measure 17
0100
0000
0001
0000
0100
0001
1000
0000
,  // measure 18
0100
0010
0100
1000
,  // measure 19
0001
0000
0100
0000
0010
0100
0001
0000
,  // measure 20
0010
0100
0010
0001
,  // measure 21
1000
0000
0010
1000
0001
1000
0010
0000
,  // measure 22
1000
0000
0100
0000
0010
0100
1000
0000
,  // measure 23
0001
0000
1000
0000
0010
0000
0100
0010
,  // measure 24
1000
0000
0000
0000
,  // measure 25
0001
0000
0000
0000
,  // measure 26
1000
0000
0000
0000
,  // measure 27
0001
0000
0000
0000
,  // measure 28
1000
0000
0000
0000
,  // measure 29
0100
0000
0000
0000
,  // measure 30
0010
0000
0000
0000
,  // measure 31
0100
0000
0000
0000
,  // measure 32
0010
0000
0000
0000
0000
0001
0001
0000
,  // measure 33
0011
0010
0001
1000
,  // measure 34
0001
0000
0010
0000
0100
0000
1000
0001
,  // measure 35
0000
1000
0010
0000
1000
0000
0001
0000
,  // measure 36
0010
0000
0100
0000
1000
0000
0001
0010
,  // measure 37
0000
0001
1000
0000
0100
0000
0010
0000
,  // measure 38
0100
0000
1000
0000
0001
0000
0100
0010
,  // measure 39
0000
1000
0001
0000
0010
0000
0100
0000
,  // measure 40
1000
0000
0000
0000
0001
1000
0001
0000
,  // measure 41
0100
0001
1000
0001
,  // measure 42
0100
0000
0001
0000
1000
0100
0010
0000
,  // measure 43
0100
1000
0001
1000
,  // measure 44
0010
0100
0000
0100
0001
0000
1000
0100
,  // measure 45
1000
0001
0100
0001
,  // measure 46
1000
0000
0001
0000
0100
0001
0010
0000
,  // measure 47
0100
1000
0001
1000
,  // measure 48
0010
1000
1000
0000
0001
0000
0100
0000
,  // measure 49
0001
0000
1000
0001
1000
0000
0100
0000
,  // measure 50
1000
0000
0001
0000
0010
0100
1000
0000
,  // measure 51
0001
0000
0100
0010
0100
0000
0001
0000
,  // measure 52
0010
0000
0100
0000
1000
0001
0100
0000
,  // measure 53
0001
0000
0010
0100
0010
0000
0001
0000
,  // measure 54
1000
0000
0010
0000
1000
0100
0010
0000
,  // measure 55
0100
0000
1000
0000
0001
0100
0000
0001
,  // measure 56
0000
0000
0000
0000
,  // measure 57
1001
0000
1000
0000
0000
0001
0000
0001
,  // measure 58
0000
0001
0000
0100
0010
1000
0100
0000
,  // measure 59
0010
0000
0010
0000
0000
0100
0000
0100
,  // measure 60
0000
1000
0000
0001
0010
0100
1000
0000
,  // measure 61
0001
0000
0001
0000
0000
0100
0000
0100
,  // measure 62
0000
0100
0000
0010
0100
0001
1000
0000
,  // measure 63
0100
0000
0010
0000
0000
0100
0000
0010
,  // measure 64
0000
0010
0010
0000
0010
0000
0000
0000
;

//---------------dance-single - ----------------
#NOTEDATA:;
#CHARTNAME:X-Scale 10;
#STEPSTYPE:dance-single;
#DESCRIPTION:;
#CHARTSTYLE:;
#DIFFICULTY:Medium;
#METER:7;
#RADARVALUES:0.379178,0.467299,0.240566,0.465094,0.152358,331.000000,301.000000,30.000000,58.000000,0.000000,0.000000,0.000000,0.000000,0.000000,0.379178,0.467299,0.240566,0.465094,0.152358,331.000000,301.000000,30.000000,58.000000,0.000000,0.000000,0.000000,0.000000,0.000000;
#CREDIT:iamthek3n;
#NOTES:
// measure 0
0000
0000
0000
0000
,  // measure 1
0000
0000
0000
0000
,  // measure 2
0000
0000
0000
0000
,  // measure 3
0000
0000
0000
0000
,  // measure 4
0001
0000
0000
0000
,  // measure 5
0100
0000
0000
0000
,  // measure 6
0010
0000
0000
0000
,  // measure 7
1000
0000
0000
0000
0000
0000
0200
0300
,  // measure 8
0200
0300
0200
0300
0000
0000
0000
0000
,  // measure 9
1100
0000
0000
0100
0000
0000
1000
0000
0000
0001
0000
0001
0000
0000
0000
0010
,  // measure 10
0001
0000
0000
1000
0000
0000
0100
0000
0000
1000
0000
1000
0000
0000
0000
0000
,  // measure 11
0100
0000
0000
0010
0000
0000
0001
0000
0000
0100
0000
0100
0000
0000
0000
0000
,  // measure 12
0000
0001
0000
1000
0000
0010
0000
0000
1000
0000
0000
0100
0000
0000
0010
0000
,  // measure 13
0011
0000
0000
0001
0010
0000
0001
0000
1000
0000
0000
0100
0010
0000
0100
0000
,  // measure 14
1000
0000
0000
0001
0100
0000
0001
0000
0010
0000
0000
0100
0010
0000
0001
0000
,  // measure 15
1000
0000
0000
0010
1000
0000
0001
0000
1000
0000
0000
0010
0100
0000
0010
0000
,  // measure 16
1000
0000
0000
1000
0001
0000
1000
0000
0010
0000
0000
0010
0000
0000
0100
0010
,  // measure 17
0100
0000
0000
0000
0001
0000
0010
0000
1000
0000
0010
0000
0001
0000
0000
1000
,  // measure 18
0001
0000
0000
0001
1000
0000
0010
0000
1000
0000
0000
1000
0100
0000
1000
0000
,  // measure 19
0001
0000
1000
0010
0001
0010
1000
0000
,  // measure 20
0001
0000
0010
0000
0100
0000
1000
0100
0000
0000
1000
0000
0001
0000
0100
0000
,  // measure 21
0001
0000
1000
0010
0001
0010
1000
0000
,  // measure 22
0001
0000
0000
0001
0100
0000
0001
0000
1000
0000
0100
0000
0001
0000
0100
0000
,  // measure 23
1000
0000
0000
1000
0001
0000
1000
0000
0010
0000
0100
0000
0001
0000
0010
0000
,  // measure 24
0100
0000
0000
0000
,  // measure 25
1000
0000
0000
0000
,  // measure 26
0100
0000
0000
0000
,  // measure 27
0010
0000
0000
0000
,  // measure 28
0001
0000
0000
0000
,  // measure 29
0100
0000
0000
0000
,  // measure 30
0010
0000
0000
0000
,  // measure 31
1000
0000
0000
0000
,  // measure 32
0001
0000
0000
0000
0000
1000
1000
0000
,  // measure 33
1001
0000
0010
0000
0001
0010
1000
0010
,  // measure 34
0200
0000
2300
0000
3002
0000
0103
0001
,  // measure 35
0000
1000
0001
0000
1000
0010
0001
0010
,  // measure 36
1000
0100
0010
0100
2000
0000
3001
0010
,  // measure 37
0000
0001
1000
0000
0100
0010
0001
1000
,  // measure 38
0010
0001
0010
1000
0002
0000
0013
0100
,  // measure 39
0000
1000
0001
0000
0100
0010
1000
0001
,  // measure 40
0010
1000
0001
0100
1000
0001
1000
0000
,  // measure 41
2002
3003
0220
0330
0000
2200
3300
0202
,  // measure 42
0303
0022
0033
1000
0010
0100
0010
0000
,  // measure 43
0220
0330
0022
0033
0000
0202
0303
2002
,  // measure 44
3003
2200
3300
0100
1000
0001
0010
0100
,  // measure 45
0220
0330
2002
3003
0000
0202
0303
0220
,  // measure 46
0330
2002
3003
0001
0010
0100
1000
0000
,  // measure 47
2200
3300
0022
0033
0000
0202
0303
2020
,  // measure 48
3030
0000
0001
0000
0001
1000
0000
0000
0100
0000
0000
0010
0000
0000
0001
0000
,  // measure 49
0011
0010
0100
0010
0001
1000
0000
1000
,  // measure 50
0000
1000
0000
0010
1000
0001
0100
0000
,  // measure 51
0001
1000
0010
1000
0001
0010
0000
0010
,  // measure 52
0000
0100
0000
1000
0100
0001
1000
0010
,  // measure 53
0001
1000
0001
0100
0010
1000
0000
1000
,  // measure 54
0000
1000
0000
1000
0100
0010
0001
0000
,  // measure 55
0022
0033
2020
3030
0000
0022
0033
2020
,  // measure 56
3030
0000
0000
0000
,  // measure 57
1001
0000
0000
0000
0000
0000
1000
0000
0000
0001
0000
0000
1000
0000
0000
0000
0000
0000
0100
0000
0010
0000
0100
0000
,  // measure 58
0000
0000
1000
0100
1000
0000
0001
0000
0200
0000
0000
0000
0302
0000
0000
0000
,  // measure 59
1003
0000
0001
0100
0001
0000
0010
0010
,  // measure 60
0000
0100
0100
1000
0010
0001
0010
1000
,  // measure 61
0001
0000
0000
0000
0000
0000
0001
0000
0000
0100
0000
0000
0001
0000
0000
0000
0000
0000
1000
0000
0001
0000
1000
0000
,  // measure 62
0000
0100
0000
0100
0010
0001
1000
1000
,  // measure 63
1001
0000
0000
0000
0000
0000
0001
0000
0000
1000
0000
0000
0001
0000
0000
0000
0000
0000
1000
0000
0010
0000
1000
0000
,  // measure 64
0000
0001
0001
0000
0022
0000
0033
0000
;

//---------------dance-single - ----------------
#NOTEDATA:;
#CHARTNAME:X-Scale 12;
#STEPSTYPE:dance-single;
#DESCRIPTION:;
#CHARTSTYLE:;
#DIFFICULTY:Hard;
#METER:8;
#RADARVALUES:0.477695,0.545182,0.144339,0.416981,0.264622,417.000000,399.000000,18.000000,52.000000,0.000000,0.000000,0.000000,0.000000,0.000000,0.477695,0.545182,0.144339,0.416981,0.264622,417.000000,399.000000,18.000000,52.000000,0.000000,0.000000,0.000000,0.000000,0.000000;
#CREDIT:iamthek3n;
#NOTES:
// measure 0
0000
0000
0000
0000
,  // measure 1
0000
0000
0000
0000
,  // measure 2
0000
0000
0000
0000
,  // measure 3
0000
0000
0000
0000
,  // measure 4
1000
0000
0001
0100
,  // measure 5
0001
0100
1000
0001
0020
0000
1030
0002
,  // measure 6
0000
2003
0000
3000
0000
0000
0100
0000
,  // measure 7
0010
0000
0001
0000
1000
0001
0200
0300
,  // measure 8
0200
0000
0300
0000
0200
0300
0000
0000
0100
0000
0000
0000
0000
0000
0000
0000
,  // measure 9
0101
0000
0000
0001
0000
0000
1000
0000
0100
0010
0000
0001
0000
0000
1000
0000
,  // measure 10
0001
0000
0000
0100
0000
0000
0001
0000
1000
0010
0000
0100
0000
0000
0001
0000
,  // measure 11
1000
0000
0000
0010
0000
0000
1000
0000
0001
0100
0000
0010
0000
0000
0100
0000
,  // measure 12
0001
0000
1000
0100
0000
0010
0001
0000
1000
0000
0000
0001
0000
0001
0100
0001
,  // measure 13
0100
0000
0000
0010
0100
0000
0001
0000
1000
0100
0000
1000
0001
0000
0010
0000
,  // measure 14
0100
0000
0000
1000
0001
0000
0010
0000
0100
0010
0000
0001
0100
0000
0001
0000
,  // measure 15
1000
0000
0000
1000
0001
0000
0100
0000
0010
0000
0100
0001
0100
0000
0000
0000
,  // measure 16
0101
0000
0000
0001
1000
0001
0000
0000
1000
0000
0000
1000
0001
1000
0001
0000
,  // measure 17
1001
0000
0000
0000
1000
0000
0010
0000
0001
0000
0010
0000
1000
0000
0000
0001
,  // measure 18
0010
0000
0001
0000
1000
0000
0100
0020
0000
0000
1030
0000
0010
0000
0001
0000
,  // measure 19
1000
0000
0000
0001
0010
0000
0001
0000
1000
0000
0001
0000
0100
0000
0000
0000
,  // measure 20
0101
0000
0001
0000
0010
0000
0100
2000
0000
0000
3001
0000
0100
0000
0010
0000
,  // measure 21
1000
0000
0000
1000
0100
0000
0001
0000
1000
0000
0010
0000
0001
0000
0000
0000
,  // measure 22
0011
0000
0010
0000
0100
0000
1000
0002
0000
0000
0103
0000
0001
0000
1000
0000
,  // measure 23
0100
0000
0000
0100
1000
0000
0001
0000
0100
0000
0010
0000
0001
0000
0010
0000
,  // measure 24
2000
0000
0000
0000
,  // measure 25
3001
0000
0100
0000
,  // measure 26
0001
0000
0010
0000
0100
0000
1000
0002
,  // measure 27
0000
0203
0000
0300
0001
0000
0000
0000
,  // measure 28
1000
0000
0100
0000
0010
0000
0100
2000
,  // measure 29
0000
3002
0000
0003
0100
0000
0000
0000
,  // measure 30
0001
0000
0010
0000
0100
0000
1000
0002
,  // measure 31
0000
2003
0000
3000
0000
0010
1000
0001
,  // measure 32
0100
0000
0010
0000
1000
0001
1000
0000
,  // measure 33
1001
0000
0000
0010
0001
0000
1000
0000
0010
1000
0000
1000
0001
0000
0010
0000
,  // measure 34
0100
0000
0000
0100
1000
0000
0001
0000
0100
0010
0000
0010
0100
0000
0001
0000
,  // measure 35
1000
0000
0000
0100
0010
0000
0100
0000
1000
0010
0000
0100
0001
0000
1000
0000
,  // measure 36
0001
0000
0010
0100
0000
0010
0000
0000
0001
0000
0000
0001
1000
0000
0001
0100
,  // measure 37
0001
0000
0000
1000
0100
0000
1000
0000
0001
0010
0000
0010
0100
0000
1000
0000
,  // measure 38
0001
0000
0000
0100
0001
0000
1000
0000
0001
0010
0000
0010
0100
0000
1000
0000
,  // measure 39
0001
0000
0000
0100
0001
0000
1000
0000
0010
1000
0000
1000
0001
0000
0010
0000
,  // measure 40
0100
0000
1000
0100
0000
1000
0000
0000
0001
0000
0010
0000
0010
0000
0000
0000
,  // measure 41
0011
1000
0001
1000
0100
0020
0030
0020
,  // measure 42
0030
0020
0031
1000
0010
1000
0002
0000
,  // measure 43
0013
0100
0001
1000
0010
0200
0300
0200
,  // measure 44
0310
0002
1003
0010
0100
1000
0100
0001
,  // measure 45
1000
0000
1001
0100
1000
0002
0003
0002
,  // measure 46
0003
0002
0103
0010
1000
0100
0001
0100
,  // measure 47
2000
0000
3002
0000
0103
0002
0000
0023
,  // measure 48
0000
0000
0130
0000
0100
1000
0000
0000
0010
0000
1000
0001
1000
0001
1000
0001
,  // measure 49
1000
0100
0001
0100
1000
2000
3000
2000
,  // measure 50
3100
2000
3001
0010
1000
0010
0002
0000
,  // measure 51
1003
0010
0001
0010
1000
0002
0003
0002
,  // measure 52
0103
0020
1030
0100
0010
1000
0010
0100
,  // measure 53
1000
0100
0001
0100
1000
0020
0030
0020
,  // measure 54
0130
0020
1030
0001
0100
0001
2000
0000
,  // measure 55
3200
0000
0320
0000
0031
0200
0000
0302
,  // measure 56
0000
0003
0000
0000
0000
0000
0000
0000
,  // measure 57
1001
0000
0000
0000
0000
0000
1000
0000
0000
1000
0000
0000
1100
0000
0000
0100
0000
0000
0100
0000
0010
0000
0001
0000
,  // measure 58
0000
1000
0010
1000
0001
0000
0100
0100
,  // measure 59
0101
0000
0000
0000
0000
0000
0001
0000
0000
0001
0000
0000
1001
0000
0000
0100
0000
0000
1000
0000
0100
1000
0000
0000
,  // measure 60
0000
0001
0100
0010
0100
1000
0100
0100
,  // measure 61
0101
0000
0000
0000
0000
0000
1000
0000
0000
1000
0000
0000
1100
0000
0000
0100
0000
0000
0100
0000
1000
0000
0001
0000
,  // measure 62
0000
0100
0101
0001
1001
1000
0100
0100
,  // measure 63
2100
0001
3020
0100
1030
0002
0100
0203
,  // measure 64
0300
0001
0002
0003
2002
0000
3003
0000
;
