#TITLE:Kiss Me Thru the Phone;
#SUBTITLE:;
#ARTIST:That Kid;
#TITLETRANSLIT:;
#SUBTITLETRANSLIT:;
#ARTISTTRANSLIT:;
#GENRE:Bubblegum Bass;
#CREDIT:;
#BANNER:Kiss Me Thru the Phone-bn.png;
#BACKGROUND:Kiss Me Thru the Phone-bg.png;
#LYRICSPATH:;
#CDTITLE:cdtitle.png;
#MUSIC:Kiss Me Thru the Phone.ogg;
#OFFSET:-0.006000;
#SAMPLESTART:24.465000;
#SAMPLELENGTH:24.451000;
#SELECTABLE:YES;
#BPMS:0.000000=157.000000
,32.000000=78.500000
,64.000000=157.000000
,96.000000=78.500000
,112.000000=157.000000
,136.000000=78.500000
,156.000000=157.000000
;
#STOPS:
;
#BGCHANGES:0.000=Kiss Me Thru the Phone.avi=1.000=0=0=0=StretchNoLoop==CrossFade_Fastest==,
99999=-nosongbg-=1.000=0=0=0 // don't automatically add -songbackground-
;
#KEYSOUNDS:;
#ATTACKS:;

//---------------dance-single - ----------------
#NOTES:
     dance-single:
     X-Scale 14:
     Hard:
     9:
     0.622847,0.717066,0.267541,0.237814,0.678762,440.000000,413.000000,27.000000,24.000000,0.000000,0.000000,0.622847,0.717066,0.267541,0.237814,0.678762,440.000000,413.000000,27.000000,24.000000,0.000000,0.000000:
// measure 0
0000
0000
0000
0000
,  // measure 1
0000
0000
0000
0000
,  // measure 2
0000
0000
0000
0000
,  // measure 3
0000
0000
0000
0000
,  // measure 4
0120
0000
0000
1000
1000
0000
0001
0000
,  // measure 5
0230
0000
0000
0010
0010
0000
0001
0000
,  // measure 6
0310
0000
1000
0100
0001
0100
0020
0000
,  // measure 7
0032
0000
0000
0013
0001
1000
0010
0100
0001
0010
0100
0010
,  // measure 8
0001
0000
1000
0000
0010
0010
0010
0010
0010
0000
0100
0000
0001
0001
0001
0001
,  // measure 9
0001
0000
0010
0000
0100
0100
0100
0100
0100
0000
1000
0000
0000
0010
1000
0001
,  // measure 10
1000
0000
0100
0000
0010
0010
0010
0010
0010
0000
0001
0000
1000
1000
1000
1000
,  // measure 11
1000
0000
0000
0000
0000
0000
0010
0000
0000
0000
0000
0000
0100
0000
0000
0100
0000
0000
0100
0000
0000
0100
0000
0000
0100
0000
0000
0000
0000
0000
0001
0000
0010
0000
0100
0000
1000
0000
0010
0000
0100
0000
0001
0000
0000
0000
0000
0000
,  // measure 12
0101
0000
0100
0000
0001
0010
1000
0010
0001
0000
1000
0000
0010
0100
0001
1000
,  // measure 13
0001
0000
0100
0000
0010
0100
0001
1000
0010
0001
1000
0100
0001
0000
0010
0100
,  // measure 14
0110
0000
1000
0000
0001
0010
1000
0010
0001
0000
0010
0000
0100
0010
0001
1000
,  // measure 15
0010
0000
0100
0000
0001
0100
0010
0100
0001
1000
0010
0001
0010
1000
0100
0010
,  // measure 16
0011
0000
0000
0000
0001
0000
1000
0001
1000
0000
0100
0010
0000
0000
0010
0000
,  // measure 17
0011
0000
0000
0000
0001
0010
0001
0010
0001
0010
0001
0010
0001
0010
0001
0000
,  // measure 18
0011
0000
0000
0000
0110
0000
0000
0000
0101
0000
0000
1001
0000
0000
0101
0000
,  // measure 19
1010
0000
0000
0100
1000
0001
1000
0000
0000
0000
0000
0000
0001
0100
0010
0100
,  // measure 20
0002
0000
0000
0000
0013
0000
0100
0000
1000
0000
0000
0100
0010
0000
0100
0000
,  // measure 21
1000
0000
0000
0001
0100
0000
0001
0000
1000
0000
0010
0000
0001
0000
0010
0000
,  // measure 22
1000
0000
0100
0000
0010
0000
0000
0000
0011
0000
0000
0001
1000
0000
0100
0000
,  // measure 23
1010
0000
0000
0010
0100
0000
0010
0000
1000
0000
0000
0100
0040
0000
0000
0000
,  // measure 24
0032
0000
0023
0000
0130
0010
0001
1000
0020
0000
0130
0010
1000
0001
0010
1000
,  // measure 25
0020
0000
0032
0000
0013
0001
1000
0001
0010
0100
2000
0000
3020
0000
0031
0010
,  // measure 26
1000
0000
0000
1000
0000
0000
1000
0000
0100
0000
0001
0000
0100
0000
0010
0000
0002
0000
0000
0000
0103
0000
0001
0000
1000
0000
0001
0000
0100
0000
0001
0000
,  // measure 27
2000
0000
0000
3020
0000
0000
0032
0000
0000
0203
0000
0000
2300
0000
0000
3001
1000
0010
0100
0010
1000
0100
0010
0001
,  // measure 28
0011
0000
0000
0001
0010
0000
0001
0000
1000
0000
0000
0000
0100
0000
1000
0000
,  // measure 29
0001
0000
0000
0010
0100
0000
0010
0000
0001
0000
1000
0000
0100
1000
0000
0000
,  // measure 30
0001
0000
0100
0000
1000
0000
0100
0000
0001
0000
0000
0100
0010
0000
1000
0000
,  // measure 31
1000
0000
0000
0100
0010
0000
0100
0000
1000
0000
0001
0000
0010
0001
0000
0000
,  // measure 32
0011
0000
0010
0001
1000
0000
0001
0100
,  // measure 33
0010
0100
0001
1000
0010
0001
0010
0100
,  // measure 34
0001
0000
1000
0000
0010
0000
1000
0000
0001
0000
0000
0000
0010
0000
0100
0000
1000
0000
0000
1000
0000
0000
1000
0000
0000
0000
1000
0000
0100
0010
0100
0000
,  // measure 35
0120
0000
0000
0000
0031
0000
0100
0000
0001
0000
1000
0000
0010
0000
0100
0000
0001
0000
0000
1000
0000
0000
0010
0000
0000
0000
0100
0000
0001
0100
0000
0000
,  // measure 36
0101
0000
0001
1000
0001
0100
1000
0100
0001
1000
0100
1000
0001
0000
0010
0001
,  // measure 37
0012
0000
0000
0000
0103
0000
0001
0000
1000
0000
0100
0000
0001
0000
0100
0000
1000
0000
0000
0001
0000
0000
0100
0000
0000
0000
0010
0000
0100
0001
0000
0000
,  // measure 38
0020
0000
0230
0300
1010
0010
1000
0001
1000
0100
0001
0100
1000
0001
0100
0010
,  // measure 39
0110
0000
0000
0000
0100
0000
0001
0100
0001
0000
0010
0100
0000
0000
0100
0000
,  // measure 40
0100
0000
0000
0000
1000
0100
1000
0100
1000
0100
1000
0100
1000
0100
1000
0000
,  // measure 41
1100
0000
0000
0000
0011
0000
0000
0000
1010
0000
0000
1001
0000
0000
1010
0000
,  // measure 42
0101
0000
0000
0100
0001
1000
0001
0000
0000
0000
0000
0000
1000
0001
0010
0001
,  // measure 43
2000
0000
0000
0000
0001
0000
0000
0000
3010
0000
0000
1000
0001
0000
1000
0000
,  // measure 44
0200
0000
0310
0100
1000
0001
0100
0010
,  // measure 45
0100
0100
0100
0000
0001
1000
0001
1000
,  // measure 46
0100
0000
0000
0010
0100
0000
0010
0000
0001
0000
0000
0011
0000
0000
0000
0000
;

//---------------dance-single - ----------------
#NOTES:
     dance-single:
     X-Scale 11:
     Medium:
     8:
     0.515265,0.624542,0.297268,0.237814,0.391403,364.000000,334.000000,30.000000,24.000000,0.000000,0.000000,0.515265,0.624542,0.297268,0.237814,0.391403,364.000000,334.000000,30.000000,24.000000,0.000000,0.000000:
// measure 0
0000
0000
0000
0000
,  // measure 1
0000
0000
0000
0000
,  // measure 2
0000
0000
0000
0000
,  // measure 3
0000
0000
0000
0000
,  // measure 4
1010
0000
0000
1000
0001
0000
1000
0000
,  // measure 5
0010
0000
0000
0100
0010
0000
0100
0000
,  // measure 6
0000
0000
0001
0010
0100
1000
0020
0000
,  // measure 7
0230
0000
0301
0010
0100
1000
0020
0000
,  // measure 8
0230
0000
0302
0000
1003
0001
1000
0001
2000
0000
3200
0000
0310
0001
0010
0001
,  // measure 9
0020
0000
0230
0000
1300
0001
1000
0001
2000
0000
3020
0000
0030
0000
0000
0000
,  // measure 10
0200
0000
0302
0000
1003
0001
1000
0001
2000
0000
3200
0000
0310
0001
0010
0001
,  // measure 11
0020
0000
0230
0000
1300
0001
1000
0001
2000
0000
3020
0000
0030
0000
0000
0000
,  // measure 12
0110
0000
0100
0000
0001
1000
0100
1000
0001
0000
0010
0000
0100
0010
0001
0010
,  // measure 13
0100
0000
1000
0000
0010
0100
0001
0100
0010
0000
1000
0000
0001
0000
0010
0100
,  // measure 14
1000
0000
0001
0000
0100
0010
0001
0010
0100
0000
0001
0000
1000
0010
0100
0010
,  // measure 15
1000
0000
0001
0000
0010
0100
1000
0001
1000
0000
0000
0000
0100
0000
1000
0000
,  // measure 16
1100
0000
0000
0000
1001
0000
0000
0000
0100
0000
0000
0100
0000
0000
0100
0000
,  // measure 17
0100
0000
0001
0100
1000
0100
0001
0010
,  // measure 18
0110
0000
0000
0000
0110
0000
0000
0000
0110
0000
0000
1001
0000
0000
0110
0000
,  // measure 19
0110
0000
0000
0100
0001
0100
0001
0000
0000
0000
0000
0000
0000
0000
0000
0000
,  // measure 20
0002
1000
0103
1100
,  // measure 21
1001
0000
0101
0100
1000
0100
0001
0010
,  // measure 22
0200
0000
1000
0000
0310
0100
0100
1000
,  // measure 23
1100
1001
0101
0002
,  // measure 24
0013
0000
0001
0000
1000
0001
0100
0001
1000
0000
0010
0000
0100
0010
0001
0010
,  // measure 25
0100
0000
0001
0000
1000
0100
0010
0001
0100
0010
1000
0100
0010
0001
0100
0010
,  // measure 26
1000
0000
0001
0000
0100
0010
0001
0010
1000
0000
0100
0000
0001
0100
1000
0001
,  // measure 27
0100
0000
0001
0000
1000
0100
0010
0001
0100
0010
1000
0001
0000
0000
0000
0000
,  // measure 28
1001
0000
0000
1000
0000
0000
0100
0000
0000
0000
0000
0000
0100
0000
1000
0000
,  // measure 29
0001
0000
0000
0100
0000
0000
0010
0000
0000
0000
0100
0000
0000
0001
0000
0000
,  // measure 30
0010
0000
0000
0100
0000
0000
1000
0000
0000
0000
0001
0000
1000
0000
0001
0000
,  // measure 31
0100
0000
0000
0010
0000
0000
0100
0000
0001
0000
1000
0000
0000
1000
0000
0000
,  // measure 32
1000
0000
0000
0100
0010
0000
0100
0000
1000
0000
0000
0000
0001
0000
0100
0000
,  // measure 33
0010
0000
0000
0100
0001
0000
1000
0000
0100
0000
0010
0000
0000
0010
0000
0000
,  // measure 34
0010
0001
1000
0010
0001
0000
0010
0100
0001
0000
0010
0000
0100
0000
1000
0000
,  // measure 35
1100
0000
1000
0000
0001
0100
0010
0100
1000
0000
0100
0000
0001
0010
1000
0010
,  // measure 36
0001
0000
0100
0000
0001
1000
0010
1000
0001
0000
1000
0000
0100
0000
0010
0100
,  // measure 37
1000
0000
0001
0000
1000
0100
1000
0010
0100
0000
0001
0000
1000
0010
0001
0010
,  // measure 38
1000
0000
0001
0000
0100
0010
0100
0001
0010
0000
1000
0000
0010
0000
0001
0000
,  // measure 39
0011
0000
0000
0000
1010
0000
1000
0001
1000
0000
0001
0100
0000
0000
0100
0000
,  // measure 40
0110
0000
1000
0010
0100
0001
0010
0100
,  // measure 41
1100
0000
0000
0000
1100
0000
0000
0000
0101
0000
0000
0110
0000
0000
1010
0000
,  // measure 42
1010
0000
0000
1000
0010
1000
0010
0000
0000
0000
0000
0000
0000
0000
0000
0000
,  // measure 43
2000
0100
3001
1001
,  // measure 44
0110
0000
1001
1000
0100
0001
0100
1000
,  // measure 45
0020
0000
0100
0000
0130
0010
1000
0001
,  // measure 46
0010
0000
0000
0001
0100
0000
0010
0000
1000
0000
0000
1000
0000
0000
0000
0000
;

//---------------dance-single - ----------------
#NOTES:
     dance-single:
     X-Scale 6:
     Easy:
     4:
     0.328410,0.391651,0.307177,0.128816,0.000000,232.000000,201.000000,31.000000,13.000000,0.000000,0.000000,0.328410,0.391651,0.307177,0.128816,0.000000,232.000000,201.000000,31.000000,13.000000,0.000000,0.000000:
// measure 0
0000
0000
0000
0000
,  // measure 1
0000
0000
0000
0000
,  // measure 2
0000
0000
0000
0000
,  // measure 3
0000
0000
0000
0000
,  // measure 4
0011
0000
1001
0000
,  // measure 5
1100
0000
1001
0000
,  // measure 6
0000
0000
0001
0010
0100
1000
0001
0000
,  // measure 7
1000
0000
0001
0010
0100
1000
0001
0000
,  // measure 8
2000
0100
3002
0010
,  // measure 9
2003
0100
3002
0000
,  // measure 10
0203
1000
0320
0001
,  // measure 11
0000
0000
0100
0230
0000
0000
0300
0000
,  // measure 12
0110
0100
0001
1000
0100
0010
0100
1000
,  // measure 13
0001
0100
0010
0100
0001
0000
0000
0000
,  // measure 14
0101
0100
0010
0100
0001
0010
0100
0010
,  // measure 15
0001
1000
1100
0000
0001
0000
0000
0000
,  // measure 16
1001
0000
1000
0000
0100
0000
1000
0100
,  // measure 17
0010
0000
0200
0000
0000
0000
0000
0300
,  // measure 18
1100
0000
1001
0000
,  // measure 19
0101
0000
0001
0100
0000
0000
0000
0000
,  // measure 20
0110
0010
1000
0001
,  // measure 21
1001
0000
1000
0000
0100
0000
0010
0100
,  // measure 22
2000
0000
0001
0000
3001
1000
0001
1000
,  // measure 23
1001
0110
1001
2000
,  // measure 24
3100
1000
0001
0000
0100
0010
1000
0000
,  // measure 25
0100
0010
0001
0000
1000
0001
0010
0000
,  // measure 26
0100
0000
1000
0001
0010
0000
0100
0010
,  // measure 27
0001
1000
0001
0100
0010
0100
0002
0000
,  // measure 28
1003
0000
0001
0100
0000
0000
1001
1000
,  // measure 29
0001
0000
1000
0100
1000
0000
0001
0100
,  // measure 30
0001
0000
1000
0001
0000
0100
0000
0001
,  // measure 31
0010
0000
0100
1000
0000
0001
0000
0100
,  // measure 32
0001
0000
0101
0100
0001
0000
0101
0100
,  // measure 33
0010
1000
0001
0010
0100
0010
0001
1000
,  // measure 34
0001
0000
0100
0000
,  // measure 35
1001
1000
0100
0010
0001
0100
0001
0010
,  // measure 36
0100
1000
0001
1000
0100
0000
0000
0000
,  // measure 37
0110
0010
0100
1000
0001
0100
0010
0100
,  // measure 38
0001
1000
1001
0000
1000
0000
0000
0000
,  // measure 39
1001
0000
1000
0000
0001
0000
1000
0100
,  // measure 40
0010
0000
0200
0000
0000
0000
0000
0300
,  // measure 41
1100
0000
1001
0000
,  // measure 42
0101
0000
0001
0100
0000
0000
0000
0000
,  // measure 43
0110
0010
1000
0001
,  // measure 44
1001
0000
1000
0000
0100
0000
0010
0100
,  // measure 45
2000
0000
0001
0000
3001
1000
0001
1000
,  // measure 46
1001
0110
1001
0000
;

//---------------dance-single - ----------------
#NOTES:
     dance-single:
     X-Scale 2:
     Beginner:
     2:
     0.124569,0.207345,0.019818,0.000000,0.000000,88.000000,86.000000,2.000000,0.000000,0.000000,0.000000,0.124569,0.207345,0.019818,0.000000,0.000000,88.000000,86.000000,2.000000,0.000000,0.000000,0.000000:
// measure 0
0000
0000
0000
0000
,  // measure 1
0000
0000
0000
0000
,  // measure 2
0000
0000
0000
0000
,  // measure 3
0000
0000
0000
0000
,  // measure 4
0001
0000
0000
0000
,  // measure 5
1000
0000
0000
0000
,  // measure 6
0000
0000
0000
0000
,  // measure 7
0000
0000
0000
0000
,  // measure 8
0001
0000
0010
0000
,  // measure 9
0100
0000
1000
0000
,  // measure 10
0000
0010
0000
0100
,  // measure 11
0000
0001
0000
0000
,  // measure 12
1000
0010
0100
0001
,  // measure 13
0010
0100
1000
0000
,  // measure 14
0001
0100
0010
1000
,  // measure 15
0100
0010
0001
0000
,  // measure 16
1001
0000
1000
0000
,  // measure 17
0001
0000
0000
0000
,  // measure 18
0010
0000
0100
0000
,  // measure 19
1000
0000
0000
0000
,  // measure 20
0001
0000
1000
0000
,  // measure 21
0100
0000
1000
0000
,  // measure 22
0001
0000
0100
0000
,  // measure 23
0010
0100
0010
0000
,  // measure 24
0100
0000
0001
0000
,  // measure 25
1000
0000
0100
0000
,  // measure 26
0010
0000
0001
0000
,  // measure 27
1000
0000
0001
0000
,  // measure 28
0000
0001
0000
0010
,  // measure 29
0000
0100
0000
1000
,  // measure 30
0000
0010
0000
0100
,  // measure 31
0000
0001
0000
0000
,  // measure 32
0000
1000
0000
0001
,  // measure 33
0000
0100
0000
0010
,  // measure 34
0000
0000
0000
0000
,  // measure 35
1000
0100
0010
0001
,  // measure 36
0100
0010
1000
0000
,  // measure 37
0001
0100
0010
1000
,  // measure 38
0100
0010
0001
0000
,  // measure 39
1001
0000
1000
0000
,  // measure 40
0001
0000
0000
0000
,  // measure 41
1000
0000
0001
0000
,  // measure 42
0010
0000
0000
0000
,  // measure 43
0001
0000
0100
0000
,  // measure 44
0010
0000
0100
0000
,  // measure 45
0001
0000
0010
0000
,  // measure 46
0100
1000
0100
0000
;
