#TITLE:Kiss & Tell;
#SUBTITLE:;
#ARTIST:That Kid;
#TITLETRANSLIT:;
#SUBTITLETRANSLIT:;
#ARTISTTRANSLIT:;
#GENRE:Electropop;
#CREDIT:;
#BANNER:Kiss & Tell-bn.png;
#BACKGROUND:Kiss & Tell-bg.png;
#LYRICSPATH:;
#CDTITLE:cdtitle.png;
#MUSIC:Kiss & Tell.ogg;
#OFFSET:-0.007000;
#SAMPLESTART:37.820000;
#SAMPLELENGTH:15.118000;
#SELECTABLE:YES;
#DISPLAYBPM:63.500000:127.000000;
#BPMS:0.000000=63.499996
,9.000000=126.999992
,117.000000=63.499996
,151.000000=126.999992
;
#STOPS:23.750000=0.472000,
90.000000=0.118000,
90.500000=0.118000,
91.000000=0.236000
;
#BGCHANGES:;
#KEYSOUNDS:;
#ATTACKS:;

//---------------dance-single - ----------------
#NOTES:
     dance-single:
     X-Scale 14:
     Hard:
     9:
     0.553101,0.869454,0.361135,0.268752,0.571097,461.000000,418.000000,43.000000,32.000000,11.000000,0.000000,0.553101,0.869454,0.361135,0.268752,0.571097,461.000000,418.000000,43.000000,32.000000,11.000000,0.000000:
// measure 0
0000
0000
0000
0000
,  // measure 1
0000
0000
0000
0000
,  // measure 2
1100
0000
0100
0000
1000
0000
0000
0010
0100
0000
0010
0000
1000
0000
0100
0000
,  // measure 3
0001
0100
1000
0001
0020
0000
0130
0000
,  // measure 4
0010
0000
0000
0000
0001
0000
0000
0100
0001
0000
1000
0000
0010
0000
0001
0000
,  // measure 5
0010
0000
1000
0000
0001
0000
0010
0000
0200
0000
4000
0000
3300
0000
1000
0100
,  // measure 6
1001
0000
0000
1000
0100
0000
1000
0000
0001
0000
0010
0000
1000
0000
0100
0000
,  // measure 7
0002
0000
0000
0000
0013
0000
0100
0000
1010
0000
1000
0001
1000
0000
0010
0000
,  // measure 8
0100
0000
0010
0000
1000
0000
0100
0000
00M0
0000
100M
0000
00M0
0000
100M
0100
,  // measure 9
00M0
0100
0001
0000
0020
0030
0020
0030
0011
0000
0000
0000
0001
0010
0100
0000
,  // measure 10
1000
0000
0001
0000
1000
0100
0010
0000
0001
0000
1000
0000
0001
0010
0100
0000
,  // measure 11
1000
0000
0010
0000
0200
0000
0000
0000
1300
0000
0100
0000
0001
0100
0010
0000
,  // measure 12
1000
0000
0001
0000
1000
0010
0100
0000
0001
0000
1000
0000
0001
0100
0010
0000
,  // measure 13
1000
0000
0100
0000
0020
0000
0000
0000
0032
0000
0000
0003
0011
0000
0010
0000
,  // measure 14
0100
0000
0010
0001
0000
0000
1000
0010
1000
0000
0001
0000
0010
0000
1000
0000
,  // measure 15
0100
0000
0001
1000
0000
0001
1000
0002
1000
0000
0000
0003
0011
0000
0010
0000
,  // measure 16
0100
0000
1000
0100
0000
0000
0010
0100
1000
0001
1000
0010
1000
0000
0001
0000
,  // measure 17
0010
0000
0100
0010
0000
0000
000M
00M0
2000
3000
2000
0000
0010
0000
0000
0000
,  // measure 18
3010
0000
0000
1000
0100
0000
0010
0000
0011
0000
0000
1001
0000
0000
1010
0000
,  // measure 19
0010
0000
0000
1000
0000
0000
0001
0000
1000
0000
0001
0000
0100
0010
0100
0000
,  // measure 20
0110
0000
0000
0010
1000
0000
0001
0000
0010
0000
0100
0000
1000
0000
0001
0000
,  // measure 21
0100
0000
0000
0001
0000
0000
1000
0000
0000
0100
0010
0100
0020
0000
0000
0000
0000
0000
0230
0000
0000
0000
0000
0000
,  // measure 22
0001
0000
0000
0000
0000
0000
1300
0000
0000
0100
0000
0000
0101
0000
0000
0110
0000
0000
1001
0000
0000
1000
0001
1000
,  // measure 23
0001
0000
0000
0010
0100
0010
0100
0000
0000
1000
0000
0000
0001
0000
0000
0100
0000
0000
0010
0000
0000
0000
0000
0000
,  // measure 24
0100
0000
0000
0001
0000
0000
0010
0000
0000
0100
0000
0000
2000
0000
0000
0000
0000
0000
3001
0000
0010
0100
0000
0010
,  // measure 25
0001
0000
0000
0000
1000
0000
0001
0000
0000
1000
0000
0000
0001
0000
0000
0000
0000
0000
0000
0000
0000
0000
0000
0000
0001
0000
0000
0000
0000
0000
0000
0000
0000
0000
0000
0000
0010
0000
0000
0000
0000
0000
0000
0000
0000
0010
0000
0000
,  // measure 26
0000
0000
0010
0000
0000
0000
0100
0000
0100
0000
0010
0000
0001
0000
0000
0001
,  // measure 27
0000
0000
0001
0000
1000
0000
0000
0000
1000
0000
0000
0000
0010
0000
0000
0010
,  // measure 28
0000
0000
0010
0000
0000
0000
0100
0000
0100
0000
0010
0000
1000
0100
0010
0001
,  // measure 29
0000
0000
0100
0000
0001
0000
1000
0000
0002
0000
0000
0000
0000
0000
0003
0000
1001
0000
0000
1100
0000
0000
0102
0000
0000
0000
0000
0000
0000
0003
0100
0000
,  // measure 30
0001
0000
0000
0110
0000
0000
0110
0000
2000
0000
0000
0000
0100
0000
0000
3000
1100
0000
0000
0101
0000
0000
0110
0000
0000
0000
0100
0000
0000
0000
0100
0010
,  // measure 31
0000
0100
0010
0000
0000
1000
0100
0010
0002
0000
0000
0000
1000
0000
0003
0000
1001
0000
0000
0110
0000
0000
2100
0000
0000
0000
0000
0000
3001
0000
1000
0000
,  // measure 32
0100
0000
0000
0110
0000
0000
0110
0000
0102
0000
0000
0000
1000
0000
0003
0000
1001
0000
0000
1100
0000
0000
0101
0000
0000
0000
0010
0000
0001
0000
0010
0100
,  // measure 33
0000
0010
0001
0000
1000
0000
0100
0010
0200
0000
0000
0000
0000
0000
0300
0000
0110
0000
0000
1001
0000
0000
1100
0000
0000
0000
0100
0010
0000
0001
1000
0000
,  // measure 34
0010
0000
0000
0010
0000
0000
0010
0000
0200
0000
0000
0000
0001
0000
0300
0000
0101
0000
0000
1001
0000
0000
0110
0000
0000
0000
0000
0000
0000
0000
1000
0000
,  // measure 35
0000
1000
0000
0000
1000
0000
0001
0000
1001
0000
0000
0000
1000
0000
0100
0000
0001
0000
0010
0000
1000
0000
0001
0100
0000
0000
0010
1000
0010
1000
0010
1000
,  // measure 36
0010
0000
0100
0010
0000
1000
0001
0000
0011
0000
0000
0000
0001
0000
1000
0000
1010
0000
1000
0001
0000
0010
0100
0000
1000
0000
0100
1000
0001
0000
0100
0010
,  // measure 37
0000
0000
0000
0000
0000
0000
1000
0000
0000
0000
0000
0000
0001
0000
0000
0000
0000
0000
0000
0000
0000
0000
0000
0000
0100
0000
0000
0000
0000
0000
0000
0000
0000
0000
0000
0000
0010
0000
0000
0000
0000
0000
0010
0000
0000
0000
0000
0000
0000
0000
0000
0000
0000
0000
0000
0000
0000
0000
0000
0000
0M00
0000
0000
0000
0000
0000
0000
0000
0000
0000
0000
0000
0000
0000
0000
0000
0000
0000
0M00
0000
0000
0000
0000
0000
0000
0000
0000
0000
0000
0000
0000
0000
0000
0000
0000
0000
0M00
0000
0000
0000
0000
0000
0000
0000
0000
0000
0000
0000
0000
0000
0000
0000
0000
0000
0M00
0000
0000
0000
0000
0000
4000
0000
0000
0000
0004
0000
0000
0000
0000
0000
0000
0000
0000
0000
0000
0000
0000
0000
0000
0000
0000
0000
0000
0000
0003
0000
0000
0000
0000
0000
0000
0000
0000
0000
0000
0000
3000
0000
0000
0000
0000
0000
0000
0000
0000
0000
0000
0000
2000
0000
0000
0000
0000
0000
0000
0000
0000
0000
0000
0000
0000
0000
0000
0000
0000
0000
0000
0000
0000
0000
0000
0000
,  // measure 38
0001
0000
0000
0000
3010
0000
0000
1000
0100
0000
0010
0000
0011
0000
0000
1001
,  // measure 39
0000
0000
1010
0000
1000
0000
0000
0001
0000
0000
0010
0000
0001
0000
0100
0000
,  // measure 40
0010
0100
0010
0000
1000
0000
0000
0100
0010
0000
0100
0000
1000
0000
0001
0000
,  // measure 41
0100
0000
0001
0010
0001
1000
0000
0100
1000
0001
1000
0000
0100
0000
0010
0000
,  // measure 42
0001
0001
0002
0000
0013
0100
1000
1000
,  // measure 43
1000
0010
0200
0000
0310
0001
0010
1000
,  // measure 44
0001
0000
0100
0000
0010
0000
0000
1000
0001
0000
0010
0000
1000
0000
0100
0000
,  // measure 45
0001
0000
1000
0001
1000
0010
0000
0100
0010
1000
0001
0010
0200
0000
1300
0000
,  // measure 46
1001
0000
0001
0000
0001
0000
0000
0010
0100
0000
0010
0000
0001
0000
0001
0000
,  // measure 47
0001
0000
0100
0000
0020
0000
0000
0000
1030
0000
0010
1000
0010
0000
0100
0000
,  // measure 48
0001
0000
0010
0000
0200
0000
0000
0000
0310
0000
0001
0000
2000
0000
3000
0200
,  // measure 49
0000
0300
0020
0000
0000
0000
1030
0000
0010
0000
0001
0000
0002
0000
0000
0000
,  // measure 50
0000
0000
0003
0000
;

//---------------dance-single - ----------------
#NOTES:
     dance-single:
     X-Scale 11:
     Medium:
     8:
     0.465516,0.636186,0.302346,0.243556,0.298146,388.000000,352.000000,36.000000,29.000000,0.000000,0.000000,0.465516,0.636186,0.302346,0.243556,0.298146,388.000000,352.000000,36.000000,29.000000,0.000000,0.000000:
0000
0000
0000
0000
,
0000
0000
0000
0000
,
1001
0000
0000
0000
0110
0000
0000
0010
0000
0000
0001
0000
0010
0000
0000
0000
,
0101
0000
1000
0000
1000
0000
0000
0001
0000
0000
1000
0000
1100
0000
0000
0000
,
0100
0000
0000
0000
1010
0000
0000
1000
0000
0000
0100
0000
0010
0000
0001
0000
,
0100
0000
0001
0100
0001
0000
0010
0000
0200
0000
0000
0000
1300
0000
0000
0000
,
1100
0000
0000
1000
0100
0000
1000
0000
0001
0000
0010
0000
1000
0000
0010
0000
,
0002
0000
0103
0100
0110
0000
0010
1000
,
0001
0000
0010
0100
1000
0100
0001
0100
,
2000
0000
3000
0000
2000
3000
2000
3000
1100
0000
0100
0000
0010
0000
0100
0000
,
1000
0100
0010
0100
1000
0001
0100
0001
,
1000
0001
0010
0001
1000
0010
0001
0010
,
1000
0010
0001
0010
1000
0001
0010
0001
,
1000
0000
0001
0000
0010
0000
0001
0000
0200
0000
0000
0300
0110
0000
0000
0000
,
0010
0000
0000
1000
0001
0000
0100
0000
0010
0000
1000
0000
1000
0000
0100
0000
,
0010
0000
0001
0010
0000
0040
0002
0000
0030
0000
0000
0003
0011
0000
0010
0000
,
0100
0000
0010
0001
0000
0000
1000
0001
1000
0000
0010
0000
0001
0000
0010
0000
,
0100
0000
0010
1000
0000
0000
0000
0000
0110
0000
0000
0000
1001
0000
0000
0000
,
1100
0000
0000
0100
0010
0000
0100
0000
1000
0000
0000
0000
0010
0000
1000
0000
,
1000
0000
0000
0100
0000
0000
0001
0000
0100
0000
1000
0000
0010
0000
0100
0000
,
0010
0000
0000
1000
0001
0000
0010
0000
1000
0000
0010
0000
0002
0000
0000
0000
,
0203
0000
0310
0100
0110
0010
1000
0001
,
1000
0100
0010
0100
1010
0101
1010
4000
,
3001
0000
4000
0000
3100
0000
0001
0000
0100
0000
1000
0000
0010
0000
0000
0100
,
0010
0100
0001
0010
1000
0001
0100
1000
,
0001
0000
1000
0001
1000
0000
0000
0000
1000
0000
0000
0000
0100
0000
0000
0010
,
0000
0000
0001
0000
0000
0000
0100
0000
0010
0000
0100
0000
0001
0000
0000
0010
,
0000
0000
0100
0000
1000
0000
0000
0000
1000
0000
0000
0000
0100
0000
0000
0010
,
0000
0001
0000
0100
0010
0100
0001
0010
,
0200
0000
0000
0000
0000
0000
0000
0000
1300
0000
0000
0000
0000
0000
0000
0000
0011
0000
0000
1100
0000
0000
0011
0000
0000
0000
0000
0000
1000
0000
0100
0000
,
0100
0000
0000
1000
0100
0000
1000
0000
0001
0000
0000
0000
0010
0000
0000
0000
0011
0000
0000
1100
0000
0000
0011
0000
0000
0000
1000
0000
0000
0000
1000
0000
,
0100
0000
0001
0000
0100
0000
1000
0000
0010
0000
0000
0000
0000
0000
0000
0000
0110
0000
0000
1001
0000
0000
0110
0000
0000
0000
0000
0000
0100
0000
0001
0000
,
1000
0000
0000
0100
1000
0000
0001
0000
0010
0000
0000
0000
0100
0000
0000
0000
0110
0000
0000
1001
0000
0000
0110
0000
0000
0000
1000
0000
0100
0000
1000
0000
,
0001
0000
0000
0000
0010
0000
0100
0000
0010
0000
0000
0000
0000
0000
0000
0000
0011
0000
0000
1100
0000
0000
0011
0000
0000
0000
0000
0000
1000
0000
0010
0000
,
1000
0000
0000
0001
0000
0000
0100
0000
0010
0000
0000
0000
0100
0000
0010
0000
1000
0000
0001
0000
0100
0000
0010
0000
0000
0000
0000
0000
0000
0000
0000
0000
,
0000
0000
0000
0000
0000
0000
1000
0000
1200
0000
0000
0000
0000
0000
0310
0000
0100
0000
1000
0000
0001
0000
0100
0001
0000
0000
1000
0000
0010
0000
1000
0000
,
0001
0000
0000
0010
0100
0000
0010
0001
0100
0000
0000
0000
0010
0000
0100
0000
0001
0000
0000
1000
0100
0000
1000
0000
0000
0000
0010
0000
0100
0000
0010
0000
,
1000
0000
0000
0000
0010
0000
1000
0010
0000
0000
0000
0000
0000
0000
0000
0000
0000
0000
0000
0000
2200
0000
0000
0000
0000
0000
0000
0000
3300
0000
0000
0000
,
1100
0000
0000
0000
0100
0000
0000
0010
0100
0000
1000
0000
0001
0000
0000
0010
,
0000
0000
0001
0000
0100
0000
0000
0010
0100
0000
0001
0000
1000
0000
0010
0000
,
0001
0000
0100
0000
1000
0000
0000
0010
1000
0000
0001
0000
0010
0000
0100
0000
,
0020
0032
1003
1001
,
1000
1000
2000
0000
3000
0000
0100
0010
,
0100
0010
0002
0000
0023
0230
1300
0000
,
0001
0000
0001
0000
0001
0000
0010
0000
1000
0000
0010
0000
0002
0000
0003
0200
,
0000
0300
0020
0000
0000
0000
0031
0000
0010
0000
1000
0000
0002
0000
0003
0000
,
1000
1000
2000
0000
3000
0100
0010
0001
,
1000
0001
0200
0000
0310
0100
0001
0000
,
1000
0000
0100
0000
0001
0000
0100
0000
0010
0000
0001
0000
0200
0000
0300
0020
,
0000
0030
0200
0000
0000
0000
1300
0000
0100
0000
0001
0000
2000
0000
0000
0000
,
0000
0000
3000
0000
;

//---------------dance-single - ----------------
#NOTES:
     dance-single:
     X-Scale 7:
     Easy:
     5:
     0.311944,0.376042,0.092383,0.285549,0.079786,260.000000,249.000000,11.000000,34.000000,0.000000,0.000000,0.311944,0.376042,0.092383,0.285549,0.079786,260.000000,249.000000,11.000000,34.000000,0.000000,0.000000:
0000
0000
0000
0000
,
0000
0000
0000
0000
,
0000
0101
0100
0001
,
1000
0000
0100
0010
0200
0000
1300
0000
,
0001
0000
1000
0000
0010
0100
0001
0000
,
0010
0000
0100
0010
0002
0000
1003
0000
,
1001
0000
0100
0000
1000
0000
0001
0010
,
0200
0000
0310
0200
1300
0000
0100
0000
,
1000
0000
0001
0000
0100
0010
0000
0010
,
2000
0000
3100
1000
1200
0000
0010
0000
,
1000
0010
1300
0001
,
0100
0010
0200
0000
0301
0000
1000
0000
,
0001
0100
0010
0000
0001
0100
0010
0000
,
1000
0100
0020
0000
0032
0000
0100
0000
,
0010
0000
0100
0000
0013
0000
0001
1000
,
0010
0110
0000
1001
,
1000
0000
0100
0000
0010
0100
1000
0001
,
0020
0030
0000
0000
0000
0000
1100
0000
,
0100
0000
0010
0100
1000
0000
1000
0100
,
1000
0000
0001
0010
0200
0000
0310
0000
,
0002
0000
0103
0010
0000
0100
0000
0010
,
1000
0001
0000
0100
0002
0000
2003
0000
,
0100
3000
0010
0100
0001
1000
0001
0000
,
0100
0000
0010
1000
0001
0000
0010
0001
,
1000
0000
0100
0010
0002
0000
2003
0000
,
3020
0130
0000
0100
,
0000
0001
0000
1000
0001
1000
0001
0000
,
0000
0010
0000
0010
,
0000
0100
0000
1000
0100
1000
0100
0000
,
0020
0000
0000
0000
0032
0000
0003
0000
1000
0000
0000
1000
0000
0000
0100
0100
,
0000
0000
0010
0000
0002
0000
1003
0000
0001
0000
0000
0001
0000
0100
0001
0100
,
0000
0010
0000
0000
0200
0000
0300
0000
0001
0000
0000
0001
0000
0000
0100
0100
,
0000
0000
0010
0000
2000
0000
3001
0000
1000
0000
0000
1000
0000
0100
0010
0100
,
0000
1000
0000
0000
0002
0000
0003
0000
0100
0000
0000
0100
0000
0010
0100
0010
,
1000
0000
0001
0000
2000
0000
3100
0000
0010
0000
0001
0010
0000
0000
0000
0000
,
0000
0000
0000
0000
0011
0000
0000
0000
0100
0000
0010
0100
0000
0000
0001
0000
,
1000
0000
0010
0000
1000
0000
0100
0000
0010
0000
0001
0010
0000
0001
1000
0000
,
0100
1000
0000
0000
0000
2000
0000
3000
,
1001
0000
0100
0000
1000
0100
0010
0000
,
0011
0001
0001
0100
0010
0100
0110
0000
,
0010
1000
0001
0000
0100
0010
1000
0100
,
0000
1000
0001
1000
0000
0010
0100
0000
,
0001
0000
0002
0000
1003
0100
0010
0000
,
0100
0010
0002
0000
1003
0001
1000
0000
,
0010
0000
0200
0000
0301
0100
0010
0100
,
0002
2003
3000
0000
,
1100
0000
0100
0000
1000
0001
0010
0000
,
0100
0010
0002
0000
1003
0001
0010
0000
,
0100
0010
0002
0000
0013
0000
0001
1000
,
0020
0230
0300
0010
;

//---------------dance-single - ----------------
#NOTES:
     dance-single:
     X-Scale 2:
     Beginner:
     2:
     0.109180,0.207863,0.000000,0.000000,0.000000,91.000000,91.000000,0.000000,0.000000,0.000000,0.000000,0.109180,0.207863,0.000000,0.000000,0.000000,91.000000,91.000000,0.000000,0.000000,0.000000,0.000000:
0000
0000
0000
0000
,
0000
0000
0000
0000
,
0000
1000
0000
0000
,
0100
0000
1000
0000
,
0001
0000
1000
0000
,
0100
0000
0010
0000
,
0000
0001
0000
1000
,
0000
0001
0000
0100
,
0000
0000
0010
0000
0000
1000
0000
1000
,
0000
0000
0100
0000
,
1000
0000
0100
0000
,
1000
0100
0010
0000
,
0001
0000
0010
0000
,
0001
0100
0010
0000
,
0010
0000
1000
0000
,
0001
0000
0000
1000
,
0000
0100
0000
1000
,
0000
0000
0000
0001
,
0000
0010
0000
0001
,
0000
0010
0000
0100
,
0000
1000
0000
0100
,
0000
1000
0000
0100
,
0000
0010
0000
0000
,
0001
0000
0100
0000
,
0001
0000
1000
0000
,
0001
0000
0000
0100
,
0000
0000
0000
0010
,
0000
1000
0000
1000
,
0000
0000
0100
0000
,
0000
0100
0000
0000
,
0000
1000
0000
0000
,
0000
0001
0000
0000
,
0000
1000
0000
0000
,
0000
0100
0000
0000
,
0000
0010
0000
0000
,
0000
0000
0001
0000
0010
0001
0000
1000
,
0000
0001
0100
0001
0000
1000
0000
0100
,
0000
0010
0000
0000
0000
0000
0000
0000
,
1000
0000
0100
0000
,
1000
0000
0100
0000
,
0010
0000
0001
0000
,
0010
0000
0001
0000
,
0100
0000
0001
0000
,
1000
0000
0100
0000
,
1000
0000
0010
0000
,
0100
0000
0001
0000
,
1000
0000
0100
0000
,
1000
0000
0001
0000
,
0010
0000
0100
0000
,
1000
0000
0001
0000
;
