#TITLE:キラキラ☆;
#SUBTITLE:;
#ARTIST:Mizca;
#TITLETRANSLIT:Kira Kira;
#SUBTITLETRANSLIT:;
#ARTISTTRANSLIT:;
#GENRE:Electropop;
#CREDIT:;
#BANNER:Kira Kira-bn.png;
#BACKGROUND:Kira Kira-bg.png;
#LYRICSPATH:;
#CDTITLE:cdtitle.png;
#MUSIC:Kira Kira.ogg;
#OFFSET:-0.452000;
#SAMPLESTART:14.360000;
#SAMPLELENGTH:14.800000;
#SELECTABLE:YES;
#BPMS:0.000000=134.000000
;
#STOPS:
;
#BGCHANGES:0.000=Kira Kira.avi=1.000=1=0=0=StretchNoLoop==CrossFade==,
99999=-nosongbg-=1.000=0=0=0 // don't automatically add -songbackground-
;
#KEYSOUNDS:;
#ATTACKS:;

//---------------dance-single - ----------------
#NOTES:
     dance-single:
     X-Scale 13:
     Hard:
     9:
     0.612775,0.629086,0.078147,0.138929,0.377712,494.000000,485.000000,9.000000,16.000000,3.000000,0.000000,0.612775,0.629086,0.078147,0.138929,0.377712,494.000000,485.000000,9.000000,16.000000,3.000000,0.000000:
// measure 0
0000
0000
0000
0000
,  // measure 1
0000
0000
0000
0000
,  // measure 2
0000
0000
0000
0000
,  // measure 3
0000
0000
0000
0000
0000
0000
0001
1000
,  // measure 4
1001
0100
0010
0100
0010
0001
1000
0100
,  // measure 5
1000
0000
0001
0100
0010
0100
0001
0010
,  // measure 6
0100
0000
0000
0000
1000
0000
0010
0000
0M00
0000
0010
0000
0001
0000
1000
0100
,  // measure 7
0010
0001
0100
0010
1000
0000
0100
0000
2000
0000
0000
0000
3001
0000
1000
0000
,  // measure 8
1001
0010
0100
0010
0100
0001
1000
0100
,  // measure 9
0020
0000
0031
0010
0001
1000
0100
0010
,  // measure 10
0002
0000
1003
0010
0100
0001
1000
0001
,  // measure 11
0010
0000
0100
0000
1000
0000
0001
0000
0100
0000
0100
0000
0100
0000
0100
0010
,  // measure 12
0100
0001
1000
0001
1000
0010
0001
0010
,  // measure 13
2000
0000
3001
0100
0001
0010
1000
0010
,  // measure 14
0002
0000
1003
0001
1000
0100
0010
0100
,  // measure 15
1000
0001
0100
0001
1000
0100
0010
0001
,  // measure 16
1001
0000
0001
1000
0000
1000
0000
0000
0001
0100
0001
0000
0010
0000
0100
0000
,  // measure 17
1000
0000
0001
0010
0000
0010
0000
0000
0001
0100
0001
0000
0010
0000
0100
0000
,  // measure 18
1000
0000
0010
0100
0000
0100
0000
0000
0001
0100
0001
0000
0010
0000
0100
0000
,  // measure 19
1000
0000
0001
0010
0000
0010
0000
0000
0100
1000
0000
0001
0000
1000
0000
0100
,  // measure 20
0010
0000
0001
0100
0000
0100
0000
0000
0001
1000
0001
0000
0100
0000
0010
0000
,  // measure 21
1000
0000
0100
1000
0000
1000
0000
0000
0001
0010
0001
0000
0100
0000
0010
0000
,  // measure 22
1000
0000
0100
0010
0000
0010
0000
0000
0001
1000
0001
0000
0010
0000
0100
0000
,  // measure 23
1000
0000
0001
1000
0000
1000
0000
0000
0010
0000
0000
0010
0100
0010
0100
0000
,  // measure 24
0110
0000
0000
0100
0010
0000
0010
0000
1000
0100
1000
0000
0010
0000
0100
0000
,  // measure 25
0001
0000
0000
0001
1000
0000
1000
0000
0001
0100
0001
0000
0010
0000
0100
0000
,  // measure 26
1000
0000
0000
0010
1000
0000
1000
0000
0010
0100
0010
0000
1000
0000
0010
0000
,  // measure 27
0001
0010
0100
0002
0000
1003
0100
1000
,  // measure 28
0010
0000
0000
0100
0010
0000
0010
0000
1000
0001
1000
0000
0010
0000
0100
0000
,  // measure 29
0001
0000
0000
0010
0100
0000
0100
0000
1000
0010
1000
0000
0001
0000
0100
0000
,  // measure 30
0001
0000
0000
0100
0010
0000
0010
0000
0100
0001
0100
0000
0010
0000
0001
0000
,  // measure 31
0010
1000
0010
0200
0000
0301
0100
0001
,  // measure 32
0101
0001
1000
0001
0010
0100
0010
0001
,  // measure 33
1000
0100
0010
0001
1000
0100
0010
0001
1000
0000
1000
0000
0001
0000
0010
0000
,  // measure 34
0002
0000
0000
0003
2000
0000
0000
3001
1000
0000
0200
0000
0010
0000
0000
0000
,  // measure 35
1300
0100
00M0
0100
0001
0000
1000
0001
1000
0000
0010
0000
0100
0000
0001
0000
,  // measure 36
0010
0100
1000
0010
1000
0001
0100
0010
,  // measure 37
1000
0100
0010
0001
1000
0100
0010
0001
1000
0000
0001
0000
0100
0000
0010
0000
,  // measure 38
0001
0000
0010
0000
0100
0000
1001
0000
0000
0000
0001
0000
0010
0000
0001
0010
,  // measure 39
0001
0010
0000
0001
0010
0100
0010
0001
2000
0000
0000
0000
3001
0000
1000
0000
,  // measure 40
1001
0100
0010
0100
0010
0001
1000
0001
,  // measure 41
0020
0000
1030
0010
0001
1000
0100
0010
,  // measure 42
0002
0000
1003
0010
0100
0001
0100
1000
,  // measure 43
0100
0001
0010
0001
0100
0000
0001
0001
,  // measure 44
0001
0100
0010
0100
0010
1000
0100
0010
,  // measure 45
0002
0000
1003
0001
0010
0100
0010
0001
,  // measure 46
0200
0000
1300
0100
0001
0010
0100
1000
,  // measure 47
0010
0100
0001
0001
1001
1000
0001
1000
,  // measure 48
1010
0000
1000
0010
0000
0100
0001
0000
0100
0010
0100
0000
0001
0000
0001
0000
,  // measure 49
1000
0000
0001
0010
0000
0100
1000
0000
0010
0100
0010
0000
0100
0000
0100
0000
,  // measure 50
0001
0000
0010
0001
0000
1000
0010
0000
1000
0100
1000
0000
0100
0000
0100
0000
,  // measure 51
0010
0000
0001
0010
0001
0010
0001
0000
1000
0000
1000
0000
0001
0100
0010
0100
,  // measure 52
0001
0000
1000
0001
0000
0100
0010
0000
1000
0100
1000
0000
0010
0000
0100
0000
,  // measure 53
0001
0000
1000
0001
0000
0010
0100
0000
1000
0010
1000
0000
0010
0000
0001
0000
,  // measure 54
0010
0000
0100
0010
0000
1000
0001
0000
1000
0010
1000
0000
0100
0000
0001
0000
,  // measure 55
0100
0000
0010
0000
0001
0010
000M
0000
0010
0000
1000
0100
1000
0100
1000
0100
,  // measure 56
1000
0100
0010
0001
0000
1000
0001
0100
,  // measure 57
0000
0010
0000
0100
0000
0001
0100
0001
,  // measure 58
0000
0010
0000
0001
0000
0100
0000
0001
,  // measure 59
0010
1000
0010
0001
0000
1000
0100
0010
,  // measure 60
0001
1000
0010
0200
0000
0001
0001
0000
,  // measure 61
0000
1000
1000
0000
0000
0001
0001
0000
,  // measure 62
0000
0010
0010
0000
0000
0000
0000
0000
,  // measure 63
0300
0000
0000
0000
;

//---------------dance-single - ----------------
#NOTES:
     dance-single:
     X-Scale 11:
     Medium:
     7:
     0.462682,0.492329,0.095513,0.277857,0.091172,373.000000,362.000000,11.000000,32.000000,0.000000,0.000000,0.462682,0.492329,0.095513,0.277857,0.091172,373.000000,362.000000,11.000000,32.000000,0.000000,0.000000:
0000
0000
0000
0000
,
0000
0000
0000
0000
,
0000
0000
0000
0000
,
0000
0000
0000
0000
,
1100
1000
0001
1000
0002
0000
0010
0000
,
0103
0001
1000
0010
0000
0100
0010
1000
,
0001
0000
0010
0010
0000
0100
0100
1000
,
0001
1000
0010
0100
0002
0000
0003
0000
,
1001
1000
0100
1000
0100
0010
0001
1000
,
0020
0000
0000
2030
3000
0001
0010
0100
,
2000
0000
3001
1000
0100
0020
0000
0031
,
0010
0001
1000
0010
0100
0100
0100
0000
,
0101
0001
0010
0001
0010
0100
1000
0001
,
0020
0000
0000
0032
0003
1000
0010
0100
,
0002
0000
1003
0001
0100
0010
1000
0100
,
0001
0100
1000
0100
0010
0001
1000
0001
,
1002
0000
0000
1000
0000
1000
0000
0000
0010
0000
0000
0000
1000
0000
0100
0000
,
1003
0000
0000
0001
0000
0001
0000
0000
0100
0000
0010
0000
0001
0000
0010
0000
,
1000
0000
0000
0010
0000
0010
0000
0000
1000
0000
0010
0000
0100
0000
0010
0000
,
1000
0100
0001
0100
1000
1000
1000
0000
,
1001
0000
0000
0010
0000
0010
0000
0000
0001
0000
1000
0000
0100
0000
1000
0000
,
0010
0000
0000
0100
0000
0100
0000
0000
0001
0000
0010
0000
1000
0000
0010
0000
,
0001
0000
0000
0010
0000
0010
0000
0000
0001
0000
0100
0000
0010
0000
0100
0000
,
0001
0000
0010
0000
0100
0000
1000
0000
0001
0000
0000
0000
0200
0000
0000
0300
,
0101
0000
0000
0001
0000
0000
1000
0000
0100
0000
1000
0000
0001
0000
0000
0000
,
0100
0000
0000
0010
0000
0000
0100
0000
0001
0000
1000
0000
0001
0000
0000
0000
,
0010
0000
0000
0100
0000
0000
0010
0000
0001
0000
1000
0000
0010
0000
0001
0000
,
1000
0100
0001
2000
0000
3020
0000
0030
,
1000
0000
0000
0001
0000
0000
1000
0000
0100
0000
1000
0000
0001
0000
0000
0000
,
0010
0000
0000
0001
0000
0000
1000
0000
0010
0000
0100
0000
0001
0000
0000
0000
,
0010
0000
0000
0100
0000
0000
1000
0000
0001
0000
0010
0000
0001
0000
0100
0000
,
1000
0001
0010
2000
0000
3002
0000
0003
,
1001
1000
0010
0000
0100
0001
1000
0000
,
0001
0010
0100
0000
0010
0010
0001
1000
,
0002
0000
0003
0000
0020
0000
0030
0000
0002
0000
0203
0000
1000
0000
0000
0300
,
0001
0100
0010
1000
0100
0010
0001
0000
,
0001
0100
1000
0000
1000
0100
0010
0000
,
1000
0100
0010
0001
0100
0001
1000
0100
,
0020
0000
0030
0012
0000
0000
1000
1003
,
0001
0000
1000
0100
0020
0000
0030
0000
,
0101
0001
1000
0001
1000
0100
0010
0001
,
2000
0000
0000
3200
0300
0010
0001
1000
,
0002
0000
0013
0100
1000
0002
1000
1003
,
0001
0010
1000
0010
0001
0000
1000
1000
,
1000
0100
0010
0100
0010
0001
1000
0001
,
0020
0000
0000
0230
0300
1000
0001
1000
,
0100
0000
0010
0001
1000
0001
0000
0010
,
0100
1000
0001
1000
1001
0000
0001
0000
,
1100
1000
0001
0000
0010
0100
1000
0000
,
0001
0100
0010
0000
1000
0100
0001
0100
,
2000
0000
3001
0002
1000
0003
0001
0010
,
0100
0000
1000
0000
0001
0000
1000
0000
0010
0000
0010
0000
0000
0100
0010
0100
,
0010
0100
1000
0100
0001
0010
0100
1000
,
0001
0000
1000
0100
0000
1000
0001
0100
,
0010
0000
1000
0001
0100
0000
0001
0010
,
0100
0000
1000
0000
0001
1000
0000
0000
0010
0000
2000
0000
0000
0000
0000
0000
,
3001
1000
0100
1000
0000
0001
0010
0100
,
0000
0000
0000
0001
0000
0100
0010
0100
,
0000
0001
0000
1000
0000
0010
0000
0100
,
1000
0100
0010
0100
0000
0001
0000
1000
,
1000
0010
0100
0020
0000
1000
0000
0000
,
0000
0001
0000
0000
0000
0100
0000
0000
,
0000
1000
0000
0000
0000
0000
0000
0000
,
0030
0000
0000
0000
;

//---------------dance-single - ----------------
#NOTES:
     dance-single:
     X-Scale 6:
     Easy:
     4:
     0.306387,0.328219,0.060781,0.138929,0.000000,247.000000,240.000000,7.000000,16.000000,0.000000,0.000000,0.306387,0.328219,0.060781,0.138929,0.000000,247.000000,240.000000,7.000000,16.000000,0.000000,0.000000:
0000
0000
0000
0000
,
0000
0000
0000
0000
,
0000
0000
0000
0000
,
0000
0000
0000
0000
,
0101
0100
0010
0100
,
0001
1000
0001
1000
,
0100
0000
0000
0010
0000
0000
0100
0000
,
1000
0100
0010
0001
0011
0000
0000
0000
,
1010
1000
0001
1000
,
0100
0010
0100
1000
,
0001
0100
0001
1000
,
0010
0000
0100
0000
0001
1000
0001
0000
,
0010
0100
0010
0100
,
1000
0001
1000
0010
,
0100
0010
1000
0001
,
0010
0100
1000
0001
,
1000
0000
0010
0000
0100
0000
0001
0010
,
0100
0000
1000
0000
0001
0000
1000
0100
,
0010
0000
0100
0000
1000
0000
0001
0100
,
0010
0000
0100
0000
0001
1000
0001
0000
,
1000
0000
0010
0000
1000
0000
0001
0100
,
0010
0000
0100
0000
0010
0000
1000
0100
,
0010
0000
0100
0000
1000
0000
0001
0100
,
0010
0100
0001
0010
,
0011
0001
1000
0001
,
0010
0100
0010
0001
,
1000
0010
0100
0001
,
0010
0000
0100
2000
0000
3002
0000
0003
,
1000
0100
0010
0001
,
1000
0010
0100
0001
,
1000
0010
0100
0010
,
1000
0000
0001
0020
0000
0230
0000
0300
,
1000
0010
1000
0010
,
0100
0000
0001
0000
1000
0010
0100
0010
,
2000
0000
3002
0000
0013
0002
0000
0000
,
0013
0000
0100
0000
1000
0001
0010
0000
,
0001
0100
0010
1000
,
0100
0000
0010
0001
1000
0001
0010
0100
,
2000
0000
3000
0002
0000
0000
0000
0003
,
0100
0000
0100
0010
0200
0000
0300
0000
,
1001
1000
0010
1000
,
0020
0000
0030
0200
0000
0300
0001
0000
,
1000
0000
0010
0000
0100
0010
1000
0000
,
0100
0000
0010
0000
0001
0000
1000
0001
,
1000
0010
0100
0001
,
0020
0000
0030
0200
0000
0300
1000
0000
,
0001
0000
1000
0000
0010
1000
0001
0000
,
0010
0100
1100
0000
,
0101
0000
1000
0000
0001
0000
0010
0100
,
1000
0000
0001
0000
0100
0000
0010
0100
,
0001
0000
0010
0000
0100
0000
1000
0001
,
1000
0000
0100
0000
0010
0010
0000
0001
,
0001
0000
0100
0000
0010
0000
1000
0100
,
0010
0000
0001
0000
1000
0000
0001
0010
,
0001
0000
0100
0000
0010
0000
1000
0010
,
1000
0000
0001
0000
0010
0020
0000
0000
,
0001
0000
0000
1000
0000
0000
0000
0100
,
0000
0000
0000
1000
0000
0000
0000
0001
,
0030
0000
0000
0001
0000
0000
0000
0100
,
0000
0000
0000
0100
0000
0000
0000
0000
,
0002
0000
0000
1000
0000
0000
0000
0000
,
0100
0000
1000
0000
,
0100
0000
0000
0000
,
0003
0000
0000
0000
;

//---------------dance-single - ----------------
#NOTES:
     dance-single:
     X-Scale 2:
     Beginner:
     2:
     0.146371,0.183484,0.026049,0.026049,0.000000,118.000000,115.000000,3.000000,3.000000,0.000000,0.000000,0.146371,0.183484,0.026049,0.026049,0.000000,118.000000,115.000000,3.000000,3.000000,0.000000,0.000000:
0000
0000
0000
0000
,
0000
0000
0000
0000
,
0000
0000
0000
0000
,
0000
0000
0000
0000
,
1000
0000
0100
0000
,
0010
0000
0001
0000
,
1000
0000
0000
1000
0000
0000
0000
0000
,
0200
0000
2300
3000
,
1100
0000
0100
0000
,
1000
0000
0100
0000
,
0010
0000
0001
0000
,
0010
0000
0001
1000
,
0001
0000
0010
0000
,
0100
0000
0010
0000
,
0100
0000
1000
0000
,
0100
0000
1000
0001
,
1000
0000
0100
0000
,
0010
0000
0001
0000
,
0100
0000
0010
0000
,
1000
0000
0001
0000
,
1000
0000
0100
0000
,
1000
0000
0100
0000
,
0010
0000
0001
0000
,
0010
0000
0001
0000
,
1000
0000
0100
0000
,
1000
0000
0001
0000
,
1000
0000
0010
0000
,
1000
0000
0100
0000
,
0010
0000
0001
0000
,
0010
0000
0100
0000
,
0010
0000
0001
0000
,
1000
0000
0001
0000
,
0010
0000
0100
0000
,
0010
0000
0100
0000
,
1000
0000
0001
0000
,
1000
0000
0001
0000
,
0010
0000
0100
0000
,
0010
0000
0100
0000
,
1000
0000
0000
0001
0000
0000
1000
0000
,
2000
0000
0000
3000
,
1001
0000
0001
0000
,
0010
0000
0001
0000
,
1000
0000
0010
0000
,
1000
0000
0010
0100
,
0010
0000
1000
0000
,
0010
0000
1000
0000
,
0001
0000
0010
0000
,
0001
0100
0001
0000
,
0101
0000
0100
0000
,
0001
0000
1000
0000
,
0001
0000
0100
0000
,
0010
0000
0100
0000
,
0001
0000
1000
0000
,
0100
0000
0010
0000
,
0100
0000
1000
0000
,
0001
0000
1000
0000
,
0001
0000
0000
0000
,
0000
0000
0000
1000
0000
0000
0000
0000
,
0000
0000
0000
0001
0000
0000
0000
0000
,
0010
0000
0000
0001
0000
0000
0000
0000
,
1000
0000
0000
0100
0000
0000
0000
0000
;

//---------------dance-single - ----------------
#NOTES:
     dance-single:
     X-Scale 15:
     Challenge:
     10:
     0.740539,0.897230,0.164978,0.382054,0.712009,597.000000,578.000000,19.000000,44.000000,29.000000,0.000000,0.740539,0.897230,0.164978,0.382054,0.712009,597.000000,578.000000,19.000000,44.000000,29.000000,0.000000:
// measure 0
0000
0000
0000
0000
,  // measure 1
0000
0000
0000
0000
,  // measure 2
0000
0000
0000
0000
,  // measure 3
0000
0000
0000
0000
0000
0000
1000
0100
,  // measure 4
1010
1000
0010
0001
0010
0100
0001
0010
,  // measure 5
0100
1000
0001
0100
0001
1000
0100
0001
,  // measure 6
0100
0000
1000
0000
0010
0000
0011
0000
0000
0000
1000
0000
1000
0000
0001
0010
,  // measure 7
0100
1000
0010
0100
0001
0000
100M
0000
1002
0000
0000
0003
100M
0000
0100
0000
,  // measure 8
1010
0000
1000
0001
0000
0010
0100
0000
0010
0001
1000
0000
0001
0000
0010
0000
,  // measure 9
0100
0000
1000
0100
0000
1000
0010
0000
0100
0010
1000
0000
0001
0000
0010
0000
,  // measure 10
0100
0000
0010
0001
0000
1000
0010
0000
0100
0010
1000
0000
0010
0000
0200
0300
,  // measure 11
0002
0003
0020
0030
0200
0300
2000
3000
1MM1
0000
M11M
0000
1MM1
0000
1000
0001
,  // measure 12
1000
0000
0100
0010
0000
0001
1000
0000
0001
0010
0100
0000
0010
0000
0001
0000
,  // measure 13
1000
0000
0010
0100
0000
0001
0010
0000
0100
1000
0001
0000
1000
0000
0010
0000
,  // measure 14
1000
0000
0001
0010
0000
0001
1000
0000
0010
0100
0001
0000
0100
0000
0002
0000
,  // measure 15
0203
2300
3002
0023
2030
3200
0320
0032
,  // measure 16
0103
0000
0001
0010
0000
0001
1000
0000
0010
1000
0100
0000
0001
0000
0100
0000
,  // measure 17
1000
0000
0100
0010
0000
0001
1000
0000
0010
0100
0001
0000
1000
0000
0100
0000
,  // measure 18
0010
0000
0001
0010
0000
0001
1000
0000
0010
1000
0100
0000
0001
0000
0100
0000
,  // measure 19
1000
0000
0010
0100
0000
0001
0010
0000
11MM
0000
M1M1
0000
11MM
0000
0001
1000
,  // measure 20
0001
0000
1000
0100
0000
0010
0001
0000
1000
0001
0010
0000
0100
0000
0010
0000
,  // measure 21
0100
0000
1000
0100
0000
1000
0001
0000
0010
0100
1000
0000
0001
0000
0100
0000
,  // measure 22
0010
0000
1000
0001
0000
0010
0100
0000
1000
0001
0010
0000
1000
0000
0010
0000
,  // measure 23
0001
0000
0100
0001
0000
1000
0100
0000
0010
0001
0000
1000
0001
0100
0001
0000
,  // measure 24
1000
0100
0010
0001
1000
0100
0010
0001
1000
0010
0100
0001
1000
0010
0100
0001
,  // measure 25
1000
0001
0010
0100
1000
0001
0010
0100
1000
0001
0100
0010
1000
0001
0100
0010
,  // measure 26
1000
0100
0010
0001
1000
0100
0010
0001
1000
0010
0100
0001
1000
0000
0002
0000
,  // measure 27
0023
2030
3020
0032
0000
2003
0000
3000
,  // measure 28
0001
0010
0100
1000
0001
0010
0100
1000
0001
0100
0010
1000
0001
0100
0010
1000
,  // measure 29
0001
1000
0100
0010
0001
1000
0100
0010
0001
1000
0010
0100
0001
1000
0010
0100
,  // measure 30
0001
0010
0100
1000
0001
0010
0100
1000
0001
0100
0010
1000
0001
0100
0002
0000
,  // measure 31
0023
2030
3020
0032
0000
2003
0000
3000
,  // measure 32
1100
1000
0100
0001
0100
0010
0001
1000
,  // measure 33
0001
0100
0010
1000
0001
0100
0010
1000
0001
0100
0010
1000
0001
0100
0010
1000
,  // measure 34
0002
0000
0000
0003
2000
0000
0000
3100
M020
0000
0032
0000
0000
0000
0000
0000
,  // measure 35
1003
0010
0M00
0010
0001
0000
1000
0100
0001
0000
0100
0000
1000
0000
0010
0000
,  // measure 36
0100
0001
0100
1000
0100
0010
0100
0001
,  // measure 37
1000
0100
0010
0001
1000
0100
0010
0001
1000
0100
0010
0001
1000
0100
0010
0001
,  // measure 38
2000
0000
0000
0000
3010
0000
MM12
0000
0000
0000
1000
0000
1003
0000
0001
0100
,  // measure 39
0010
1000
0000
0001
1000
0010
1000
0001
2000
0000
0000
3000
M001
0000
0010
0000
,  // measure 40
0101
0000
0100
0010
0000
1000
0001
0000
0100
0001
1000
0000
0001
0000
0010
0000
,  // measure 41
0100
0000
1000
0010
0000
1000
0001
0000
0010
0001
1000
0000
0010
0000
0100
0000
,  // measure 42
0001
0000
0100
0010
0000
1000
0001
0000
0010
0100
1000
0000
0001
0000
2000
0000
,  // measure 43
3200
0302
0203
2300
3001
0000
M1M1
MM11
,  // measure 44
M1M1
0000
0001
0010
0000
0100
1000
0000
0001
1000
0010
0000
0001
0000
0010
0000
,  // measure 45
1000
0000
0001
0100
0000
0001
1000
0000
0100
0010
0001
0000
1000
0000
0001
0000
,  // measure 46
0100
0000
0010
0100
0000
0001
0010
0000
0100
1000
0001
0000
1000
0000
0200
0000
,  // measure 47
0302
0203
0320
0230
1300
0010
0100
0001
,  // measure 48
1010
0000
1000
0100
0000
1000
0001
0000
0010
0100
1000
0000
0001
0000
1000
0000
,  // measure 49
0010
0000
0100
0010
0000
1000
0001
0000
0010
0100
1000
0000
0001
0000
1000
0000
,  // measure 50
0100
0000
1000
0001
0000
0010
0001
0000
1000
0001
0010
0000
0001
0000
1000
0000
,  // measure 51
0001
0000
1000
0100
0010
0001
1000
0000
M1M1
0000
11MM
0000
0001
1000
0100
1000
,  // measure 52
0001
0000
0010
0001
0000
1000
0010
0000
0100
0010
1000
0000
0010
0000
0001
0000
,  // measure 53
0010
0000
0100
0010
0000
1000
0100
0000
0010
0001
1000
0000
0010
0000
0100
0000
,  // measure 54
0001
0000
0010
0001
0000
1000
0100
0000
1000
0001
0010
0000
1000
0000
0010
0000
,  // measure 55
0001
0000
1000
0100
1000
0010
0000
0100
0001
0000
1000
0100
0010
0001
0100
0010
,  // measure 56
1000
0001
0010
0001
0000
1000
0100
0001
,  // measure 57
0000
0100
0000
1000
0000
0001
0010
1000
,  // measure 58
0000
0010
0000
0001
0000
1000
0000
0001
,  // measure 59
0100
1000
0010
0001
0001
1000
1000
0001
,  // measure 60
0001
0010
0100
1000
0001
1000
0000
0001
,  // measure 61
0100
0010
0000
1000
0100
0010
0000
0001
,  // measure 62
0100
0010
0000
1000
0100
0010
0000
0000
;
