#TITLE:Kick Drums & Red Wine;
#SUBTITLE:;
#ARTIST:The Midnight;
#TITLETRANSLIT:;
#SUBTITLETRANSLIT:;
#ARTISTTRANSLIT:;
#GENRE:Synthwave;
#CREDIT:Cuzco & K-Step;
#BANNER:kd_rw-bn.png;
#BACKGROUND:kd_rw-bg.png;
#LYRICSPATH:;
#CDTITLE:cdtitle.png;
#MUSIC:kd_rw.ogg;
#OFFSET:0.000000;
#SAMPLESTART:91.429001;
#SAMPLELENGTH:15.250000;
#SELECTABLE:YES;
#BPMS:0.000000=62.999996
,16.000000=125.999992
,48.000000=62.999996
,80.000000=125.999992
,208.000000=62.999996
;
#STOPS:
;
#BGCHANGES:;
#KEYSOUNDS:;
#ATTACKS:;

//---------------dance-single - ----------------
#NOTES:
     dance-single:
     ITG 08 X 13:
     Hard:
     8:
     0.420165,0.456411,0.092133,0.559883,0.382705,415.000000,402.000000,13.000000,79.000000,0.000000,0.000000,0.420165,0.456411,0.092133,0.559883,0.382705,415.000000,402.000000,13.000000,79.000000,0.000000,0.000000:
// measure 0
0000
0000
0000
0000
,  // measure 1
0000
0000
0000
0000
,  // measure 2
0000
0000
0000
0000
,  // measure 3
0000
0000
0000
0000
,  // measure 4
1100
1000
0001
0020
0100
0000
0130
1000
,  // measure 5
0001
0000
0001
0000
0101
0000
0100
0020
,  // measure 6
0130
2000
3100
0002
1000
0000
1003
0100
,  // measure 7
0010
0000
0000
0000
0010
0000
0000
0000
0110
0000
0000
0000
0100
1000
0001
0000
,  // measure 8
0100
0001
1000
0020
0100
0000
0130
0001
,  // measure 9
1000
0000
1000
0000
1100
0100
0000
0002
,  // measure 10
0103
0020
0130
2000
3001
0200
0310
2000
,  // measure 11
3100
0020
0130
0002
0103
1000
0001
1000
,  // measure 12
0020
0000
0001
0000
1000
2000
0000
0000
3030
0000
0000
0000
0020
1000
1000
1030
,  // measure 13
0002
0000
0010
0020
0000
0000
0000
0000
0033
0000
0000
0000
0002
0000
1003
0200
,  // measure 14
0010
0000
1000
0000
1000
0000
0002
0000
0000
0000
0303
0000
0200
0000
0000
2300
,  // measure 15
0001
0000
0001
0100
0200
0000
3300
2000
0000
0000
0000
3001
0010
0100
1000
0001
,  // measure 16
0200
0001
0000
0001
0001
0000
0020
0000
0000
0000
0330
0000
0020
1030
0001
0010
,  // measure 17
0200
1000
0000
1000
1000
0000
0020
0000
0000
0000
0330
0000
0010
0001
0100
0010
,  // measure 18
2000
0010
0000
0010
0010
0000
0002
0000
0000
0000
3003
0000
0001
1000
0100
0010
,  // measure 19
0002
0010
0000
0010
0010
0000
0013
0200
0000
2300
3001
0020
1000
0000
0031
0000
,  // measure 20
1001
1000
0001
0001
,  // measure 21
1000
0000
1000
0000
1010
0000
0001
0010
,  // measure 22
0001
0000
0001
0000
0100
0000
0100
0010
,  // measure 23
1000
0000
1000
0000
1100
0000
0100
1000
,  // measure 24
0002
0000
0003
0200
0000
0300
0020
0000
0030
2000
0000
3000
0001
0000
1000
0000
,  // measure 25
0001
0000
0001
0000
0011
0000
0010
0100
,  // measure 26
1000
0000
1000
0000
0001
0000
0001
0100
,  // measure 27
0010
0000
0010
1000
0001
0000
0201
0000
,  // measure 28
0310
0000
1000
0000
0001
0000
0020
0000
0100
0030
0020
0000
0031
0000
0020
0030
,  // measure 29
0100
1000
0100
1000
1002
0000
0103
0020
,  // measure 30
0130
0000
2000
0000
3100
0000
0002
0000
1000
0003
0002
0000
0013
0000
0002
0003
,  // measure 31
1000
0010
1000
0010
0120
0000
1030
0001
,  // measure 32
0010
0000
0100
0000
1000
0000
0020
0000
0001
0030
0020
0000
0130
0000
0020
0030
,  // measure 33
1000
0001
0100
0001
2001
0000
3100
0002
,  // measure 34
0103
0020
0130
2000
3001
0200
0310
2000
,  // measure 35
3100
0000
0020
0000
0130
0000
0002
0000
0103
0010
0100
0000
1100
0000
0100
1000
,  // measure 36
0001
0000
1000
0000
0010
0000
0100
0000
0001
0000
0010
0100
0000
0100
0000
0100
,  // measure 37
0010
0000
0001
0000
1000
0000
0001
0000
1000
0100
0000
0010
0000
0010
0000
0010
,  // measure 38
0001
0000
0010
0000
1000
0000
0010
0000
0001
0100
0000
0010
0000
0010
0000
0010
,  // measure 39
1000
0000
0100
0000
1000
0000
0001
0000
1000
0000
0010
0100
0000
0100
0000
0100
,  // measure 40
0001
0000
0100
0000
0001
0000
0010
0000
0100
0010
0000
0001
0000
0001
0000
0001
,  // measure 41
1000
0000
0001
0000
0010
0000
0001
0000
0100
0010
0000
1000
0000
1000
0000
1000
,  // measure 42
0001
0000
1000
0000
0100
0000
1000
0000
0001
0010
0000
0100
0000
0100
0000
0100
,  // measure 43
0001
0000
0100
0000
1000
0000
0100
0000
1000
0010
1000
0010
1000
0000
0001
1000
,  // measure 44
0001
0000
0010
0000
0100
0000
1000
0000
0010
0000
0100
0001
0000
0100
0000
0001
,  // measure 45
1000
0000
0010
0000
1000
0000
0001
0000
0010
0100
0000
1000
0000
0100
0020
0130
,  // measure 46
1000
0000
0020
0000
0130
0000
0002
0000
0013
0100
0000
1000
0000
0001
0000
1000
,  // measure 47
0010
0000
0100
0000
0001
0000
1000
0000
0001
0000
1000
0100
0000
0010
0000
0100
,  // measure 48
1000
0000
0001
0000
0100
0000
0010
0000
1000
0000
0001
0010
0000
0001
0000
0010
,  // measure 49
0100
0000
1000
0000
0001
0000
0100
0000
0010
1000
0000
0001
0000
0100
0020
1030
,  // measure 50
0001
0000
2000
0000
3001
0000
0200
0000
0310
0100
0000
0001
0000
1000
0000
0001
,  // measure 51
0010
0000
0100
0000
0010
0000
0100
0000
1000
0100
0000
0100
1000
0001
1000
0001
,  // measure 52
1000
0100
0010
0002
0000
0000
0000
0000
0000
0000
0000
0000
1003
0000
0000
0020
,  // measure 53
0100
0230
0000
0302
0000
0000
0000
0000
0000
0000
0000
0000
0013
0001
0000
0100
,  // measure 54
0010
0100
0001
2000
0000
0000
0000
0000
0000
0000
0000
0000
3001
0100
0000
2000
,  // measure 55
0100
3200
0000
0302
0000
2003
0000
3200
0010
0320
0001
0002
0000
0000
0000
0000
,  // measure 56
0033
0000
0000
0000
;

//---------------dance-single - ----------------
#NOTES:
     dance-single:
     ITG 04 X 07:
     Easy:
     4:
     0.231850,0.297659,0.155917,0.418140,0.028348,229.000000,207.000000,22.000000,59.000000,0.000000,0.000000,0.231850,0.297659,0.155917,0.418140,0.028348,229.000000,207.000000,22.000000,59.000000,0.000000,0.000000:
// measure 0
0000
0000
0000
0000
,  // measure 1
0000
0000
0000
0000
,  // measure 2
0000
0000
0000
0000
,  // measure 3
0000
0000
0000
0000
,  // measure 4
1001
0000
0001
0020
0000
0000
0100
0000
,  // measure 5
0000
0000
0130
0000
2000
0000
0000
3010
,  // measure 6
0000
0001
0000
0200
0000
0000
1000
0000
,  // measure 7
0000
0000
1300
0000
0002
0000
0000
0013
,  // measure 8
0100
0000
1000
0020
0000
0000
0100
0000
,  // measure 9
0000
0000
0130
0000
0002
0000
0000
0013
,  // measure 10
0000
1000
0000
0100
0000
0001
0000
1000
,  // measure 11
0000
0100
0000
0001
0000
0100
0000
1000
,  // measure 12
0002
0000
0000
0000
0003
0000
0002
0003
,  // measure 13
0200
0000
0000
0000
0300
0000
0200
0300
,  // measure 14
0020
0000
0000
0000
0030
0000
0020
0030
,  // measure 15
2000
0000
0000
0000
3000
0000
0000
2000
0000
0000
0000
0000
3000
0000
0000
0000
,  // measure 16
2200
0000
3300
0002
,  // measure 17
0200
0000
0303
0020
,  // measure 18
2000
0000
3030
0002
,  // measure 19
0020
0000
0000
0000
0033
0000
0000
0100
0000
1000
0000
0020
0000
0000
0230
0000
,  // measure 20
0001
0001
0001
0001
,  // measure 21
0301
0000
0001
0000
0011
0000
0010
0200
,  // measure 22
1000
0000
1000
0000
1000
0000
1300
0100
,  // measure 23
1000
0000
1000
0000
1100
0000
1000
0020
,  // measure 24
0200
0000
0000
0000
0000
0000
0000
0000
0000
0000
0000
0000
0000
0000
0000
0000
0000
0000
0000
0000
0000
0000
0000
0000
0000
0000
0000
0000
0000
0000
0000
0000
0000
0000
0000
0000
0300
0000
0000
0000
0000
0000
0000
0000
0000
0000
0000
0000
0200
0000
0000
0000
0000
0000
0000
0000
0000
0000
0000
0000
0000
0000
0000
0000
0000
0000
0000
0000
0000
0000
0000
0000
0300
0000
0000
0000
0000
0000
0000
0000
0000
0000
0000
0000
0000
0000
0000
0000
0000
0000
0000
0000
0000
0000
0000
0000
0200
0000
0000
0000
0000
0000
0000
0000
0000
0000
0000
0000
0300
0000
0000
0000
0000
0000
0000
0000
0000
0000
0000
0000
0000
0000
0000
0000
0000
0000
0000
0000
0000
0000
0000
0000
0000
0000
0000
0000
0000
0000
0000
0000
0000
0000
0000
0000
0230
0300
0000
0000
0000
0000
0000
0000
0000
0000
0000
0000
0000
0000
0000
0000
0000
0000
0000
0000
0000
0000
0000
0000
0001
0000
0000
0000
0000
0000
0000
0000
0000
0000
0000
0000
0000
0000
0000
0000
0000
0000
0000
0000
0000
0000
0000
0000
,  // measure 25
0100
0000
0100
0000
0110
0000
0001
0020
,  // measure 26
0100
0000
0100
0000
0100
0000
0130
2000
,  // measure 27
0000
3010
0000
0210
0000
0000
0301
0000
,  // measure 28
1000
0000
0100
0020
0001
0000
0001
0000
,  // measure 29
0100
0000
0130
0000
1100
0000
1000
0010
,  // measure 30
0000
0001
0000
0200
0000
0000
1000
0000
,  // measure 31
0010
0000
0310
0000
0011
0000
0001
1000
,  // measure 32
0002
0000
0000
0000
0000
0000
0000
0000
0000
0000
0000
0000
0000
0000
0000
0000
0000
0000
0000
0000
0000
0000
0000
0000
0000
0000
0000
0000
0000
0000
0000
0000
0000
0000
0000
0000
0003
0000
0000
0000
0000
0000
0000
0000
0000
0000
0000
0000
0200
0000
0000
0000
0000
0000
0000
0000
0000
0000
0000
0000
0000
0000
0000
0000
0000
0000
0000
0000
0000
0000
0000
0000
0320
0000
0000
0000
0000
0000
0000
0000
0000
0000
0000
0000
0000
0000
0000
0000
0000
0000
0000
0000
0000
0000
0000
0000
2000
0000
0000
0000
0000
0000
0000
0000
0000
0000
0000
0000
3000
0000
0000
0000
0000
0000
0000
0000
0000
0000
0000
0000
0000
0000
0000
0000
0000
0000
0000
0000
0000
0000
0000
0000
0000
0000
0000
0000
0000
0000
0000
0000
0000
0000
0000
0000
2000
3000
0000
0000
0000
0000
0000
0000
0000
0000
0000
0000
0000
0000
0000
0000
0000
0000
0000
0000
0000
0000
0000
0000
0000
0000
0000
0000
0000
0000
0000
0000
0000
0000
0000
0000
0000
0000
0000
0000
0000
0000
0000
0000
0000
0000
0000
0000
,  // measure 33
0100
0000
0130
0000
0101
0000
0001
0010
,  // measure 34
0000
1000
0000
0100
0000
0001
0000
0011
,  // measure 35
0000
0000
1010
0000
0000
0000
1100
0000
0000
0100
0000
0000
0001
0000
1000
0000
,  // measure 36
1100
0000
0100
0020
0001
0000
1000
0000
,  // measure 37
0001
0000
1030
0000
0011
0000
1000
0100
,  // measure 38
0010
0001
0000
0200
1000
0000
0001
0000
,  // measure 39
1300
0101
1000
1100
,  // measure 40
0001
0000
0100
0020
1000
0000
0001
0000
,  // measure 41
1000
0000
0031
0000
1010
0000
0001
0010
,  // measure 42
0100
1000
0000
0010
0000
0001
0000
0200
,  // measure 43
0000
0000
1300
0000
0000
0000
1020
0000
0000
0100
0000
0000
0130
0000
0000
0000
,  // measure 44
0001
0000
0001
0020
1000
0000
0001
0000
,  // measure 45
1000
0000
0031
0000
0101
0000
0001
1000
,  // measure 46
0100
0010
0000
0002
0100
0000
1000
0000
,  // measure 47
0103
1010
0001
0011
,  // measure 48
1000
0000
1000
0020
0001
0000
1000
0000
,  // measure 49
0001
0000
1030
0000
1100
0000
1000
0010
,  // measure 50
0100
0001
0000
0010
0000
1000
0000
0200
,  // measure 51
0000
0301
0010
0001
0020
0000
0130
0000
,  // measure 52
2000
0000
0000
0000
0000
3000
2000
3000
,  // measure 53
0200
0000
0000
0000
0300
0000
0200
0300
,  // measure 54
0020
0000
0000
0000
0030
0000
0020
0030
,  // measure 55
0002
0000
0000
0000
0000
0000
0003
0002
0000
0000
0000
2000
0000
0000
0000
0000
,  // measure 56
3003
0000
0000
0000
;

//---------------dance-single - ----------------
#NOTES:
     dance-single:
     ITG 02 X 02:
     Beginner:
     2:
     0.131618,0.176802,0.184265,0.000000,0.007087,130.000000,104.000000,26.000000,0.000000,0.000000,0.000000,0.131618,0.176802,0.184265,0.000000,0.007087,130.000000,104.000000,26.000000,0.000000,0.000000,0.000000:
// measure 0
0000
0000
0000
0000
,  // measure 1
0000
0000
0000
0000
,  // measure 2
0000
0000
0000
0000
,  // measure 3
0000
0000
0000
0000
,  // measure 4
1000
0000
0000
0000
,  // measure 5
0000
0000
1000
0000
,  // measure 6
0100
0000
0000
0000
,  // measure 7
0000
0000
0100
0000
,  // measure 8
0010
0000
0000
0000
,  // measure 9
0000
0000
0010
0000
,  // measure 10
0001
0000
0000
0000
0000
0000
0000
0001
,  // measure 11
0000
0000
0000
0000
,  // measure 12
0100
0000
0000
0100
,  // measure 13
0100
0000
0000
0010
,  // measure 14
0010
0000
0000
0010
,  // measure 15
0010
0000
0000
0000
,  // measure 16
1001
0000
0000
1000
,  // measure 17
1000
0000
0000
0001
,  // measure 18
0001
0000
0000
0001
,  // measure 19
0001
0000
0000
0000
0000
0000
0000
1001
0000
0000
0000
0000
0000
0000
0000
0000
,  // measure 20
1000
0000
1000
0000
,  // measure 21
1000
0000
1001
0000
,  // measure 22
0010
0000
0010
0000
,  // measure 23
0010
0000
1001
0000
,  // measure 24
0100
0000
0100
0000
,  // measure 25
0100
0000
0110
0000
,  // measure 26
0001
0000
0001
0000
,  // measure 27
0001
0000
0110
0000
,  // measure 28
1000
1000
1000
0000
,  // measure 29
0001
0000
1001
0000
,  // measure 30
0100
0100
0100
0000
,  // measure 31
0010
0000
0110
0000
,  // measure 32
0010
0010
0010
0000
,  // measure 33
0100
0000
0110
0000
,  // measure 34
0001
0001
0001
0000
,  // measure 35
1000
1000
1000
0000
,  // measure 36
1001
0000
0001
0001
,  // measure 37
0000
0000
1001
0000
,  // measure 38
0110
0000
0010
0010
,  // measure 39
0000
0000
1001
0000
,  // measure 40
0110
0000
0100
0100
,  // measure 41
0000
0000
0110
0000
,  // measure 42
1001
0000
1000
1000
,  // measure 43
0000
0000
0110
0000
,  // measure 44
1001
0000
1000
1000
,  // measure 45
1000
0000
1001
0000
,  // measure 46
0110
0000
0010
0010
,  // measure 47
0010
0000
1001
0000
,  // measure 48
0110
0000
0100
0100
,  // measure 49
0100
0000
0110
0000
,  // measure 50
1001
0000
0001
0001
,  // measure 51
0001
0000
0110
0000
,  // measure 52
1000
0000
0000
1000
,  // measure 53
1000
0000
0000
0001
,  // measure 54
0001
0000
0000
0001
,  // measure 55
0001
0000
0000
0000
0000
0000
0000
1001
0000
0000
0000
0000
0000
0000
0000
0000
;

//---------------dance-single - ----------------
#NOTES:
     dance-single:
     ITG 06 X 09:
     Medium:
     6:
     0.381692,0.456411,0.028348,0.333095,0.311833,377.000000,373.000000,4.000000,47.000000,0.000000,0.000000,0.381692,0.456411,0.028348,0.333095,0.311833,377.000000,373.000000,4.000000,47.000000,0.000000,0.000000:
// measure 0
0000
0000
0000
0000
,  // measure 1
0000
0000
0000
0000
,  // measure 2
0000
0000
0000
0000
,  // measure 3
0000
0000
0000
0000
,  // measure 4
0011
0001
0010
0001
0100
0000
1000
0000
,  // measure 5
0100
0000
0001
0000
0010
0000
0001
0200
,  // measure 6
0310
0200
0301
0020
0130
0020
0031
0000
,  // measure 7
1000
0010
0100
0001
,  // measure 8
0010
0100
0010
0001
0010
0000
0001
1000
,  // measure 9
0001
0000
0001
0000
1000
0100
1000
0020
,  // measure 10
0031
0020
1030
0020
0130
0010
1000
0002
,  // measure 11
0013
0001
1000
0200
0310
0100
1000
0020
,  // measure 12
0030
0100
0010
0000
0100
0001
0000
0000
1000
0000
0010
0000
1000
0010
0100
0001
,  // measure 13
0010
0000
0001
1000
0001
0000
0010
0000
1000
0000
0010
0000
0100
0000
1000
0100
,  // measure 14
1000
0000
0001
0000
0010
0000
0001
0100
0000
0000
0001
0000
2000
0000
0000
0000
,  // measure 15
3010
1000
0100
0010
0001
0000
0010
0000
0001
0000
1000
0100
0010
0100
1000
0001
,  // measure 16
0000
0001
0000
0010
0100
0000
0100
0000
0010
0000
0001
0000
1000
0100
1000
0010
,  // measure 17
0000
0010
0000
1000
0100
0000
0100
0000
2000
0000
0000
0000
3001
0100
0001
1000
,  // measure 18
0000
1000
0000
0100
0010
0000
0010
0000
0001
0000
0100
0000
0001
1000
0100
0010
,  // measure 19
0000
0010
0000
0001
0100
0000
0100
0000
0000
0001
0010
0001
1000
0000
0100
0000
,  // measure 20
2100
0010
0001
0010
,  // measure 21
0100
0000
0010
0000
3002
0000
1003
0001
,  // measure 22
0020
0001
1000
0001
,  // measure 23
1000
0000
0001
0000
0130
0000
0010
0001
,  // measure 24
2002
3000
0000
2000
3000
0000
0200
0300
0000
0200
0300
0000
0020
0030
0000
0020
,  // measure 25
0030
0000
0100
0000
2003
0000
3010
1000
,  // measure 26
0200
0000
1000
0000
0001
0000
1300
0100
,  // measure 27
0002
0000
0103
0010
0002
0000
2003
0000
,  // measure 28
3001
1000
0100
1000
0010
0000
0100
0000
,  // measure 29
0001
0000
0010
0000
0100
0000
0010
0002
,  // measure 30
0103
0002
0013
0200
1300
0200
0310
0000
,  // measure 31
0100
0000
0000
0000
1000
0000
0000
0000
0010
0000
0000
0000
1000
0000
0100
0010
,  // measure 32
0100
0010
0001
0010
0100
0000
1000
0010
,  // measure 33
1000
0000
0001
0000
0200
0000
0310
0200
,  // measure 34
1300
0200
0310
0200
0301
0100
0010
2000
,  // measure 35
3001
0000
1000
0000
0100
0000
0020
0000
0031
0010
0001
0000
0010
0000
0000
0000
,  // measure 36
0011
0000
0001
0000
1000
0000
0001
0000
0010
0000
0000
0100
0000
0100
0000
0100
,  // measure 37
1000
0000
0100
0000
0010
0000
0100
0000
1000
0000
0000
0001
0000
0001
0000
0001
,  // measure 38
0010
0000
0001
0000
0100
0000
0010
0000
1000
0000
0000
0100
0000
0100
0000
0100
,  // measure 39
0010
0000
0100
0000
1000
0000
0001
0000
0010
0000
0000
0001
0000
0001
0000
0001
,  // measure 40
0100
0000
0010
0000
1000
0000
0001
0000
0010
0000
0000
0100
0000
0100
0000
0100
,  // measure 41
0010
0000
0100
0000
1000
0000
0001
0000
1000
0000
0000
0010
0000
0010
0000
0010
,  // measure 42
0100
0010
1000
0100
0010
0001
1000
0001
,  // measure 43
0010
0000
0100
0000
1000
0000
0001
0000
0100
0000
0001
1000
0000
1000
0000
1000
,  // measure 44
0001
0000
1000
0000
0100
0000
0010
0000
0001
0000
0000
0100
0000
0100
0000
0100
,  // measure 45
0001
0000
0010
0000
0001
0000
1000
0000
0100
0000
0000
0010
0000
0010
0000
0010
,  // measure 46
0001
0000
0010
0000
0001
0000
1000
0000
0010
0000
0000
0100
0000
0100
0000
0100
,  // measure 47
0001
0000
0100
0000
0010
0000
1000
0000
0001
0000
0000
0010
0000
0010
0000
0010
,  // measure 48
0001
0000
1000
0000
0001
0000
0010
0000
0100
0000
0000
0010
0000
0010
0000
0010
,  // measure 49
0001
0000
0010
0000
0100
0000
1000
0000
0010
0000
0000
1000
0000
1000
0000
1000
,  // measure 50
0100
1000
0010
1000
0100
0010
0001
1000
,  // measure 51
0001
0010
0001
0010
0100
1000
0100
1000
,  // measure 52
0020
0100
0100
0200
0000
0000
0000
0000
0000
0000
0300
0000
2030
0000
0000
3002
,  // measure 53
0000
1000
0000
0100
0000
0010
0000
0000
0000
0000
0000
0010
0023
0000
0000
0000
,  // measure 54
0230
1000
1000
2000
0000
0000
0000
0000
0000
0000
3000
0000
0320
0000
0000
0031
,  // measure 55
0000
0010
0000
0100
0000
1000
0100
2000
0000
0100
0100
0200
0000
0000
0000
0000
,  // measure 56
3300
0000
0000
0000
;
