#VERSION:0.83;
#TITLE:Keep on Rising;
#SUBTITLE:(Sensation 2017 Anthem);
#ARTIST:Fedde Le Grand vs Ian Carey;
#TITLETRANSLIT:;
#SUBTITLETRANSLIT:;
#ARTISTTRANSLIT:;
#GENRE:Festival House;
#ORIGIN:;
#CREDIT:;
#BANNER:Keep on Rising-bn.png;
#BACKGROUND:Keep on Rising-bg.png;
#PREVIEWVID:;
#JACKET:Keep on Rising-jacket.png;
#CDIMAGE:;
#DISCIMAGE:;
#LYRICSPATH:;
#CDTITLE:cdtitle.png;
#MUSIC:Keep on Rising.ogg;
#OFFSET:-0.024000;
#SAMPLESTART:63.773998;
#SAMPLELENGTH:15.000000;
#SELECTABLE:YES;
#BPMS:0.000=128.000;
#STOPS:;
#DELAYS:;
#WARPS:;
#TIMESIGNATURES:0.000=4=4;
#TICKCOUNTS:0.000=4;
#COMBOS:0.000=1;
#SPEEDS:0.000=1.000=0.000=0;
#SCROLLS:0.000=1.000;
#FAKES:;
#LABELS:0.000=Song Start;
#BGCHANGES:;
#KEYSOUNDS:;
#ATTACKS:
;

//---------------dance-single - ----------------
#NOTEDATA:;
#CHARTNAME:X-Scale 12;
#STEPSTYPE:dance-single;
#DESCRIPTION:;
#CHARTSTYLE:;
#DIFFICULTY:Hard;
#METER:8;
#RADARVALUES:0.520382,0.690040,0.050734,0.253668,0.679830,359.000000,354.000000,5.000000,25.000000,0.000000,0.000000,0.000000,0.000000,0.000000,0.520382,0.690040,0.050734,0.253668,0.679830,359.000000,354.000000,5.000000,25.000000,0.000000,0.000000,0.000000,0.000000,0.000000;
#CREDIT:;
#NOTES:
0000
0000
0000
0000
,
0000
0000
0000
0000
,
1100
0000
0000
0000
0000
0000
0000
0000
0001
0000
0000
0010
0000
0000
0001
0000
,
1000
0000
0000
0100
0000
0000
1000
0000
0010
0000
0000
0010
0000
0000
0000
0000
,
0100
0000
0000
0000
0000
0000
0000
0000
0001
0000
0000
0100
0000
0000
0001
0000
,
1000
0000
0000
0010
0000
0000
1000
0000
0100
0000
0000
0100
0000
0000
0000
0000
,
0010
0000
0001
0000
0000
0000
0000
1000
0000
0000
1000
0000
0000
0000
0001
0000
,
0010
0000
0000
0000
0001
0000
1000
0010
0000
0000
0010
0000
0000
0000
0000
0000
,
1000
0000
0000
0000
0100
0000
0000
1000
0020
0000
0000
0000
0230
0000
0000
0000
,
2300
3200
0302
1000
,
1003
0000
0000
0001
0000
0001
0000
0010
0000
0000
0001
0000
1000
0000
1000
0000
,
0010
0000
0000
0100
0000
0100
0000
0001
0000
0000
1000
0000
0100
0000
0100
0000
,
0010
0000
0000
0001
0000
0001
0000
1000
0000
0000
0010
0000
1000
0000
1000
0000
,
0100
0000
0000
0010
0000
0010
0000
0100
0000
0000
1000
0000
0001
0000
0001
0000
,
0100
0010
0001
0010
2000
0000
3001
0010
,
0200
0000
0000
0000
0310
0000
0002
1000
0000
0000
1000
0000
0100
0000
0103
0000
,
0001
0000
0000
1000
0000
1000
0000
0010
0000
0000
0010
0000
0100
0000
0100
0000
,
1000
0000
0100
0000
0001
0000
0000
0000
0010
0000
0100
0000
1000
0100
0000
0000
,
0201
0000
0000
0001
0000
0001
0000
1000
0000
0000
0000
0000
0010
0000
0310
0000
,
0020
0000
0000
0001
0000
0001
0000
1000
0000
0000
0000
0000
0100
0000
0130
0000
,
0200
0000
0000
1000
0000
1000
0000
0001
0000
0000
0000
0000
0010
0000
0310
0000
,
0020
2030
3002
0023
,
0230
0000
0000
0010
0000
0010
0000
0001
0000
0000
0000
0000
1000
0000
1300
0000
,
2000
0000
0000
0100
0000
0100
0000
0010
0000
0000
0000
0000
0001
0000
3001
0000
,
0002
0000
0000
1000
0000
1000
0000
0010
0000
0000
0000
0000
0100
0000
0103
0000
,
0100
0000
0000
0001
0000
0001
0000
1000
0000
1000
0010
0000
0100
0000
0010
0000
,
0101
0000
0000
0001
0000
0001
0000
1000
0000
0000
0001
0000
0010
0000
0010
0000
,
0100
0000
0000
0010
0000
0010
0000
0001
0000
0000
1000
0000
0010
0000
1000
0001
,
1000
0000
0000
0100
0000
0100
0000
0010
0000
0000
0100
0000
1000
0000
1000
0000
,
0001
0000
0000
0100
0000
0100
0000
0001
0000
0000
1000
0000
0010
0000
0010
0000
,
1000
0010
0100
0001
0010
0100
1000
0010
,
0100
0001
0010
0100
1000
0010
0100
0001
,
1000
0001
1000
0001
1000
0001
1000
0001
0100
0010
0100
0010
0100
0010
0100
0010
,
0200
0000
0000
0000
0000
0001
0010
0301
,
0101
0000
1000
0001
0000
0001
0000
0100
0000
0100
0010
0000
1000
0000
1000
0000
,
0001
0000
0001
0010
0000
0010
0000
0001
0000
0001
0100
0000
0010
0100
0010
0000
,
1000
0000
0001
1000
0000
1000
0000
0100
0000
0100
0010
0000
0001
0000
0001
0000
,
1000
0000
0100
1000
0000
1000
0000
0010
0000
0010
0100
0000
0001
0000
0001
0000
,
1000
0000
0100
1000
0000
1000
0000
0100
0000
0100
0010
0000
0001
0000
0001
0000
,
0100
0000
0001
0100
0000
0100
0000
0010
0000
0010
1000
0000
0001
1000
0001
0000
,
0100
0000
0010
0100
0000
0100
0000
0001
0000
0001
1000
0000
0100
0000
0100
0000
,
0010
0000
0001
0100
0000
0100
0000
0001
0000
0001
1000
0000
0010
1000
0000
0000
,
1010
0000
0001
0100
0000
0100
0000
0010
0000
0010
1000
0000
0001
0000
0010
0000
,
1000
0000
0010
0001
0000
0001
0000
0100
0000
0100
0010
0000
1000
0010
1000
0000
,
0001
0000
0100
0010
0000
0010
0000
1000
0000
1000
0001
0000
0100
0000
0010
0000
,
0200
2300
3200
0320
,
0130
0000
0001
1000
0000
1000
0000
0100
0000
0100
0010
0000
0100
0000
1000
0000
,
0001
0000
0100
0010
0000
0010
0000
1000
0000
1000
0001
0000
1000
0100
1000
0000
,
0001
0100
0001
0100
0001
0100
0001
0100
0010
1000
0010
1000
0010
1000
0010
1000
,
0001
1000
0020
0000
1030
0100
0010
0002
,
0000
0000
0000
0003
0000
0000
0000
0000
;

//---------------dance-single - ----------------
#NOTEDATA:;
#CHARTNAME:X-Scale 8;
#STEPSTYPE:dance-single;
#DESCRIPTION:;
#CHARTSTYLE:;
#DIFFICULTY:Medium;
#METER:6;
#RADARVALUES:0.371080,0.460027,0.050734,0.091320,0.344989,256.000000,251.000000,5.000000,9.000000,0.000000,0.000000,0.000000,0.000000,0.000000,0.371080,0.460027,0.050734,0.091320,0.344989,256.000000,251.000000,5.000000,9.000000,0.000000,0.000000,0.000000,0.000000,0.000000;
#CREDIT:;
#NOTES:
0000
0000
0000
0000
,
0000
0000
0000
0000
,
1002
0000
0000
0000
0000
0000
0000
1000
0000
0000
1000
0000
0000
0000
0003
0000
,
0001
0000
0000
0000
0000
0000
0000
0010
0000
0000
0010
0000
0000
0000
0000
0000
,
0100
0000
0000
0000
0000
0000
0000
1000
0000
0000
1000
0000
0000
0000
0000
0000
,
0001
0000
0000
0000
0000
0000
0000
0100
0000
0000
0100
0000
0000
0000
0000
0000
,
0010
0000
0000
0000
0000
0000
0000
1000
0000
0000
1000
0000
0000
0000
0000
0000
,
0001
0000
0000
0000
0000
0000
0000
0010
0000
0000
0010
0000
0000
0000
0000
0000
,
0001
0000
0000
0000
0000
0000
0000
1000
0000
0000
1000
0000
0000
0000
0000
0000
,
0100
0000
0000
0000
0000
0000
0000
0010
0000
0000
0010
0000
0000
0000
0000
0000
,
0001
0000
0000
1000
0000
0001
0000
1000
0000
0000
0000
0000
0010
0000
0100
0000
,
0010
0000
0000
1000
0000
0100
0000
1000
0000
0000
0000
0000
0001
0000
0100
0000
,
0001
0000
0000
0010
0000
0100
0000
0010
0000
0000
0000
0000
0001
0000
0100
0000
,
0001
0000
0000
1000
0000
0100
0000
1000
0000
0000
0000
0000
0010
0000
0100
0000
,
0010
0000
0000
1000
0000
0010
0000
1000
0000
0000
0000
0000
0100
0000
0010
0000
,
0100
0000
0000
1000
0000
0001
0000
1000
0000
0000
0000
0000
0010
0000
0100
0000
,
0010
0000
0000
1000
0000
0001
0000
1000
0000
0000
0000
0000
0100
0000
0010
0000
,
0100
0000
0000
0010
0000
0001
0000
0010
0000
0000
0000
0000
0001
0000
0100
0000
,
0201
0000
0000
0001
0000
0000
0000
1000
0000
0000
0000
0000
0001
0000
0300
0000
,
0001
0000
0100
0000
0020
0000
0000
0001
0000
0000
0000
0000
1000
0000
0030
0000
,
2000
0000
0000
0010
0000
0000
0000
0100
0000
0000
0000
0000
0010
0000
3000
0000
,
1000
0100
0001
0100
,
2000
0000
0000
0001
0000
0000
0000
0100
0000
0000
0000
0000
0001
0000
3000
0000
,
0001
0000
0100
0000
0020
0000
0000
0001
0000
0000
0000
0000
0100
0000
0030
0000
,
0200
0000
0000
0001
0000
0000
0000
1000
0000
0000
0000
0000
0001
0000
0300
0000
,
0001
0000
0000
0100
0000
0001
0000
0100
0000
0000
0000
0000
0010
0000
1000
0000
,
1010
0000
0010
0000
0100
0000
0001
1000
,
0001
0000
0100
0000
0010
0000
1000
0001
,
1000
0000
0100
0000
0010
0000
0001
1000
,
0001
0000
0100
0000
0010
0000
1000
0001
,
1000
0000
0100
0000
0010
0000
0001
1000
,
0001
0000
0100
0000
0010
0000
1000
0001
,
1000
0010
0001
0010
0100
0010
1000
0010
,
0200
0000
0000
0000
0000
0000
0001
0300
,
0101
0000
1000
0000
0001
0000
1000
0100
,
1000
0000
0000
0000
0001
0000
0000
0000
0010
0000
0000
0000
0001
0010
0001
0000
,
1000
0000
0010
0000
0100
0000
0001
0100
,
0001
0000
0010
0000
0100
0000
1000
0100
,
1000
0000
0001
0000
0100
0000
0010
0100
,
0010
0000
0000
0000
1000
0000
0000
0000
0100
0000
0000
0000
0010
0001
0010
0000
,
0001
0000
0100
0000
0010
0000
1000
0001
,
1000
0000
0000
0000
0100
0000
0000
0000
0010
0000
0001
0000
1000
0001
0000
0000
,
1001
0000
0000
0100
0000
1000
0000
0100
0000
0000
0010
0000
0001
0000
1000
0000
,
0001
0000
0000
0100
0000
0010
0000
0100
0000
0000
0001
0000
0010
0001
0010
0000
,
0001
0000
0000
1000
0000
0010
0000
1000
0000
0000
0001
0000
0010
0000
0100
0000
,
1000
0000
0000
0010
0000
1000
0000
0010
0000
0000
0100
0000
0001
0000
1000
0000
,
0001
0000
0000
0010
0000
0100
0000
0010
0000
0000
0001
0000
1000
0000
0100
0000
,
1000
0000
0000
0010
0000
0100
0000
0010
0000
0000
1000
0000
0001
1000
0001
0000
,
1000
0100
0010
0001
1000
0100
0010
0001
,
1000
0010
0001
0010
0100
0010
1000
0020
,
0000
0000
0000
0030
0000
0000
0000
0000
;

//---------------dance-single - ----------------
#NOTEDATA:;
#CHARTNAME:X-Scale 5;
#STEPSTYPE:dance-single;
#DESCRIPTION:;
#CHARTSTYLE:;
#DIFFICULTY:Easy;
#METER:3;
#RADARVALUES:0.275411,0.357799,0.040587,0.273961,0.020293,190.000000,186.000000,4.000000,27.000000,0.000000,0.000000,0.000000,0.000000,0.000000,0.275411,0.357799,0.040587,0.273961,0.020293,190.000000,186.000000,4.000000,27.000000,0.000000,0.000000,0.000000,0.000000,0.000000;
#CREDIT:;
#NOTES:
0000
0000
0000
0000
,
0000
0000
0000
0000
,
1000
0000
0000
0000
0000
0100
0000
0000
,
1000
0000
0000
0000
0000
0001
0000
0000
,
0010
0000
0000
0000
0000
0100
0000
0000
,
0010
0000
0000
0000
0000
0001
0000
0000
,
1000
0000
0000
0000
0000
0100
0000
0000
,
1000
0000
0000
0000
0000
0010
0000
0000
,
0100
0001
2000
3002
,
0023
0230
2300
0000
,
3010
0000
0000
0000
0000
0000
0000
1000
0000
0000
1000
0000
0000
0000
0000
0000
,
0001
0000
0000
0000
0000
0000
0000
0010
0000
0000
0010
0000
0000
0000
0000
0000
,
0100
0000
0000
0000
0000
0000
0000
0010
0000
0000
0010
0000
0000
0000
0000
0000
,
0001
0000
0000
0000
0000
0000
0000
0100
0000
0000
0100
0000
0000
0000
0000
0000
,
0010
0000
1000
0100
0020
0000
0031
0100
,
0020
0000
1030
0002
0000
0100
0000
0000
,
1003
0000
0100
0010
0002
0000
0003
1000
,
0010
0100
0002
0000
0003
0000
0010
0001
,
0021
0000
0000
0000
0000
0000
1000
0030
,
0002
0000
0000
0000
0000
0000
1000
0003
,
0200
0000
0000
0000
0000
0000
0010
0300
,
0010
1000
0001
0010
,
0200
0000
0000
0000
0000
0000
1000
0300
,
2000
0000
0000
0000
0000
0000
0001
3000
,
0002
0000
0000
0000
0000
0000
0100
0003
,
0100
0000
0001
1000
0001
0000
0100
0000
,
1100
0001
1000
0001
,
0100
0000
0010
0000
0100
0000
0010
1000
,
0001
0010
0001
0010
,
0100
0000
1000
0000
0100
0000
1000
0001
,
1000
0000
0100
0000
0010
0000
0001
0100
,
0001
0000
0010
0000
0001
0000
1000
0100
,
0010
0001
0100
0010
1000
0100
0010
0001
,
1000
0000
0000
0001
,
0011
0000
0010
0000
0001
0000
1000
0100
,
1000
0000
0010
0000
0100
0000
0001
0100
,
0001
0000
0010
0000
0100
0000
1000
0100
,
1000
0000
0010
0000
0100
0000
0001
0100
,
0001
0000
0010
0000
0100
0000
1000
0010
,
1000
0000
0100
0000
1000
0000
0001
0010
,
0001
0000
0100
0000
0010
0000
1000
0010
,
1000
0100
0010
0001
,
0012
0000
1000
0000
0010
0000
1000
0003
,
0001
0010
0200
0000
1000
0000
0010
0300
,
2000
0000
0001
0000
0100
0000
0001
3000
,
0200
0320
0032
2003
,
3020
0000
0001
0000
0100
0000
1000
0030
,
1000
0010
0200
0000
1000
0000
0010
0300
,
0002
0000
1000
0000
0010
0000
1000
0003
,
0001
0100
0010
0000
0010
0100
0001
2000
,
0000
0000
0000
3000
0000
0000
0000
0000
;

//---------------dance-single - ----------------
#NOTEDATA:;
#CHARTNAME:X-Scale 1;
#STEPSTYPE:dance-single;
#DESCRIPTION:;
#CHARTSTYLE:;
#DIFFICULTY:Beginner;
#METER:1;
#RADARVALUES:0.107265,0.151440,0.010147,0.000000,0.000000,74.000000,73.000000,1.000000,0.000000,0.000000,0.000000,0.000000,0.000000,0.000000,0.107265,0.151440,0.010147,0.000000,0.000000,74.000000,73.000000,1.000000,0.000000,0.000000,0.000000,0.000000,0.000000,0.000000;
#CREDIT:;
#NOTES:
0000
0000
0000
0000
,
0000
0000
0000
0000
,
1000
0000
0000
0000
,
0100
0000
0000
0000
,
0010
0000
0000
0000
,
0001
0000
0000
0000
,
1000
0000
0000
0000
,
0010
0000
0000
0000
,
0100
0000
0000
0000
,
0001
0000
0000
0000
,
1000
0000
0000
0000
,
0100
0000
0000
0000
,
0010
0000
0000
0000
,
0001
0000
0000
0000
,
1000
0000
0000
0000
,
0010
0000
0000
0000
,
0100
0000
0000
0000
,
0001
0000
0000
0000
,
1000
0000
0000
0000
,
0001
0000
0000
0000
,
1000
0000
0000
0000
,
0001
0000
0010
0000
,
0100
0000
0000
0000
,
1000
0000
0000
0000
,
0100
0000
0000
0000
,
0010
0000
0000
0000
,
0001
0000
0100
0000
,
0001
0000
0100
0000
,
0010
0000
1000
0000
,
0010
0000
1000
0000
,
0001
0000
0010
0000
,
0001
0000
0010
0000
,
0100
0000
1000
0000
,
0001
0000
0000
0000
,
1001
0000
1000
0000
,
0001
0000
1000
0000
,
0001
0000
0010
0000
,
0100
0000
0010
0000
,
0100
0000
1000
0000
,
0001
0000
1000
0000
,
0001
0000
0100
0000
,
0010
0000
0100
0000
,
0010
0000
1000
0000
,
0001
0000
1000
0000
,
0001
0000
0010
0000
,
0100
0000
0010
0000
,
0100
0000
1000
0000
,
0001
0000
1000
0000
,
0001
0000
0100
0000
,
0010
0000
0100
0100
;

//---------------dance-single - ----------------
#NOTEDATA:;
#CHARTNAME:Original Heavy Chart;
#STEPSTYPE:dance-single;
#DESCRIPTION:;
#CHARTSTYLE:;
#DIFFICULTY:Edit;
#METER:8;
#RADARVALUES:0.495740,0.638926,0.030440,0.324695,0.542850,342.000000,339.000000,3.000000,32.000000,0.000000,0.000000,0.000000,0.000000,0.000000,0.495740,0.638926,0.030440,0.324695,0.542850,342.000000,339.000000,3.000000,32.000000,0.000000,0.000000,0.000000,0.000000,0.000000;
#CREDIT:;
#NOTES:
// measure 0
0000
0000
0000
0000
,  // measure 1
0000
0000
0000
0000
,  // measure 2
1100
0000
0000
0000
0000
0000
0000
0000
0001
0000
0000
0010
0000
0000
0001
0000
,  // measure 3
1000
0000
0000
0100
0000
0000
1000
0000
0010
0000
0000
0010
0000
0000
0000
0000
,  // measure 4
0100
0000
0000
0000
0000
0000
0000
0000
0001
0000
0000
0100
0000
0000
0001
0000
,  // measure 5
1000
0000
0000
0010
0000
0000
1000
0000
0100
0000
0000
0100
0000
0000
0000
0000
,  // measure 6
0010
0000
0001
0000
0000
0000
0000
1000
0000
0000
1000
0000
0000
0000
0001
0000
,  // measure 7
0010
0000
0000
0000
0001
0000
1000
0001
0000
0000
0001
0000
0000
0000
0000
0000
,  // measure 8
1000
0000
0000
0000
0100
0000
0000
1000
0020
0000
0000
0000
0230
0000
0000
0000
,  // measure 9
2300
3200
0302
1000
,  // measure 10
1003
0000
0000
0100
0000
0100
0000
0010
0000
0000
0001
0000
1000
0000
1000
0000
,  // measure 11
0010
0000
0000
0100
0000
0100
0000
0001
0000
0000
1000
0000
0100
0000
0100
0000
,  // measure 12
0010
0000
0000
0001
0000
0001
0000
1000
0000
0000
0010
0000
1000
0000
1000
0000
,  // measure 13
0100
0000
0000
0010
0000
0010
0000
0100
0000
0000
1000
0000
0001
0000
0001
0000
,  // measure 14
0100
0010
0001
0010
2000
0000
3001
0010
,  // measure 15
0200
0000
0000
0000
0310
0000
0002
1000
0000
0000
1000
0000
0100
0000
0103
0000
,  // measure 16
0001
0000
0000
0010
0001
0000
0100
0000
0001
0000
0000
1000
0100
0000
0100
0000
,  // measure 17
1000
0000
0001
0000
1000
0000
0000
0000
0010
0000
0100
0000
0001
0100
0000
0000
,  // measure 18
0201
0000
0000
0001
0000
0001
0000
1000
0000
0000
0000
0000
0010
0000
0310
0000
,  // measure 19
0020
0000
0000
0001
0000
0001
0000
1000
0000
0000
0000
0000
0100
0000
0130
0000
,  // measure 20
0200
0000
0000
1000
0000
1000
0000
0001
0000
0000
0000
0000
0010
0000
0310
0000
,  // measure 21
0020
2030
3002
0023
,  // measure 22
0230
0000
0000
0010
0000
0010
0000
0001
0000
0000
0000
0000
1000
0000
1300
0000
,  // measure 23
2000
0000
0000
0100
0000
0100
0000
0010
0000
0000
0000
0000
0001
0000
3001
0000
,  // measure 24
0002
0000
0000
1000
0000
1000
0000
0010
0000
0000
0000
0000
0100
0000
0103
0000
,  // measure 25
0100
0000
0000
0001
0000
0001
0000
1000
0000
1000
0010
0000
0100
0000
0010
0000
,  // measure 26
0100
0020
0001
0000
1000
0030
0010
0100
,  // measure 27
1000
0200
0001
0000
1000
0000
0301
0100
,  // measure 28
0010
2000
0001
0000
0100
0000
3001
1000
,  // measure 29
0100
0020
0001
0000
1000
0000
0031
0000
,  // measure 30
1000
0100
0010
0001
1000
0100
0010
0001
,  // measure 31
1000
0100
0010
0001
1000
0100
0010
0001
,  // measure 32
1000
0100
1000
0100
1000
0100
1000
0100
0010
0001
0010
0001
0010
0001
0010
0001
,  // measure 33
2000
0000
0000
0000
0000
0001
0001
0010
,  // measure 34
3010
0000
1000
0001
0000
0001
0000
0100
0000
0100
0010
0000
1000
0000
1000
0000
,  // measure 35
0001
0000
0001
0010
0000
0010
0000
0001
0000
0001
0100
0000
0010
0100
0010
0000
,  // measure 36
1000
0000
0001
1000
0000
1000
0000
0100
0000
0100
0010
0000
0001
0000
0001
0000
,  // measure 37
1000
0000
0100
1000
0000
1000
0000
0010
0000
0010
0100
0000
0001
0000
0001
0000
,  // measure 38
1000
0000
0100
1000
0000
1000
0000
0100
0000
0100
0010
0000
0001
0000
0001
0000
,  // measure 39
0100
0000
0001
0100
0000
0100
0000
0010
0000
0010
1000
0000
0001
1000
0001
0000
,  // measure 40
0100
0000
0010
0100
0000
0100
0000
0001
0000
0001
1000
0000
0100
0000
0100
0000
,  // measure 41
0010
0000
0001
0100
0000
0100
0000
0001
0000
0001
1000
0000
0010
1000
0000
0000
,  // measure 42
2001
0000
0000
0100
0000
0100
0000
0010
0000
0000
0010
0000
0001
0000
3001
0000
,  // measure 43
0002
0000
0000
1000
0000
1000
0000
0100
0000
0000
0100
0000
0010
0000
0013
0000
,  // measure 44
0020
0000
0000
0001
0000
0001
0000
1000
0000
0000
1000
0000
0100
0000
0130
0000
,  // measure 45
0200
2300
3020
0230
,  // measure 46
0301
0100
0010
1000
0001
0100
0010
1000
,  // measure 47
0001
0100
0010
1000
0001
0100
0010
1000
,  // measure 48
0001
0100
0001
0100
0001
0100
0001
0100
0010
1000
0010
1000
0010
1000
0010
1000
,  // measure 49
0001
1000
0020
0000
1030
0100
0010
0002
,  // measure 50
0000
0000
0000
0003
0000
0000
0000
0000
;
