#VERSION:0.83;
#TITLE:風になれ;
#SUBTITLE:;
#ARTIST:中村あゆみ;
#TITLETRANSLIT:Kaze Ni Nare;
#SUBTITLETRANSLIT:;
#ARTISTTRANSLIT:Ayumi Nakamura;
#GENRE:Rock;
#ORIGIN:;
#CREDIT:;
#BANNER:Kaze Ni Nare-bn.png;
#BACKGROUND:Kaze Ni Nare-bg.png;
#PREVIEWVID:;
#JACKET:Kaze Ni Nare-jacket.png;
#CDIMAGE:;
#DISCIMAGE:;
#LYRICSPATH:;
#CDTITLE:cdtitle.png;
#MUSIC:Kaze Ni Nare.ogg;
#OFFSET:-0.260000;
#SAMPLESTART:76.900002;
#SAMPLELENGTH:23.000000;
#SELECTABLE:YES;
#BPMS:0.000=128.000;
#STOPS:;
#DELAYS:;
#WARPS:;
#TIMESIGNATURES:0.000=4=4;
#TICKCOUNTS:0.000=4;
#COMBOS:0.000=1;
#SPEEDS:0.000=1.000=0.000=0;
#SCROLLS:0.000=1.000;
#FAKES:;
#LABELS:0.000=Song Start;
#BGCHANGES:;
#KEYSOUNDS:;
#ATTACKS:
;

//---------------dance-single - ----------------
#NOTEDATA:;
#CHARTNAME:X-Scale 11;
#STEPSTYPE:dance-single;
#DESCRIPTION:;
#CHARTSTYLE:;
#DIFFICULTY:Hard;
#METER:8;
#RADARVALUES:0.474194,0.611712,0.173047,0.353960,0.173047,422.000000,400.000000,22.000000,45.000000,0.000000,0.000000,0.000000,0.000000,0.000000,0.474194,0.611712,0.173047,0.353960,0.173047,422.000000,400.000000,22.000000,45.000000,0.000000,0.000000,0.000000,0.000000,0.000000;
#CREDIT:;
#NOTES:
// measure 0
0000
0000
0000
0000
,  // measure 1
0000
0000
0000
0000
,  // measure 2
0000
0000
0000
0000
,  // measure 3
0000
0000
0000
0000
,  // measure 4
0000
0000
0000
0000
,  // measure 5
0000
0000
0000
0000
0000
0000
0000
0000
0000
1000
0100
0010
,  // measure 6
0001
0100
0010
1000
0100
0010
0001
0100
0010
1000
0100
0010
,  // measure 7
0001
0000
0000
0000
0100
0000
0000
0000
0010
0000
0000
0000
2000
0000
0000
0010
0000
0000
0000
0000
0000
0000
0000
0000
0000
0000
0000
0000
0000
0000
0000
0000
0000
0000
0000
0000
0000
0000
0000
0000
0000
0000
0000
0000
0000
0000
0000
0000
,  // measure 8
0000
0000
3001
1000
1000
0100
0010
0200
,  // measure 9
0300
0100
1000
1000
0001
0020
0030
0001
,  // measure 10
0100
0010
2000
0000
3100
2000
0000
3001
,  // measure 11
2000
0000
3100
1000
0001
0010
0000
0100
,  // measure 12
0010
0000
0001
0010
1000
0010
0100
2000
,  // measure 13
3000
0001
1000
0010
1000
0200
0300
0010
,  // measure 14
0100
1000
0002
0000
0013
0002
0000
1000
,  // measure 15
1000
0100
0203
0300
0101
0000
1100
0000
,  // measure 16
0101
2001
0010
3001
,  // measure 17
0120
0000
0000
0000
,  // measure 18
0000
0000
0000
0000
1030
0000
0010
0100
0020
0000
0030
0000
0110
0000
0000
1001
,  // measure 19
0000
0000
0110
0000
0000
0000
1000
0100
2000
0000
3000
0000
1010
0000
0000
0011
,  // measure 20
0000
0000
1001
0000
0000
0000
0001
0100
0001
0000
0000
0010
0001
0000
0000
1000
,  // measure 21
0010
1000
0010
1000
0010
0000
0000
0000
0100
0000
0001
0000
1000
0000
0000
0000
,  // measure 22
0010
0100
1000
0000
1000
0100
0010
0000
,  // measure 23
1000
0001
0100
0000
0001
0010
0100
0000
,  // measure 24
0100
0000
0000
0000
0000
0000
0010
0000
0000
0000
0000
0000
0002
0000
0000
0000
0000
0000
0000
0000
0000
0000
0000
0000
0000
0000
0000
0000
0000
0000
1003
0000
0000
0001
0000
0000
1000
0000
0000
0000
0000
0000
0000
0000
0100
0000
0000
0000
,  // measure 25
0000
0000
0010
0000
0000
0000
0011
0000
0000
0001
0000
0000
0010
0000
0000
0100
0000
0000
1000
0000
0000
0001
0000
0000
,  // measure 26
1000
0100
0010
0001
0100
0010
1000
0001
,  // measure 27
1000
0100
0020
0000
0031
0020
0000
1030
,  // measure 28
0020
0000
0031
0010
0100
0010
0001
1000
,  // measure 29
0010
0100
0001
1000
0001
0010
0100
1000
,  // measure 30
0010
0100
0001
0100
1000
0100
0001
0010
,  // measure 31
0100
1000
0020
0000
0031
0020
0030
1000
,  // measure 32
0010
0100
0001
0001
0010
0010
0000
0200
,  // measure 33
1000
0000
1300
0100
0001
0100
0010
0001
,  // measure 34
1000
0010
0100
0001
0010
0100
1000
0001
,  // measure 35
1000
0010
0200
0000
0301
0100
0001
0010
,  // measure 36
0100
1000
0020
0000
1030
0200
0000
0300
,  // measure 37
0010
0001
2000
0000
3010
2000
0000
3001
,  // measure 38
1000
0100
0020
0000
1030
0020
0030
0001
,  // measure 39
0010
0001
0200
0000
1300
0200
0000
0301
,  // measure 40
0200
0000
0310
0010
1000
1000
0000
0001
,  // measure 41
1000
0000
0100
0000
0001
0000
0000
0000
1000
0000
0010
0000
0001
0000
0000
0100
,  // measure 42
0000
0001
0010
0100
0010
0001
0000
1000
,  // measure 43
0100
0000
0100
0000
0010
0000
0001
0000
0000
0000
1000
0000
0100
0000
0000
1000
,  // measure 44
0000
0010
1000
0001
0010
0001
0000
1000
,  // measure 45
0010
0100
0001
0000
0100
0002
0000
0010
,  // measure 46
0013
0000
0001
0000
1000
0000
0000
0010
0000
0000
0100
0000
0010
0000
0000
0001
,  // measure 47
0000
0010
0200
0000
1000
1000
0000
0000
,  // measure 48
0301
0000
0100
0000
0001
0000
0000
0010
0000
0000
0100
0000
0100
0000
0010
0000
,  // measure 49
0001
0000
1000
0000
0010
0000
0000
1000
0000
0000
0200
0000
0010
0000
0000
0000
,  // measure 50
1000
0000
0310
0100
1000
0001
0100
0001
,  // measure 51
0010
0100
1000
0000
0001
0001
0100
0100
,  // measure 52
0001
0100
0001
0100
0001
0000
0000
0000
0010
0000
0000
0000
0100
0000
1000
0010
,  // measure 53
1000
0000
1010
0010
0100
0001
0010
0100
,  // measure 54
1000
0001
0200
0000
0301
0200
0000
0000
,  // measure 55
0010
0300
0100
0001
1000
0100
0001
0100
,  // measure 56
1000
0000
0010
0000
0100
0000
0000
0010
0000
0000
1000
0000
0001
0000
0001
0000
,  // measure 57
0100
0010
0110
0100
1000
0100
0001
0010
,  // measure 58
0100
1000
0002
0000
0013
0002
0000
0000
,  // measure 59
0100
0003
0001
0010
1000
0010
0100
1000
,  // measure 60
0001
1000
1001
0001
0010
0010
0100
0100
,  // measure 61
1000
1000
1100
0100
0010
0200
0000
0300
,  // measure 62
1000
0000
0001
1000
0001
0000
0010
0000
0100
0000
2000
0000
0000
0000
3000
0000
,  // measure 63
0001
0000
1000
0000
0010
0000
0100
0000
0010
0000
1000
0010
1000
0000
0001
0100
,  // measure 64
0001
0100
0001
0100
0001
0000
0100
0010
0200
0000
0000
0300
0110
0000
0000
1001
,  // measure 65
0000
0000
0110
0000
0000
0000
1000
0100
2000
0000
0000
3000
1100
0000
0000
0101
,  // measure 66
0000
2002
0000
0000
0000
0000
0000
0000
,  // measure 67
0000
0000
0000
0000
0000
3003
0000
0000
;

//---------------dance-single - ----------------
#NOTEDATA:;
#CHARTNAME:X-Scale 8;
#STEPSTYPE:dance-single;
#DESCRIPTION:;
#CHARTSTYLE:;
#DIFFICULTY:Medium;
#METER:6;
#RADARVALUES:0.397784,0.478731,0.149450,0.125852,0.070792,354.000000,335.000000,19.000000,16.000000,0.000000,0.000000,0.000000,0.000000,0.000000,0.397784,0.478731,0.149450,0.125852,0.070792,354.000000,335.000000,19.000000,16.000000,0.000000,0.000000,0.000000,0.000000,0.000000;
#CREDIT:;
#NOTES:
// measure 0
0000
0000
0000
0000
,  // measure 1
0000
0000
0000
0000
,  // measure 2
0000
0000
0000
0000
,  // measure 3
0000
0000
0000
0000
,  // measure 4
0000
0000
0000
0000
,  // measure 5
0000
0000
0000
0000
0000
0000
0000
0000
0000
0001
0000
0001
,  // measure 6
0100
0000
0100
0010
0000
0010
1000
0000
1000
0100
0000
0100
,  // measure 7
0010
0000
0010
0002
0000
0000
0000
0000
0000
0000
0000
0000
,  // measure 8
0000
0000
1003
0001
1000
0001
0010
0100
,  // measure 9
0000
1000
0010
0001
0010
1000
0000
0100
,  // measure 10
0010
0100
0010
0000
0001
0100
0000
0010
,  // measure 11
1000
0000
0010
1000
0001
0010
0000
0001
,  // measure 12
0100
0000
0001
1000
0100
0010
0001
1000
,  // measure 13
0000
0001
0100
1000
0100
0001
0000
1000
,  // measure 14
0010
1000
0001
0000
0010
0100
0000
0010
,  // measure 15
0001
1000
1001
0110
,  // measure 16
2001
0020
0000
3030
,  // measure 17
0012
0000
0000
0000
,  // measure 18
0000
0000
0000
0000
0103
0000
0000
0000
0001
0000
0000
0000
0101
0000
0000
1100
,  // measure 19
0000
0000
0101
0000
0000
0000
1000
0000
0100
0000
0000
0000
1100
0000
0000
0101
,  // measure 20
0000
1100
0000
0001
0100
0000
0002
0000
,  // measure 21
0100
0100
0103
0000
0001
1000
0001
0000
,  // measure 22
1000
0000
0100
0000
0010
0100
1000
0000
,  // measure 23
0001
0000
1000
0000
0010
0100
0001
0000
,  // measure 24
0100
0000
0000
0000
0002
0000
0000
0000
0000
0000
0100
0000
0103
0000
0000
1100
,  // measure 25
0000
0101
0001
0000
1000
0000
0001
0100
,  // measure 26
0001
0000
1000
0000
0100
0000
1000
0010
,  // measure 27
1000
0000
0001
0000
0100
0001
0000
0010
,  // measure 28
0001
0000
0100
0001
0010
0100
0010
0100
,  // measure 29
1000
0000
0010
1000
0002
0000
1003
0100
,  // measure 30
0010
0001
1000
0010
0100
0002
0000
0003
,  // measure 31
1000
0001
0010
0000
0001
0100
0000
0010
,  // measure 32
0100
0001
1000
0000
0100
0020
0000
0000
,  // measure 33
0030
0000
0001
0100
0000
0001
0100
0010
,  // measure 34
1000
0100
1000
0010
1000
0100
0000
0010
,  // measure 35
0001
0100
0001
0000
1000
0100
0001
0100
,  // measure 36
1000
0010
1000
0000
0001
0100
0001
0000
,  // measure 37
0010
0100
1000
0000
0001
1000
0100
1000
,  // measure 38
0010
0100
0001
0000
1000
0010
0100
0010
,  // measure 39
1000
0001
1000
0000
0100
0010
0000
0001
,  // measure 40
0100
0000
0001
0010
0100
1000
0000
0001
,  // measure 41
1000
0000
0001
0000
1001
0000
0000
0000
1000
0000
0100
0000
0010
0000
0000
0001
,  // measure 42
0000
0100
0001
0010
0001
1000
0000
0010
,  // measure 43
0100
0000
1000
0000
0100
0000
0010
0000
0000
0000
1000
0000
0001
0000
0000
0010
,  // measure 44
0000
0001
0100
0000
0010
1000
0000
0000
,  // measure 45
0002
0000
1003
0000
0001
2000
0000
0000
,  // measure 46
0010
0000
3000
0000
1000
0000
0000
0100
0000
0000
0100
0000
0010
0000
0000
0001
,  // measure 47
0000
0100
0001
0000
1000
0002
0000
0000
,  // measure 48
0100
0000
0003
0000
0100
0000
0000
0001
0000
0000
1000
0000
0001
0000
0010
0000
,  // measure 49
1000
0000
0010
0000
0001
0000
0000
0100
0000
0000
0001
0000
0000
0000
0000
0000
,  // measure 50
0010
0000
0100
1000
0010
1000
0100
0010
,  // measure 51
0001
0100
0001
0000
1000
0000
0001
0000
,  // measure 52
1000
1001
1000
0100
,  // measure 53
0010
0001
0010
0000
0001
0000
0100
0000
,  // measure 54
0010
1000
0010
0000
1000
0100
0000
0010
,  // measure 55
0001
0000
1000
0010
0100
0001
1000
0100
,  // measure 56
0010
0000
0001
0000
1000
0000
0000
0001
0000
0000
1000
0000
0010
0000
0010
0000
,  // measure 57
0100
0001
1000
0000
0010
0000
1000
0000
,  // measure 58
0100
0010
0001
0000
1000
0001
0000
0100
,  // measure 59
0010
0000
1000
0001
0010
0100
1000
0001
,  // measure 60
1000
0100
1000
0010
1000
0010
0100
0001
,  // measure 61
0100
0001
1001
0000
0100
1000
0100
0000
,  // measure 62
1000
0000
0001
0000
0010
0001
0010
0000
,  // measure 63
0001
0000
0100
0010
0100
0000
0010
0000
,  // measure 64
1000
0000
0000
0000
0001
0000
0000
0000
2000
0000
0000
0000
3100
0000
0000
1100
,  // measure 65
0000
0000
1001
0000
0000
0000
0000
0000
0002
0000
0000
0000
0013
0000
0000
0011
,  // measure 66
0000
2002
0000
0000
0000
0000
0000
0000
,  // measure 67
0000
0000
0000
0000
0000
3003
0000
0000
;

//---------------dance-single - ----------------
#NOTEDATA:;
#CHARTNAME:X-Scale 5;
#STEPSTYPE:dance-single;
#DESCRIPTION:;
#CHARTSTYLE:;
#DIFFICULTY:Easy;
#METER:3;
#RADARVALUES:0.276426,0.345750,0.055060,0.385423,0.000000,246.000000,239.000000,7.000000,49.000000,0.000000,0.000000,0.000000,0.000000,0.000000,0.276426,0.345750,0.055060,0.385423,0.000000,246.000000,239.000000,7.000000,49.000000,0.000000,0.000000,0.000000,0.000000,0.000000;
#CREDIT:;
#NOTES:
// measure 0
0000
0000
0000
0000
,  // measure 1
0000
0000
0000
0000
,  // measure 2
0000
0000
0000
0000
,  // measure 3
0000
0000
0000
0000
,  // measure 4
0000
0000
0000
0000
,  // measure 5
0000
0000
0000
1000
,  // measure 6
0100
0010
0001
1000
,  // measure 7
0001
2000
0000
0000
,  // measure 8
0000
0000
3001
0000
0000
1000
0000
0000
,  // measure 9
0001
0000
1000
0000
0000
0100
0000
0000
,  // measure 10
1000
0000
0001
0000
0000
0100
0000
0000
,  // measure 11
0001
0000
0010
0000
0000
0100
0000
0000
,  // measure 12
1000
0000
0001
0000
0000
0100
0000
0000
,  // measure 13
0001
0000
1000
0000
0000
0010
0000
0000
,  // measure 14
1000
0000
0001
0000
0000
0100
0000
0000
,  // measure 15
0001
2000
3100
1000
,  // measure 16
0001
0201
0000
0310
,  // measure 17
2010
0000
0000
0000
,  // measure 18
0000
0001
0000
0010
,  // measure 19
0000
0010
0000
0000
3010
0000
1000
0000
,  // measure 20
0000
0010
0000
0000
1000
0000
0002
0000
,  // measure 21
0000
0000
0013
0000
0001
0100
0000
0001
,  // measure 22
1000
0000
1000
0000
0010
0100
0000
0001
,  // measure 23
0100
0000
0100
0000
0010
1000
0000
0001
,  // measure 24
1000
0002
0000
0013
,  // measure 25
0000
0011
0001
0100
,  // measure 26
0001
1000
0010
0100
,  // measure 27
0001
0000
2000
0000
3001
2000
0000
3001
,  // measure 28
2000
3100
0010
0001
,  // measure 29
1000
0001
1000
0000
0010
0000
0100
0000
,  // measure 30
0001
1000
0001
1000
,  // measure 31
0100
0010
0002
0000
0003
0002
0003
1000
,  // measure 32
0001
1000
0020
0030
0100
0020
0000
2000
,  // measure 33
0030
3001
1000
0001
,  // measure 34
1000
0010
0100
0010
,  // measure 35
0100
0001
0010
0001
,  // measure 36
0010
0100
2000
0000
0001
3000
1000
0000
,  // measure 37
0010
0000
0200
0000
0301
0200
0000
0300
,  // measure 38
0010
1000
0002
0000
0103
0002
0000
0013
,  // measure 39
0001
1000
0020
0000
0130
0020
0000
0130
,  // measure 40
0020
0000
1030
0000
0010
2000
0000
0000
,  // measure 41
0001
0000
3001
0000
1000
0100
0010
0000
,  // measure 42
0001
1000
0001
0100
,  // measure 43
0010
0000
1000
0010
1000
0000
0001
0000
,  // measure 44
0010
0001
0100
0010
,  // measure 45
1000
1000
2000
0000
3001
2000
0000
0000
,  // measure 46
3100
0000
0010
0000
0001
0000
1000
0001
,  // measure 47
1000
0000
0020
0000
0130
0020
0000
0000
,  // measure 48
1030
0001
0100
0010
,  // measure 49
1000
0100
0020
0000
0030
0002
0000
0003
,  // measure 50
2000
3001
1000
0100
,  // measure 51
1000
0001
0010
0100
,  // measure 52
0010
0011
0000
0000
,  // measure 53
2000
3100
1000
0001
,  // measure 54
1000
0100
0020
0000
0031
0020
0000
0000
,  // measure 55
0230
1300
0001
1000
,  // measure 56
0100
0010
0100
0000
1000
0000
0001
0100
,  // measure 57
0001
0010
0100
0010
,  // measure 58
0001
1000
0020
0000
0130
0020
0000
0000
,  // measure 59
2030
3001
1000
0100
,  // measure 60
0010
0001
1000
0001
,  // measure 61
1000
0100
2100
0000
3001
2000
0000
0000
,  // measure 62
3100
0000
0020
0000
0031
0020
0000
0000
,  // measure 63
0130
0000
2000
0000
3001
2000
0000
0000
,  // measure 64
3200
0320
0032
0013
,  // measure 65
0000
0011
0000
0000
2000
0000
3100
0000
,  // measure 66
0000
2200
0000
0000
0000
0000
0000
0000
,  // measure 67
0000
0000
0000
0000
0000
3300
0000
0000
;

//---------------dance-single - ----------------
#NOTEDATA:;
#CHARTNAME:X-Scale 2;
#STEPSTYPE:dance-single;
#DESCRIPTION:;
#CHARTSTYLE:;
#DIFFICULTY:Beginner;
#METER:2;
#RADARVALUES:0.117987,0.208050,0.023597,0.000000,0.000000,105.000000,102.000000,3.000000,0.000000,0.000000,0.000000,0.000000,0.000000,0.000000,0.117987,0.208050,0.023597,0.000000,0.000000,105.000000,102.000000,3.000000,0.000000,0.000000,0.000000,0.000000,0.000000,0.000000;
#CREDIT:;
#NOTES:
// measure 0
0000
0000
0000
0000
,  // measure 1
0000
0000
0000
0000
,  // measure 2
0000
0000
0000
0000
,  // measure 3
0000
0000
0000
0000
,  // measure 4
0000
0000
0000
0000
,  // measure 5
0000
0000
0000
0000
,  // measure 6
0000
0000
0000
0000
,  // measure 7
0000
0000
0000
0000
,  // measure 8
0000
0001
0000
0000
,  // measure 9
0000
0010
0000
0000
,  // measure 10
0000
0100
0000
0000
,  // measure 11
0000
1000
0000
0000
,  // measure 12
0000
0001
0000
0000
,  // measure 13
0000
0100
0000
0000
,  // measure 14
0000
0010
0000
0000
,  // measure 15
0000
1000
0000
0000
,  // measure 16
0000
1001
0000
0000
,  // measure 17
0110
0000
0000
0000
,  // measure 18
0000
1000
0000
0001
,  // measure 19
0000
0001
0000
0000
0000
0000
1000
0000
,  // measure 20
0000
1000
0000
0000
0000
0000
0000
0000
,  // measure 21
0000
1000
0000
0000
,  // measure 22
0000
0100
0000
0000
,  // measure 23
0000
0010
0000
0000
,  // measure 24
0000
0001
0000
0000
,  // measure 25
0000
0000
0001
0000
,  // measure 26
1000
0000
0001
0000
,  // measure 27
1000
0000
0100
0000
,  // measure 28
0010
0000
0100
0000
,  // measure 29
0010
0000
0001
0000
,  // measure 30
0100
0000
0001
0000
,  // measure 31
0100
0000
0010
0000
,  // measure 32
1000
0000
0010
0000
,  // measure 33
1000
0000
0001
0000
,  // measure 34
0010
0000
0001
0000
,  // measure 35
0010
0000
0100
0000
,  // measure 36
1000
0000
0100
0000
,  // measure 37
1000
0000
0010
0000
,  // measure 38
0100
0000
0010
0000
,  // measure 39
0100
0000
0001
0000
,  // measure 40
1000
0000
1000
0000
0000
0001
0000
0000
,  // measure 41
1000
0000
0100
0000
,  // measure 42
0010
0000
0001
0000
,  // measure 43
1000
0000
0010
0000
,  // measure 44
0100
0000
0001
0000
,  // measure 45
1000
1000
0000
0001
,  // measure 46
0000
1000
0000
0100
,  // measure 47
0000
1000
0000
0010
,  // measure 48
0000
0100
0000
0010
,  // measure 49
0000
0000
1000
0000
0000
0100
0000
0000
,  // measure 50
1000
0000
1000
0000
0000
0010
0000
0000
,  // measure 51
0100
0000
0100
0000
0000
0001
0000
0000
,  // measure 52
1000
1001
0000
0000
,  // measure 53
0000
0010
0000
0001
,  // measure 54
0000
1000
0000
0001
,  // measure 55
0000
0100
0000
0001
,  // measure 56
0000
1000
0000
0001
,  // measure 57
0000
0100
0000
0010
,  // measure 58
0000
1000
0000
0100
,  // measure 59
0000
1000
0000
0001
,  // measure 60
0000
1000
0000
0100
,  // measure 61
0000
0010
0000
0000
,  // measure 62
0000
0001
0000
0000
,  // measure 63
0000
1000
0000
0000
,  // measure 64
0000
0001
0000
1000
,  // measure 65
0000
1000
0000
0000
0000
0000
0001
0000
,  // measure 66
0000
0001
0000
0000
0000
0000
0000
0000
;
