#TITLE:Kammy (like i do);
#SUBTITLE:;
#ARTIST:Fred again..;
#TITLETRANSLIT:;
#SUBTITLETRANSLIT:;
#ARTISTTRANSLIT:;
#GENRE:UK Garage;
#CREDIT:;
#BANNER:Kammy (like i do)-bn.png;
#BACKGROUND:Kammy (like i do)-bg.png;
#LYRICSPATH:;
#CDTITLE:cdtitle.png;
#MUSIC:Kammy (like i do).ogg;
#OFFSET:-0.005000;
#SAMPLESTART:14.550000;
#SAMPLELENGTH:14.545000;
#SELECTABLE:YES;
#BPMS:0.000000=132.000000
;
#STOPS:
;
#BGCHANGES:0.833=Kammy (like i do).avi=1.000=0=0=0=StretchNoLoop====,
256.000=Kammy (like i do)-bg.png=1.000=1=0=1===CrossFade==,
99999=-nosongbg-=1.000=0=0=0 // don't automatically add -songbackground-
;
#KEYSOUNDS:;
#ATTACKS:;

//---------------dance-single - ----------------
#NOTES:
     dance-single:
     X-Scale 1:
     Beginner:
     1:
     0.103226,0.130866,0.000000,0.000000,0.000000,88.000000,88.000000,0.000000,0.000000,0.000000,0.000000,0.103226,0.130866,0.000000,0.000000,0.000000,88.000000,88.000000,0.000000,0.000000,0.000000,0.000000:
0000
0000
0000
0000
,
0000
0000
0000
0000
,
0000
0000
0000
0000
,
0000
0000
0000
0000
,
1000
0000
0000
0000
,
0001
0000
0000
0000
,
1000
0000
0000
0000
,
0000
0000
0000
0000
,
0000
0001
0000
1000
,
0000
0001
0000
1000
,
0000
0100
0000
0010
,
0000
0100
0000
0010
,
0000
0001
0000
0100
,
0000
0001
0000
0100
,
0000
0010
0000
1000
,
0000
0010
0000
1000
,
0000
0000
0000
0000
,
0000
0000
0000
0000
,
1000
0000
0000
0000
,
0000
0000
0000
0000
,
0000
0001
0000
1000
,
0000
0010
0000
1000
,
0000
0001
0000
1000
,
0000
0100
0000
0010
,
0010
0000
0000
0000
,
1000
0000
0000
0000
,
0001
0000
0000
0000
,
0010
0000
0000
0000
,
0001
0000
0000
0000
,
1000
0000
0000
0000
,
0100
0000
0000
0000
,
0010
0000
0000
0000
,
0000
0001
0000
1000
,
0000
0001
0000
0100
,
0000
0001
0000
1000
,
0000
0100
0000
0010
,
0000
0001
0000
0010
,
0000
0100
0000
1000
,
0000
0001
0000
1000
,
0000
0000
0000
0000
,
0001
0000
0000
0000
,
0100
0000
0000
0000
,
0001
0000
0000
0000
,
1000
0000
0000
0000
,
0010
0000
0000
0000
,
1000
0000
0000
0000
,
0001
0000
0000
0000
,
0010
0000
0000
0000
,
0000
0100
0000
0010
,
0000
0001
0000
1000
,
0000
0001
0000
0100
,
0000
0001
0000
1000
,
0000
0010
0000
0100
,
0000
0001
0000
0010
,
0000
0100
0000
1000
,
0000
0000
0000
0000
,
0000
0001
0000
0100
,
0000
0001
0000
0010
,
0000
0100
0000
0010
,
0000
0001
0000
1000
,
0000
0001
0000
0100
,
0000
0010
0000
1000
,
0000
0100
0000
0010
,
0000
0100
0000
1000
;

//---------------dance-single - ----------------
#NOTES:
     dance-single:
     X-Scale 5:
     Easy:
     3:
     0.283873,0.346923,0.032845,0.197069,0.000000,242.000000,238.000000,4.000000,24.000000,0.000000,0.000000,0.283873,0.346923,0.032845,0.197069,0.000000,242.000000,238.000000,4.000000,24.000000,0.000000,0.000000:
0000
0000
0000
0000
,
0000
0000
0000
0000
,
0000
0000
0000
0000
,
0000
0000
0000
0000
,
0000
0001
0000
0100
,
0000
0001
0000
1000
,
0000
0001
0000
0000
,
0000
0000
0000
0000
,
1001
0000
1000
0000
0010
0000
1000
0100
,
0020
0000
0030
0020
0000
0030
0001
0000
,
0100
0000
0001
0000
1000
0000
0010
0100
,
0020
0000
0030
0020
0000
0030
1000
0000
,
0001
0000
0100
0000
0001
0000
1000
0100
,
0020
0000
0030
0020
0000
0030
0001
0000
,
0100
0000
0001
0000
0010
0000
0100
1000
,
0020
0000
0030
0020
0000
0030
1000
0000
,
0001
0010
0000
0010
,
0000
0100
0000
0100
,
0000
1000
0000
1000
,
0000
0001
0001
1000
,
1001
0000
0001
0000
1000
0000
0010
0100
,
0020
1030
0001
0100
,
0001
0000
0010
0000
0100
0000
1000
0100
,
0020
0000
0030
0020
0000
0030
0001
0000
,
0100
0000
0001
0000
0000
1000
0001
0000
,
0010
0000
0100
0000
0000
1000
0010
0000
,
1000
0000
0001
0000
0000
0100
0001
0000
,
0010
0000
0100
0000
0000
0010
0001
0000
,
1000
0000
0010
0000
0000
0100
0010
0000
,
1000
0000
0001
0000
0000
0010
0100
0000
,
1000
0000
0001
0000
0000
0100
0001
0000
,
1000
0000
0010
0000
0000
0100
0010
0000
,
0110
0000
0100
0000
0001
0010
0100
0000
,
1000
0000
0001
0000
0100
0001
1000
0000
,
0010
0000
1000
0000
0001
0010
0100
0000
,
0010
0000
0001
0000
1000
0001
0100
0000
,
0010
0000
1000
0000
0000
0001
1000
0000
,
0100
0000
0010
0000
0000
0001
0010
0000
,
0001
0000
0100
0000
0000
0001
1000
0000
,
0200
0300
0000
0000
,
0002
1000
0000
1000
,
0000
0100
0000
0100
,
0203
0001
0000
0001
,
0000
0010
0000
0010
,
0320
0100
0000
0100
,
0000
1000
0000
1000
,
2030
0010
0000
0010
,
0000
0001
0000
0001
,
3001
0000
1000
0000
0001
0000
0010
0100
,
2000
0000
3001
2000
0000
3100
0020
0000
,
0031
0000
1000
0000
0010
0000
1000
0100
,
0020
0000
0031
0020
0000
0130
2000
0000
,
3001
0000
0100
0000
0001
0000
0010
0100
,
2000
0000
3010
0000
1000
0001
0100
0001
,
1000
0000
0100
0000
0010
0000
0100
0010
,
0002
1003
1000
0001
,
1001
0000
1000
0000
0010
0100
0010
0000
,
1000
0000
0001
0000
0100
0010
0100
0000
,
0001
0000
0010
0000
0100
1000
0100
0000
,
0010
0000
0001
0000
1000
0010
1000
0000
,
0100
0000
0010
0000
0001
0100
0001
0100
,
0001
0000
0010
0000
0100
1000
0100
1000
,
0100
0000
0010
0000
0001
1000
0001
1000
,
0001
0000
0100
0000
0010
0100
0010
0100
,
0010
1000
0001
1000
,
0001
0000
0000
0000
;

//---------------dance-single - ----------------
#NOTES:
     dance-single:
     X-Scale 8:
     Medium:
     6:
     0.437539,0.507041,0.098534,0.451616,0.147801,373.000000,361.000000,12.000000,55.000000,0.000000,0.000000,0.437539,0.507041,0.098534,0.451616,0.147801,373.000000,361.000000,12.000000,55.000000,0.000000,0.000000:
0000
0000
0000
0000
,
0000
0000
0000
0000
,
0000
0000
0000
0000
,
0000
0000
0000
0000
,
1001
0000
0000
1000
0000
0000
0001
0000
0100
0000
0001
0000
0010
0000
0100
0000
,
2000
0000
3100
2000
0000
3001
1000
0010
,
1000
0000
0000
0100
0000
0000
0010
0000
0100
0000
1000
0000
0001
0000
0100
0000
,
0020
0000
0030
0020
0000
0000
0030
0000
,
1001
0000
0000
0000
1000
0000
0000
0100
0000
0000
0100
0000
0010
0000
0100
0000
,
0010
0000
0000
0000
0001
0000
0000
0100
0000
0000
0100
0000
0001
0000
1000
0000
,
0001
0000
0000
0000
0010
0000
0000
0100
0000
0000
0100
0000
1000
0000
0001
0000
,
1000
0000
0000
0000
0010
0000
0000
0100
0000
0000
0100
0000
0001
0000
1000
0000
,
0100
0000
0000
0000
1000
0000
0000
0001
0000
0000
0001
0000
0100
0000
0010
0000
,
0100
0000
0000
0000
0001
0000
0000
1000
0000
0000
1000
0000
0010
0000
1000
0000
,
0001
0000
0000
0000
0100
0000
0000
0010
0000
0000
0010
0000
1000
0000
0001
0000
,
1000
0000
0100
0000
0100
0000
0000
0010
0000
0000
0001
0000
1000
0000
0001
0000
,
0100
0000
0000
0001
0000
0000
0010
0000
0200
0000
0000
0000
2300
0000
0000
0000
,
0001
0000
3010
1000
0002
0000
0103
0020
,
0001
0000
1030
0010
0200
0000
0301
2000
,
0100
0000
3002
0003
0002
0003
0200
0300
,
1001
0000
0000
1000
0000
0000
0001
0000
0100
0000
1000
0000
0100
0000
0001
0000
,
1000
0000
1001
0000
1000
0100
0001
0100
,
1000
0000
0000
0001
0000
0000
0100
0000
0001
0000
0010
0000
1000
0000
0010
0000
,
0001
0000
0000
1000
0100
0000
1000
0100
0000
1000
0100
0000
0010
0000
0001
0000
,
1000
0000
0001
0000
0100
0001
2000
0000
,
3010
0000
0100
0000
0001
0010
0200
0000
,
1300
0000
0001
0000
0100
0001
0020
0000
,
0130
0000
1000
0000
0001
0010
0200
0000
,
1300
0000
0001
0000
1000
0001
0200
0000
,
0310
0000
0100
0000
0001
1000
0200
0000
,
0310
0000
0000
0000
0100
0000
0000
1100
0000
0000
1000
0001
1000
0000
0000
0000
,
1001
0000
2000
3000
2000
3010
0020
0030
,
1001
0000
1000
0000
0010
0100
0002
0000
,
1003
0000
0100
0000
0010
0100
2000
0000
,
3001
0000
0100
0000
0010
0100
2000
0000
,
3100
0000
0001
0000
1000
0100
0020
0000
,
0031
0000
0000
0000
0200
0000
0000
0001
0000
0000
1000
0000
1300
0000
0100
0000
,
0002
0000
0000
0103
0010
0000
0010
1000
,
0001
0000
0000
0000
1000
0000
0000
1000
0000
0000
1000
0000
0100
0000
0010
0000
,
0001
0000
2000
3000
2000
3000
0020
0030
,
1001
0000
0000
0001
0000
0000
0010
0000
1000
0000
0010
0000
0100
0000
1000
0000
,
0200
0000
0300
0200
0000
0300
0020
0000
,
0031
0000
0000
0100
0000
0000
0010
0000
0001
0000
0010
0000
1000
0000
0001
0000
,
2000
0000
3000
2000
0000
3000
0200
0000
,
0310
0000
0000
0100
0000
0000
1000
0000
0010
0000
0100
0000
1000
0000
0100
0000
,
0002
0000
0003
0002
0000
0003
0200
0000
,
0310
0000
0000
0100
0000
0000
0001
0000
1000
0000
0010
0000
1000
0000
0100
0000
,
0020
0000
0030
0020
0000
0030
0002
0100
,
0103
0000
0000
0001
0100
0000
0001
0000
1000
0000
0100
0000
0010
0000
0100
0000
,
2000
0000
0000
0000
3010
0000
0000
1000
0000
0000
0001
0000
0200
0000
0000
0000
,
0310
0000
0000
0100
0001
0000
1000
0000
0010
0000
0001
0000
0010
0000
1000
0000
,
0002
0000
0000
0000
0103
0000
0000
0001
0000
0000
1000
0000
0200
0000
0000
0000
,
0301
0000
0000
0100
0000
0000
1000
0000
0010
0000
0100
0000
0010
0000
0001
0000
,
0020
0000
1030
0000
0001
0100
1000
0100
,
0001
0000
0000
1000
0010
0000
1000
0000
0100
0000
0001
0000
0100
0000
0010
0000
,
0002
0000
0203
0300
0200
0300
0020
0030
,
1001
0000
1000
0000
0000
0000
1000
0000
0001
0100
0001
0000
1000
0000
0010
0000
,
0100
0010
0100
0000
0000
0000
0100
0000
0001
1000
0001
0000
0010
0000
0100
0000
,
0001
0000
0100
0000
1000
0000
0100
0000
0010
0100
0010
0000
0001
0000
1000
0000
,
0000
0000
0100
0000
0100
0000
0010
0000
0100
0010
0100
0000
1000
0000
0001
0000
,
0100
0000
0101
0000
1000
0001
1000
0001
,
0010
0000
0110
0000
0001
1000
0001
1000
,
0010
0000
1001
0000
1000
0001
1000
0001
,
0010
0000
0100
0000
0010
0000
0100
0000
1000
0000
0010
0000
2000
0000
3000
2000
,
0000
3000
0000
0000
0002
0000
0003
0000
1000
0000
0100
0000
0001
0000
0100
0000
,
1000
0000
0000
0000
;

//---------------dance-single - ----------------
#NOTES:
     dance-single:
     X-Scale 12:
     Hard:
     8:
     0.543112,0.613787,0.131379,0.197069,0.299708,463.000000,447.000000,16.000000,24.000000,0.000000,0.000000,0.543112,0.613787,0.131379,0.197069,0.299708,463.000000,447.000000,16.000000,24.000000,0.000000,0.000000:
// measure 0
0000
0000
0000
0000
,  // measure 1
0000
0000
0000
0000
,  // measure 2
0000
0000
0000
0000
,  // measure 3
0000
0000
0000
0000
,  // measure 4
1000
0000
0000
0000
0010
0000
0000
1000
0000
0000
0001
0000
0010
0000
0001
0000
,  // measure 5
0001
0000
0000
0000
1000
0000
0000
0100
0000
0000
1000
0000
0001
0000
1000
0000
,  // measure 6
1000
0000
0000
0000
0100
0000
0000
0010
0000
0000
0001
0000
0100
0000
0010
0000
,  // measure 7
2000
0000
3000
2000
0000
0000
0000
3000
,  // measure 8
1001
0000
0000
0010
0000
0000
1000
0000
0010
0000
0001
0000
1000
0000
0100
0000
,  // measure 9
0002
0000
0000
0000
1003
0000
2000
0100
0000
0000
3100
0000
1000
0000
0001
0000
,  // measure 10
0100
0000
0000
0010
0000
0000
0001
0000
0010
0000
1000
0000
0001
0000
0100
0000
,  // measure 11
0020
0000
0000
0000
1030
0000
0002
0010
0000
0000
0013
0000
0100
0000
1000
0000
,  // measure 12
0001
0000
0000
0100
0000
0000
0010
0000
0100
0000
1000
0000
0100
0000
0001
0000
,  // measure 13
0020
0000
0000
0000
0130
0000
0200
0010
0000
0000
0310
0000
0100
0000
1000
0000
,  // measure 14
0001
0000
0000
0100
0000
0000
0001
0000
0100
0000
1000
0000
0100
0000
0001
0000
,  // measure 15
0020
0000
0000
0000
0130
0000
0200
0010
0000
0000
1300
0000
0100
0000
0100
0000
,  // measure 16
0010
0000
0000
0000
0001
0000
0000
0001
0000
0000
0001
0000
0100
0000
0001
0000
,  // measure 17
1000
0000
0000
0000
0010
0000
0000
0010
0000
0000
0010
0000
0100
0000
0001
0000
,  // measure 18
0010
0000
0000
0000
0100
0000
0000
0100
0000
0000
0100
0000
1000
0000
0001
0000
,  // measure 19
1000
0000
0000
0000
0001
0100
0001
0000
0001
0100
0001
0000
2000
0000
3000
0000
,  // measure 20
1001
0000
0000
1000
0010
0000
1000
0000
0001
0000
0100
0000
0010
0000
0100
0000
,  // measure 21
0001
0000
1000
0000
0010
0100
1000
0100
,  // measure 22
0001
0000
0000
1000
0100
0000
1000
0000
0001
0000
0100
0000
0010
0000
0100
0000
,  // measure 23
0001
0000
0000
0001
0100
0000
0010
1000
0000
0100
0010
0000
0001
0000
0001
0000
,  // measure 24
1001
0000
0000
1000
0000
0000
0010
0000
0001
0000
0100
0000
2000
0000
0001
0000
,  // measure 25
3001
0000
0000
0010
0000
0000
1000
0000
0010
0000
0100
0000
2000
0000
0100
0000
,  // measure 26
3100
0000
0000
0010
0000
0000
0001
0000
1000
0000
0001
0000
0200
0000
0010
0000
,  // measure 27
0310
0000
0000
0100
0000
0000
0001
0000
0100
0000
0010
0000
0200
0000
1000
0000
,  // measure 28
1300
0000
0000
0100
0000
0000
0001
0000
1000
0000
0001
0000
0020
0000
0100
0000
,  // measure 29
0130
0000
0000
0100
1000
0000
0001
0000
0100
0000
1000
0000
0200
0000
0001
0000
,  // measure 30
0301
0000
0000
0000
1000
0000
0000
0001
0010
0000
0100
0010
0100
0000
0000
0000
,  // measure 31
1001
0000
0000
0000
1000
0010
1000
0000
1000
0010
1000
0000
0002
0000
0003
0000
,  // measure 32
1001
0000
0000
0000
0100
0000
0000
1100
0000
0000
0001
0000
1000
0000
0010
0000
,  // measure 33
1000
0000
0000
0000
0010
0000
0000
1001
0000
0000
0010
0000
0001
0000
1000
0000
,  // measure 34
0001
0000
0000
0000
0010
0000
0000
0011
0000
0000
0100
0000
0001
0000
1000
0000
,  // measure 35
0100
0000
0000
0000
0010
0000
0000
1001
0000
0000
0010
0000
1000
0000
0001
0000
,  // measure 36
0100
0000
0000
0000
0001
0000
0000
0010
0000
0000
1000
0000
0100
0000
0001
0000
,  // measure 37
1000
0000
0000
0000
0010
0000
0000
0100
0000
0000
1000
0000
0100
0000
0001
0000
,  // measure 38
1000
0000
0000
0000
0100
0000
0000
0001
0000
0000
0010
0000
1000
0000
0001
0000
,  // measure 39
1000
0000
0000
0000
0001
1000
0001
0000
0001
1000
0001
0000
0200
0000
0300
0000
,  // measure 40
1001
1000
0000
1000
0100
0001
1000
0010
,  // measure 41
0001
0000
0100
0000
0000
0000
0001
0000
0010
0100
0010
0000
0002
0000
0000
0000
,  // measure 42
1003
0010
0000
0010
0001
0010
1000
0001
,  // measure 43
1000
0000
0100
0000
0000
0000
0010
0000
0001
0100
0001
0000
0020
0000
0000
0000
,  // measure 44
0130
0010
0000
0010
0001
1000
0001
0100
,  // measure 45
0001
0000
0010
0000
0000
0000
0010
0000
0100
0010
0100
0000
2000
0000
0000
0000
,  // measure 46
3001
0100
0000
0100
1000
0100
0001
1000
,  // measure 47
0001
0100
0000
0100
0001
0002
0103
0100
,  // measure 48
0101
0000
0000
0001
0100
0000
0001
1000
0000
0000
1000
0000
0100
0000
0001
0000
,  // measure 49
0100
0000
0010
0000
0001
0000
0001
0010
0000
0000
0010
0100
0010
0000
0001
0000
,  // measure 50
1000
0000
0000
0100
1000
0000
0001
0100
0000
0000
0001
0000
0100
0000
0010
0000
,  // measure 51
1000
0000
0001
0000
1000
0000
0001
0100
0000
0000
0010
1000
0001
0000
0010
0000
,  // measure 52
0100
0000
0000
0100
1000
0000
0010
0100
0000
0000
0010
0000
1000
0000
0001
0000
,  // measure 53
0001
0000
1000
0100
0000
0000
1000
0000
0010
0000
0001
0000
1000
0000
0100
0000
,  // measure 54
0001
0000
0000
0001
1000
0000
0010
1000
0000
0000
0001
0000
0100
0000
0001
0000
,  // measure 55
1000
0000
0100
0000
1000
0010
1000
0000
1000
0010
1000
0000
0002
0000
0003
0000
,  // measure 56
1001
0000
1000
0000
0010
0000
1000
0000
0100
0010
0001
0000
1000
0000
0010
0000
,  // measure 57
1000
0001
0100
0000
0010
0000
0100
0000
0001
0010
0100
0000
1000
0000
0010
0000
,  // measure 58
1000
0000
0100
0000
0001
0000
0100
0000
1000
0100
1000
0000
0010
0000
0100
0010
,  // measure 59
0001
0000
0010
0000
1000
0000
0001
0100
0010
0000
0100
0000
0001
0010
0100
0000
,  // measure 60
1000
0000
0100
0000
1100
0000
1000
0100
0010
0000
0010
0000
0010
0000
0010
0000
,  // measure 61
0001
0000
0000
0000
1001
0000
0001
1000
0100
0000
0100
0000
0100
0000
0100
0000
,  // measure 62
0010
0000
0000
0000
0011
0000
0010
0100
1000
0000
1000
0000
1000
0000
1000
0000
,  // measure 63
0001
0000
0001
0000
0001
0000
0001
0100
0000
0010
1000
0000
0001
0100
0001
0100
,  // measure 64
0000
0000
0000
0000
1001
0000
0010
0001
1000
0000
1000
0000
1000
0000
1000
0000
,  // measure 65
0100
0000
0000
0000
;
