#TITLE:KARMA (Tatsujin Mix);
#SUBTITLE:;
#ARTIST:AJURIKA;
#TITLETRANSLIT:;
#SUBTITLETRANSLIT:;
#ARTISTTRANSLIT:;
#GENRE:Psytrance;
#CREDIT:;
#BANNER:KARMA (Tatsujin Mix)-bn.png;
#BACKGROUND:KARMA (Tatsujin Mix)-bg.png;
#LYRICSPATH:;
#CDTITLE:cdtitle.png;
#MUSIC:KARMA (Tatsujin Mix).ogg;
#OFFSET:-0.105000;
#SAMPLESTART:40.657001;
#SAMPLELENGTH:13.241000;
#SELECTABLE:YES;
#DISPLAYBPM:145.000000;
#BPMS:0.000000=145.000000
,155.000000=290.000000
,156.000000=145.000000
;
#STOPS:95.500000=0.828000,
155.000000=0.052000,
155.250000=0.052000,
155.500000=0.052000,
155.750000=0.052000
;
#BGCHANGES:;
#KEYSOUNDS:;
#ATTACKS:;

//---------------dance-single - GET READY FOR THE NEXT BATTLE----------------
#NOTES:
     dance-single:
     X-Scale 15:
     Hard:
     10:
     0.639248,0.728644,0.197163,0.128584,0.544340,522.000000,499.000000,23.000000,15.000000,0.000000,0.000000,0.639248,0.728644,0.197163,0.128584,0.544340,522.000000,499.000000,23.000000,15.000000,0.000000,0.000000:
// measure 0
0000
0000
0000
0000
,  // measure 1
0000
0000
0000
0000
,  // measure 2
0000
0000
0000
0000
,  // measure 3
0000
0000
0000
0000
,  // measure 4
0000
0000
1000
1001
,  // measure 5
0001
0100
0001
0000
0010
0000
0110
0000
,  // measure 6
0100
1000
0100
0000
1000
0000
1001
0000
,  // measure 7
0001
0100
0002
0000
2000
0000
0000
0000
,  // measure 8
0000
0000
0000
0000
3003
0000
0000
0000
1001
0000
0000
1000
0000
0010
0000
0100
,  // measure 9
0000
0001
0010
0000
1000
0000
0010
0000
0100
0000
0010
0000
0001
0000
0100
0000
,  // measure 10
0010
0000
1000
0100
1000
0000
0001
0100
0001
0000
0000
0010
0100
0000
0010
0000
,  // measure 11
0001
1000
0200
2300
3002
0000
0013
0011
,  // measure 12
0000
0011
0000
0000
1000
0000
1000
0000
1001
0000
0001
0010
0100
0000
1000
0000
,  // measure 13
0010
0000
0001
0000
0010
0000
1000
0010
1000
0000
0100
0010
0001
0000
0100
0000
,  // measure 14
0010
0100
0000
0000
0001
0000
0100
0001
1000
0000
0010
0000
1000
0000
0100
0000
,  // measure 15
0010
0000
0001
0010
0001
0000
1000
0010
1000
0000
0000
1010
0000
0000
0001
0000
,  // measure 16
0000
0011
0000
0000
0010
0000
0100
0000
1100
0000
0001
0000
2000
0000
0000
0000
,  // measure 17
3010
1000
0001
0010
,  // measure 18
1000
0010
0001
0100
,  // measure 19
0010
0001
0010
1000
,  // measure 20
0100
0000
0000
0000
1000
0000
0000
0000
0001
0000
0000
0010
0000
0000
1000
0000
,  // measure 21
0000
0001
0000
0000
0100
0000
0010
0000
0001
0000
0000
1000
0000
0000
0010
0000
,  // measure 22
0000
0001
0000
0000
1000
0000
0100
0000
0020
0000
0000
0000
1000
0000
0000
0000
,  // measure 23
0001
0000
0000
0000
0100
0000
0000
0000
1030
0000
0000
1010
0000
0000
1001
0000
,  // measure 24
0110
0000
0000
0100
0001
0000
1000
0000
0100
1000
0000
0000
0010
0000
1000
0000
,  // measure 25
0100
0000
0000
1000
0001
0000
0010
0000
0100
0010
0000
0000
0001
0000
0010
0000
,  // measure 26
0100
0000
0000
1000
0010
0000
1000
0000
0001
0100
0000
0000
0010
0000
1000
0000
,  // measure 27
0001
0000
0000
0011
0000
0000
1000
0000
0000
1010
0000
0000
1000
0000
0100
0000
,  // measure 28
0010
0000
0000
0100
1000
0000
0001
0000
0100
0001
0000
0000
0010
0000
0100
0000
,  // measure 29
1000
0000
0000
0001
0010
0000
0001
0000
1000
0010
0000
0000
0100
0000
0010
0000
,  // measure 30
1000
0000
0000
0001
0100
0000
0010
0000
0100
0001
0000
0000
1000
0000
0100
0000
,  // measure 31
1000
0000
0000
1001
0000
0000
0001
0000
0000
0011
0000
0000
0010
0000
0010
0000
,  // measure 32
1001
0000
0000
1000
0100
0000
1000
0000
0001
0100
0001
0000
0010
0000
0100
0000
,  // measure 33
1000
0000
0000
0010
1000
0000
0001
0000
0100
0001
0100
0000
0010
0000
0100
0000
,  // measure 34
0001
0000
0000
0010
0100
0000
1000
0000
0001
0010
0001
0000
1000
0000
0100
0000
,  // measure 35
1100
0000
0000
1000
0001
0000
0101
0000
0000
0011
0000
0000
0001
0000
0100
0000
,  // measure 36
1000
0000
0000
0100
0001
0000
1000
0000
0010
0100
0010
0000
1000
0000
0001
0000
,  // measure 37
0010
0000
0000
1000
0010
0000
0001
0000
0100
0010
0100
0000
0001
0000
0010
0000
,  // measure 38
0200
0000
0000
0000
0001
0000
0000
0000
0010
0000
0000
0000
1300
0100
1000
0100
,  // measure 39
1000
0000
0000
0100
0000
0000
0001
0000
0000
0100
0000
0000
1000
0000
0010
0000
,  // measure 40
1001
0000
1000
0000
0010
0000
1000
0000
0001
0010
0000
0000
0100
0000
0010
0000
,  // measure 41
0001
0000
0010
0100
1000
0000
0010
0000
0010
0100
0000
0000
0001
0000
1000
0000
,  // measure 42
0010
0000
0100
0001
1000
0000
0001
0000
0100
0001
0000
0000
0010
0000
0100
0000
,  // measure 43
1000
0000
0010
1000
0001
0000
0100
0000
0010
0100
0000
0000
0001
0000
0010
0100
,  // measure 44
0010
0000
0010
0001
0010
0000
0100
0000
0100
1000
0000
0000
0001
0000
1000
0000
,  // measure 45
0100
0000
0010
0100
1000
0000
0001
0000
0010
0001
0000
0000
1000
0000
0010
0100
,  // measure 46
0010
0000
0010
1000
0010
0000
0100
0000
0001
1000
0000
0000
0010
0000
0100
0000
,  // measure 47
0010
0000
1000
0100
0010
0000
0100
0000
2000
0000
0000
0000
3002
0000
0000
0000
,  // measure 48
0103
0000
0000
0100
0010
0000
0100
0000
0001
0010
0000
0000
0100
0000
0010
0000
,  // measure 49
0001
0000
1000
0001
1000
0000
0010
0000
0100
0010
0000
0000
1000
0000
0001
0000
,  // measure 50
0010
0000
0100
0010
0100
0000
1000
0000
0010
1000
0000
0000
0001
0000
0100
0000
,  // measure 51
0010
0000
0000
0100
0001
0000
1000
0000
0100
1000
0000
0000
0010
0000
0001
0010
,  // measure 52
1000
0000
0001
0000
0100
0000
0001
0000
1000
0010
0000
0000
0010
0000
1000
0000
,  // measure 53
0100
0000
0000
0010
0001
0000
1000
0000
0010
1000
0000
0000
0001
0000
0100
0000
,  // measure 54
0001
0000
0010
0100
1000
0000
0001
0000
0100
0001
0000
0000
1000
0000
0100
0000
,  // measure 55
0001
0000
0100
0010
0001
0000
1000
0000
0200
0000
0000
0000
2300
0000
0000
0000
,  // measure 56
3010
0000
1000
0000
0001
0000
1000
0000
0100
1000
0000
0000
0001
0000
0010
0000
,  // measure 57
0200
0000
0000
0000
1300
0000
0100
0000
1000
0001
0000
0000
0100
0000
0001
0000
,  // measure 58
0020
0000
0000
0000
0130
0000
0010
0000
0001
0010
0000
0000
0100
0000
1000
0000
,  // measure 59
0002
0000
0000
0000
0103
0000
0001
0000
1000
0100
0000
0000
1000
0000
0001
0100
,  // measure 60
0001
0000
0000
0010
0001
0000
1000
0010
0100
0001
0000
0010
0100
0000
0100
1000
,  // measure 61
0001
0000
0000
0010
0100
0000
0010
0001
1000
0010
0000
0100
0010
0000
0001
0010
,  // measure 62
0100
0000
0000
0010
1000
0000
0100
1000
0001
1000
0000
0010
0100
0000
0001
0100
,  // measure 63
0001
0000
0000
0010
0100
0000
1000
0100
1000
0010
0000
1000
0001
0000
0000
0000
,  // measure 64
1001
0000
1000
0001
0100
0000
0010
1000
0001
1000
0000
0010
0100
0000
0001
0010
,  // measure 65
0100
0000
0000
0010
0001
0000
1000
0001
0100
0010
0000
0010
1000
0000
0001
0010
,  // measure 66
0100
0000
0000
0010
0001
0000
0000
0010
0100
0000
0000
0010
0001
0000
0000
0010
,  // measure 67
0100
0000
0100
0000
1000
0000
1000
0000
0001
0100
0010
1000
0001
0100
0010
1000
,  // measure 68
0001
0000
0000
0000
;

//---------------dance-single - THE MISHIMA BLOODLINE ENDS HERE----------------
#NOTES:
     dance-single:
     X-Scale 12:
     Medium:
     8:
     0.542503,0.612061,0.248596,0.102867,0.445759,443.000000,414.000000,29.000000,12.000000,0.000000,0.000000,0.542503,0.612061,0.248596,0.102867,0.445759,443.000000,414.000000,29.000000,12.000000,0.000000,0.000000:
// measure 0
0000
0000
0000
0000
,  // measure 1
0000
0000
0000
0000
,  // measure 2
0000
0000
0000
0000
,  // measure 3
0000
0000
0000
0000
,  // measure 4
0000
0000
0001
1000
,  // measure 5
0010
1000
0000
0000
1010
0000
0000
0000
1000
0000
0000
0000
0001
0000
0000
0000
,  // measure 6
0100
0001
0000
0000
0101
0000
0000
0000
0001
0000
0000
0000
0010
0000
0000
0000
,  // measure 7
0100
1000
0000
0000
1100
0000
1000
0000
0001
0000
0000
0000
0000
0000
0000
0000
,  // measure 8
0000
0000
0000
0000
0000
0000
0000
0000
0101
0000
0000
0100
0000
0100
0000
0001
,  // measure 9
0000
0001
0000
0000
1001
0000
0000
0000
1000
0000
0100
0000
0001
0000
0000
0000
,  // measure 10
1000
0000
0010
0000
0001
0000
0000
0000
0100
0000
0001
1000
0000
0000
0020
0000
,  // measure 11
0030
0100
0001
2000
0100
0000
3001
1001
,  // measure 12
0000
1001
0000
0000
1000
0000
0001
0000
0010
0000
0000
0010
0100
0000
0020
0000
,  // measure 13
0001
0000
0130
1000
0001
0000
0100
0001
,  // measure 14
1000
0001
0000
0000
1000
0000
0100
0000
0020
0000
0000
0000
1030
0000
0010
0000
,  // measure 15
0001
0000
0000
0000
0011
0000
0000
0000
0001
0000
0000
1000
0000
0000
0001
0000
,  // measure 16
0000
1000
0000
0000
0001
0000
0000
0000
1001
0000
0000
0000
1000
0000
0000
0000
,  // measure 17
0010
0001
1000
0010
,  // measure 18
0100
1000
0001
0010
,  // measure 19
1000
0001
0100
0010
,  // measure 20
0001
0000
0000
0000
1000
0000
0000
0000
0010
0000
0000
0010
0000
0000
0010
0000
,  // measure 21
0000
0010
0000
0000
0010
0000
0000
0000
1000
0000
0000
1000
0000
0000
1000
0000
,  // measure 22
0000
1000
0000
0000
1000
0000
0000
0000
0002
0000
0000
0010
0000
0000
0010
0000
,  // measure 23
0000
0010
0000
0000
0010
0000
0000
0000
0013
0000
0000
0100
0000
0000
1000
0000
,  // measure 24
1100
0000
0000
0100
0000
0000
0010
0000
0000
0001
0000
0000
1000
0000
0001
0000
,  // measure 25
1000
0000
0000
0010
0000
0000
0100
0000
0000
0001
0000
0000
0010
0000
0100
0000
,  // measure 26
1000
0000
0000
0100
0000
0000
0001
0000
0000
1000
0000
0000
0010
0000
0100
0000
,  // measure 27
1000
0000
0000
1001
0000
0000
0001
0000
0000
0101
0000
0000
0100
0000
0001
0000
,  // measure 28
1000
0000
0000
0001
0000
0000
0010
0000
0000
1000
0000
0000
0010
0000
0100
0000
,  // measure 29
1000
0000
0000
0100
0000
0000
0001
0000
0000
0100
0000
0000
1000
0000
0100
0000
,  // measure 30
0010
0000
0000
0001
0000
0000
1000
0000
0000
0001
0000
0000
0010
0000
0100
0000
,  // measure 31
1000
0000
0000
1100
0000
0000
0001
0000
0000
1001
0000
0000
1000
0000
0001
0000
,  // measure 32
1000
0000
0000
0100
1000
0000
0001
0000
0100
0001
0000
0000
0010
0000
0100
0000
,  // measure 33
1000
0000
0000
0100
0010
0000
0100
0000
1000
0001
0000
0000
0100
0000
0010
0000
,  // measure 34
1000
0000
0000
0100
1000
0000
0001
0000
0100
0001
0000
0000
0010
0000
0100
0000
,  // measure 35
1000
0000
0000
1001
0000
0000
0001
0000
0000
0011
0000
0000
0010
0000
0100
0000
,  // measure 36
1000
0000
0000
0010
1000
0000
0001
0000
0100
0001
0000
0000
0010
0000
0100
0000
,  // measure 37
1000
0000
0000
0100
0010
0000
0001
0000
1000
0010
0000
0000
0100
0000
0001
0000
,  // measure 38
0010
0000
0000
0001
1000
0000
0100
0000
0010
0001
0000
0000
2002
0000
0000
0000
,  // measure 39
3003
0000
0000
0000
2000
0000
3010
1000
,  // measure 40
1001
0000
0000
0001
0010
0000
0001
0000
1000
0000
0010
0000
1000
0000
0100
0000
,  // measure 41
0010
0000
0000
0010
0001
0000
0100
0000
0001
0000
1000
0000
0010
0000
0100
0010
,  // measure 42
0100
0000
0000
0001
1000
0000
0010
0000
0001
0000
0010
0000
1000
0000
0100
0000
,  // measure 43
0010
0000
0000
0100
1000
0000
0001
0000
0100
0000
0010
0000
1000
0000
0100
0010
,  // measure 44
0100
0000
0000
1000
0010
0000
1000
0000
0001
0000
0100
0000
0001
0000
0010
0000
,  // measure 45
0100
0000
0000
0010
0001
0000
1000
0000
0100
0000
0001
0000
0100
0000
1000
0100
,  // measure 46
1000
0000
0000
0010
0100
0000
0010
0000
1000
0000
0001
0000
0010
0000
0100
0000
,  // measure 47
1000
0000
0000
0100
0010
0000
0001
0000
0011
0000
0000
0000
0110
0000
0000
0000
,  // measure 48
1001
0000
0000
1000
0100
0000
1000
0000
0000
0001
0000
0000
0100
0000
0010
0000
,  // measure 49
0001
0000
0000
0010
0100
0000
0001
0000
0000
1000
0000
0000
0010
0000
1000
0100
,  // measure 50
0010
0000
0000
0001
0010
0000
0100
0000
0000
0100
0000
0000
0010
0000
0001
0000
,  // measure 51
1000
0000
0000
0010
0100
0000
0001
0000
0000
0001
0000
0000
0010
0000
0100
0010
,  // measure 52
0001
0000
0100
0000
0010
0000
1000
0000
0000
1000
0000
0000
0001
0000
1000
0000
,  // measure 53
0010
0000
0000
0100
0010
0000
1000
0000
0000
0001
0000
0000
0010
0000
0100
0010
,  // measure 54
0100
0000
0000
0010
0001
0000
0100
0000
0000
0100
0000
0000
0001
0000
0010
0000
,  // measure 55
0100
0000
0000
0010
0001
0000
1000
0000
1001
0000
0000
0000
0110
0000
0000
0000
,  // measure 56
0102
0000
0000
1000
0000
0000
0010
0000
0000
1000
0000
0000
0100
0000
0100
0000
,  // measure 57
0203
0000
0000
0000
0310
0000
0100
0000
0000
0001
0000
0000
1000
0000
0100
0000
,  // measure 58
0010
0000
0000
0001
0000
0000
1000
0000
0000
0001
0000
0000
0010
0000
0100
0000
,  // measure 59
1000
0000
0000
0001
0000
0000
0100
0000
0000
0001
0000
0000
1000
0000
0001
0000
,  // measure 60
0010
0000
0000
0001
0000
0000
0100
0000
0001
0010
0000
0010
0100
0000
1000
0000
,  // measure 61
0010
1000
0000
1000
0000
0000
0001
0100
0001
0000
0000
0010
0100
0000
0010
0000
,  // measure 62
0001
0010
0000
0010
0000
0000
0100
0010
0100
0000
0000
0100
1000
0000
0001
0100
,  // measure 63
0001
0000
0000
0001
0000
0000
1000
0000
2000
0000
0000
0000
0002
0000
3003
0000
,  // measure 64
1001
0000
0000
0000
0001
0000
1000
0000
0010
0100
0000
0000
0010
0000
0100
0000
,  // measure 65
0001
0000
0000
0000
1000
0000
0100
0000
0010
0001
0000
0000
0010
0000
0100
0000
,  // measure 66
0110
1001
0110
1001
,  // measure 67
0001
0000
0001
0000
1000
0000
1000
0000
0010
0100
0010
0100
0010
0100
0010
0100
,  // measure 68
0010
0000
0000
0000
;

//---------------dance-single - SHALL WE BEGIN?----------------
#NOTES:
     dance-single:
     X-Scale 7:
     Easy:
     5:
     0.317175,0.349749,0.094295,0.240024,0.000000,259.000000,248.000000,11.000000,28.000000,0.000000,0.000000,0.317175,0.349749,0.094295,0.240024,0.000000,259.000000,248.000000,11.000000,28.000000,0.000000,0.000000:
// measure 0
0000
0000
0000
0000
,  // measure 1
0000
0000
0000
0000
,  // measure 2
0000
0000
0000
0000
,  // measure 3
0000
0000
0000
0000
,  // measure 4
0000
0000
0000
1100
,  // measure 5
0000
0011
0000
0101
,  // measure 6
0000
1010
0000
1001
,  // measure 7
0000
0110
0000
0000
,  // measure 8
0000
0000
1100
1000
,  // measure 9
0001
0100
0002
0000
0013
0000
0100
0000
,  // measure 10
1000
0000
0010
1000
0001
0000
0100
0000
,  // measure 11
0001
2000
0100
3010
,  // measure 12
0000
0000
1000
0001
1000
0000
1001
0000
,  // measure 13
1000
0000
0100
0010
0001
0000
1000
0000
,  // measure 14
0001
0000
0100
0001
1000
0000
0010
0000
,  // measure 15
1000
0000
0001
0000
0020
0000
0000
0100
,  // measure 16
0000
0000
0130
0010
,  // measure 17
0001
0010
0100
0010
,  // measure 18
0001
0010
0100
1000
,  // measure 19
0001
1000
0100
1000
,  // measure 20
0001
1000
0010
0100
,  // measure 21
0001
0100
0010
1000
,  // measure 22
0100
0010
0001
0010
,  // measure 23
0100
0000
2000
0000
0000
0000
0000
3000
,  // measure 24
1001
0000
0001
0000
1000
0000
0010
1000
,  // measure 25
0100
0000
0010
0000
0001
0000
1000
0010
,  // measure 26
0100
0000
0001
0000
0010
0000
0100
0010
,  // measure 27
0001
0000
1000
0000
0001
0000
0010
0100
,  // measure 28
1000
0000
0001
0000
0100
0000
0010
1000
,  // measure 29
0001
0000
0010
0000
0100
0000
0010
0100
,  // measure 30
1000
0000
0001
0000
1000
0000
0010
1000
,  // measure 31
0001
0000
0100
0000
0001
0000
1000
0100
,  // measure 32
0010
0000
0100
0000
1000
0000
0001
0100
,  // measure 33
0001
0000
0010
0000
0100
0000
1000
0100
,  // measure 34
1000
0000
0010
0000
0100
0000
0001
0010
,  // measure 35
0001
0000
0100
0000
0010
0000
1000
0100
,  // measure 36
1000
0000
0001
0000
1000
0000
0001
0100
,  // measure 37
0001
0000
1000
0000
0001
0000
0100
0010
,  // measure 38
0100
0001
1000
0001
,  // measure 39
1001
0000
0000
0000
,  // measure 40
0110
0100
0020
1000
,  // measure 41
0000
0100
0000
1000
,  // measure 42
2030
3200
0000
0010
,  // measure 43
0000
0000
1000
0000
0000
0000
0310
0100
,  // measure 44
2000
0010
3002
0010
,  // measure 45
0000
1000
0000
0010
,  // measure 46
0013
0100
1000
0100
,  // measure 47
0010
0100
2000
3002
,  // measure 48
0103
0001
0020
0100
,  // measure 49
0000
0001
0000
0100
,  // measure 50
0032
2003
0000
0010
,  // measure 51
0000
0000
0001
0000
0000
0000
3010
0200
,  // measure 52
0000
0301
0010
0002
1000
0000
0100
0000
,  // measure 53
1000
0000
0100
0000
,  // measure 54
1003
0000
0001
0000
0100
0000
0001
0010
,  // measure 55
0100
1000
2000
3002
,  // measure 56
0013
0000
0001
0000
1000
0000
0010
1000
,  // measure 57
0002
0100
0000
0100
,  // measure 58
0203
0000
0010
0000
0000
0000
0010
0010
,  // measure 59
0020
0330
0100
0001
,  // measure 60
2000
0000
3010
0000
1000
0000
0100
0010
,  // measure 61
0002
1003
0001
0100
,  // measure 62
0002
0000
0013
0000
0100
0000
0010
0100
,  // measure 63
2000
3000
0200
0320
,  // measure 64
0031
0010
0100
1000
,  // measure 65
0010
0100
0001
1000
,  // measure 66
0100
0010
0100
0010
,  // measure 67
0001
0010
0001
0010
0002
0000
0100
0000
,  // measure 68
1003
0000
0000
0000
;

//---------------dance-single - WELCOME TO THE KING OF IRON FIST TOURNAMENT----------------
#NOTES:
     dance-single:
     X-Scale 3:
     Beginner:
     2:
     0.142055,0.174232,0.008572,0.000000,0.000000,116.000000,115.000000,1.000000,0.000000,0.000000,0.000000,0.142055,0.174232,0.008572,0.000000,0.000000,116.000000,115.000000,1.000000,0.000000,0.000000,0.000000:
// measure 0
0000
0000
0000
0000
,  // measure 1
0000
0000
0000
0000
,  // measure 2
0000
0000
0000
0000
,  // measure 3
0000
0000
0000
0000
,  // measure 4
0000
0000
0000
1000
,  // measure 5
0000
0001
0000
0100
,  // measure 6
0000
0001
0000
1000
,  // measure 7
0000
0001
0000
0000
,  // measure 8
0000
0000
0000
1000
,  // measure 9
0000
0100
0000
0010
,  // measure 10
0000
0001
0000
0100
,  // measure 11
0000
0010
0000
1000
,  // measure 12
0000
0000
0000
0001
,  // measure 13
0000
0010
0000
0001
,  // measure 14
0000
1000
0000
0001
,  // measure 15
0000
0010
0000
0000
,  // measure 16
0000
0000
1000
0000
,  // measure 17
0000
0000
0001
0000
,  // measure 18
0000
0000
0100
0000
,  // measure 19
0000
0000
0001
0000
,  // measure 20
0000
0000
1000
0000
,  // measure 21
0000
0000
0100
0000
,  // measure 22
0000
0000
0010
0000
,  // measure 23
0000
0000
0001
0000
,  // measure 24
0000
1000
0000
0001
,  // measure 25
0000
0100
0000
0001
,  // measure 26
0000
1000
0000
0100
,  // measure 27
0000
0010
0000
0001
,  // measure 28
1000
0001
0000
0100
,  // measure 29
0000
0001
0000
1000
,  // measure 30
0000
0010
0000
0100
,  // measure 31
0000
0001
0000
1000
,  // measure 32
0100
1000
0000
0010
,  // measure 33
0000
1000
0000
0100
,  // measure 34
0000
0010
0000
0001
,  // measure 35
0000
0100
0000
0010
,  // measure 36
1000
0010
0000
0100
,  // measure 37
0000
0001
0000
0010
,  // measure 38
0000
0100
0000
1000
,  // measure 39
0000
0000
0000
0000
,  // measure 40
1001
0000
1000
0000
,  // measure 41
0010
0000
1000
0000
,  // measure 42
0001
0000
0100
0000
,  // measure 43
0010
0000
0100
0000
,  // measure 44
0001
0000
0010
0000
,  // measure 45
0100
0000
1000
0000
,  // measure 46
0001
0000
1000
0000
,  // measure 47
0010
0000
1000
0000
,  // measure 48
0001
0000
0100
0000
,  // measure 49
0010
0000
1000
0000
,  // measure 50
0001
0000
0010
0000
,  // measure 51
0100
0000
1000
0000
,  // measure 52
0001
0000
1000
0000
,  // measure 53
0100
0000
0010
0000
,  // measure 54
0001
0000
1000
0000
,  // measure 55
0010
0000
1000
0000
,  // measure 56
0001
0000
0100
0000
,  // measure 57
0001
0000
0010
0000
,  // measure 58
0100
0000
0010
0000
,  // measure 59
0001
0000
0010
0000
,  // measure 60
0100
0000
1000
0000
,  // measure 61
0001
0000
0100
0000
,  // measure 62
0001
0000
1000
0000
,  // measure 63
0001
0000
0000
0000
,  // measure 64
0000
1000
0000
0001
,  // measure 65
0000
1000
0000
0001
,  // measure 66
0000
0010
0000
0100
,  // measure 67
0000
0010
0000
0100
;
