#VERSION:0.83;
#TITLE:Just for me;
#SUBTITLE:;
#ARTIST:PinkPantheress;
#TITLETRANSLIT:;
#SUBTITLETRANSLIT:;
#ARTISTTRANSLIT:;
#GENRE:2-Step Garage;
#ORIGIN:;
#CREDIT:;
#BANNER:just for me-bn.png;
#BACKGROUND:just for me-bg.png;
#PREVIEWVID:;
#JACKET:just for me-jacket.png;
#CDIMAGE:;
#DISCIMAGE:;
#LYRICSPATH:;
#CDTITLE:cdtitle.png;
#MUSIC:Just for me.ogg;
#OFFSET:-0.006000;
#SAMPLESTART:84.572998;
#SAMPLELENGTH:14.436000;
#SELECTABLE:YES;
#BPMS:0.000=133.000;
#STOPS:18.500=2.256,
182.000=1.805;
#DELAYS:;
#WARPS:;
#TIMESIGNATURES:0.000=4=4;
#TICKCOUNTS:0.000=4;
#COMBOS:0.000=1;
#SPEEDS:0.000=1.000=0.000=0;
#SCROLLS:0.000=1.000;
#FAKES:;
#LABELS:0.000=Song Start;
#BGCHANGES:0.000=Just for me.avi=1.000=1=0=0=StretchNoLoop==CrossFade==,
99999=-nosongbg-=1.000=0=0=0 // don't automatically add -songbackground-
;
#KEYSOUNDS:;
#ATTACKS:
;

//---------------dance-single - ----------------
#NOTEDATA:;
#CHARTNAME:X-Scale 1;
#STEPSTYPE:dance-single;
#DESCRIPTION:;
#CHARTSTYLE:;
#DIFFICULTY:Beginner;
#METER:1;
#RADARVALUES:0.090106,0.129064,0.017281,0.000000,0.000000,73.000000,71.000000,2.000000,0.000000,0.000000,0.000000,0.000000,0.000000,0.000000,0.090106,0.129064,0.017281,0.000000,0.000000,73.000000,71.000000,2.000000,0.000000,0.000000,0.000000,0.000000,0.000000,0.000000;
#CREDIT:iamthek3n;
#NOTES:
// measure 0
0000
0000
0000
0000
,  // measure 1
0000
0000
0000
0000
,  // measure 2
0000
0000
0000
0000
,  // measure 3
0000
0000
0000
0000
,  // measure 4
1000
0000
0000
0001
,  // measure 5
0000
0000
0000
0100
,  // measure 6
0000
0000
0000
0001
,  // measure 7
0000
0000
0000
1000
,  // measure 8
0000
0000
0000
0100
,  // measure 9
0000
0000
0000
0010
,  // measure 10
0000
0000
0000
0000
,  // measure 11
0001
0000
1000
0000
,  // measure 12
0001
0000
0100
0000
,  // measure 13
0001
0000
1000
0000
,  // measure 14
0001
0000
0100
0000
,  // measure 15
0001
0000
0010
0000
,  // measure 16
0100
0000
1000
0000
,  // measure 17
0000
0000
0000
0001
,  // measure 18
0000
0000
0000
1001
,  // measure 19
0000
0000
0000
1000
,  // measure 20
0000
0000
0000
0010
,  // measure 21
0000
0000
0000
1000
,  // measure 22
0000
0000
0000
0001
,  // measure 23
0000
0000
0000
0010
,  // measure 24
0000
0000
0000
0100
,  // measure 25
0000
0000
0000
0000
,  // measure 26
0000
1000
0001
1000
,  // measure 27
0000
0000
0000
0100
,  // measure 28
0000
0000
0000
0010
,  // measure 29
0000
0000
0000
0001
,  // measure 30
0000
0000
0000
0100
,  // measure 31
0000
0000
0000
0010
,  // measure 32
0000
0000
0000
1000
,  // measure 33
0000
0000
0000
0001
,  // measure 34
0000
0000
0000
0000
,  // measure 35
0100
0000
0001
0000
,  // measure 36
1000
0000
0001
0000
,  // measure 37
0100
0000
0001
0000
,  // measure 38
1000
0000
0100
0000
,  // measure 39
0010
0000
0100
0000
,  // measure 40
1000
0000
0001
0000
,  // measure 41
0010
0000
0001
0000
,  // measure 42
0000
0000
0000
1000
,  // measure 43
0000
0000
0000
0001
,  // measure 44
0000
0000
0000
1000
,  // measure 45
0000
0000
0000
1001
,  // measure 46
0000
0000
0000
1000
,  // measure 47
0000
0000
0000
0001
,  // measure 48
0000
0000
0000
0100
,  // measure 49
0000
0000
0000
0001
,  // measure 50
0000
0000
0000
0010
,  // measure 51
0000
0000
0000
0100
,  // measure 52
0000
0000
0000
1000
,  // measure 53
0000
0001
1000
0001
,  // measure 54
0000
0000
0000
0010
,  // measure 55
0000
0000
0000
0100
,  // measure 56
0000
0000
0000
1000
,  // measure 57
0000
0000
0000
0100
,  // measure 58
0000
0000
0000
0010
,  // measure 59
0000
0000
0000
0001
;

//---------------dance-single - ----------------
#NOTEDATA:;
#CHARTNAME:X-Scale 5;
#STEPSTYPE:dance-single;
#DESCRIPTION:;
#CHARTSTYLE:;
#DIFFICULTY:Easy;
#METER:3;
#RADARVALUES:0.233288,0.309754,0.034561,0.112324,0.000000,189.000000,185.000000,4.000000,13.000000,0.000000,0.000000,0.000000,0.000000,0.000000,0.233288,0.309754,0.034561,0.112324,0.000000,189.000000,185.000000,4.000000,13.000000,0.000000,0.000000,0.000000,0.000000,0.000000;
#CREDIT:iamthek3n;
#NOTES:
0000
0000
0000
0000
,
0000
0000
0000
0000
,
0000
0000
0000
0000
,
0000
0000
0000
0000
,
1001
0000
0001
0110
,
0010
0000
0000
0100
0001
0000
1000
0000
,
0010
0000
0000
0100
0001
0100
0001
0000
,
0010
0000
0000
0100
1000
0000
0001
0000
,
0100
0000
0000
0010
0100
0000
0001
0000
,
1000
0000
0100
0010
0100
2000
0000
0000
,
0001
3000
1000
0000
0001
0000
2000
0000
,
0100
3000
0001
0000
,
0100
0000
0001
2000
,
0100
3000
1000
0000
,
0001
0000
0010
0200
,
1000
0000
0010
0300
,
0100
1000
0001
0200
,
0000
0000
0300
0000
0000
0020
0000
0000
,
0230
0320
0030
0000
0000
0000
1001
0000
,
1000
0100
1000
0001
,
0010
0100
0010
0001
,
0100
0001
0010
0100
,
1000
0001
0100
0010
,
0100
0001
1000
0100
,
1000
0001
0010
0100
,
0010
0001
1000
0001
,
1000
0000
0100
0000
0100
0010
0001
0000
,
1000
0000
0001
0100
0001
0000
0010
0000
,
0100
0000
1000
0100
1000
0000
0001
0000
,
0100
0000
0010
0100
0010
0000
1000
0000
,
0100
0000
0010
0001
0010
0000
0001
0000
,
1000
0000
0010
0100
0010
0000
1000
0000
,
0001
0000
0100
0001
0100
0000
0010
0000
,
1000
0000
0100
0010
0100
0000
1000
0000
,
0001
0100
0020
0030
,
1000
0000
0001
0000
,
1000
0000
0001
0000
,
0010
0000
0100
0000
,
0010
0000
0100
0000
,
1000
0000
0010
0000
,
1000
0000
0010
0000
,
0100
0000
0001
0000
,
0100
0000
0000
0001
,
0000
0000
0000
0000
0000
1000
0000
0000
,
0000
0010
0000
0000
1000
0000
0000
0000
,
0001
0000
0000
1000
0000
0000
0110
0000
,
0100
0010
1000
0001
,
0010
0100
0010
0001
,
1000
0010
1000
0100
,
0010
0100
1000
0001
,
0100
0010
0100
0001
,
1000
0100
0010
0001
,
0100
0000
0001
0000
1000
0200
0000
0000
,
0310
0000
0100
1000
0002
0000
1003
0000
,
0000
0010
0000
0100
,
0000
0001
0000
0010
,
0000
0100
0000
0000
0010
0000
0000
0000
,
0001
0000
0000
0100
0000
0000
0002
0000
,
0000
2000
0000
0000
,
0000
0000
0000
3003
;

//---------------dance-single - ----------------
#NOTEDATA:;
#CHARTNAME:X-Scale 10;
#STEPSTYPE:dance-single;
#DESCRIPTION:;
#CHARTSTYLE:;
#DIFFICULTY:Medium;
#METER:7;
#RADARVALUES:0.398687,0.413005,0.051842,0.241928,0.095043,323.000000,317.000000,6.000000,28.000000,0.000000,0.000000,0.000000,0.000000,0.000000,0.398687,0.413005,0.051842,0.241928,0.095043,323.000000,317.000000,6.000000,28.000000,0.000000,0.000000,0.000000,0.000000,0.000000;
#CREDIT:iamthek3n;
#NOTES:
0000
0000
0000
0000
,
0000
0000
0000
0000
,
0000
0000
0000
0000
,
0000
0000
0000
0000
,
0001
0010
1000
0010
0002
0003
1001
1000
,
0010
1000
0001
0200
1000
0000
0302
0000
,
1003
0100
0001
0100
0010
0001
1000
0000
,
0010
1000
0001
0100
0001
0010
0100
0000
,
1000
0020
0000
2030
0000
3002
0010
0000
,
0103
0001
1000
0100
0010
0002
0000
0000
,
0013
0011
0110
1001
,
1000
0000
0000
0100
0000
0000
0100
0000
1000
0000
0000
0000
0001
0000
0000
0000
,
0100
0000
0000
0100
0000
0000
0100
0000
0001
0000
0010
0000
0002
0000
0000
0000
,
1003
0100
0020
0000
0031
0100
0000
0001
,
1000
0000
0000
0001
0000
0000
0001
0000
1000
0000
0100
0000
0020
0000
0000
0000
,
1030
0010
0002
0000
0103
0001
0000
0001
,
1000
0000
0000
0100
0000
0000
1000
0000
1000
0000
0002
0000
0000
0000
0100
0000
,
0000
0103
0000
0001
0000
0002
0000
0003
,
1000
0010
1000
0000
0000
0000
1001
0000
,
1000
0000
0000
0100
0000
0000
0100
0000
0010
0000
0001
0000
0100
0000
0000
0000
,
0001
0000
0000
0001
1000
0000
0010
0000
0100
0000
0010
0000
1000
0000
0000
0000
,
0100
0000
0000
0010
0000
0000
0010
0000
0001
0000
1000
0000
0010
0000
0000
0000
,
1000
0000
0000
0100
1000
0000
0001
0000
0100
0000
0001
0000
1000
0000
0000
0000
,
0100
0000
0000
0010
0000
0000
0010
0000
0001
0000
0100
0000
0001
0000
0000
0000
,
1000
0000
0000
0100
0010
0000
0001
0000
1000
0000
0010
0000
1000
0000
0000
0000
,
0001
0000
0000
0001
0000
0000
0100
0000
0001
0000
0010
0000
0100
0000
0000
0000
,
0100
0000
0000
1000
0002
0000
0000
0000
0103
0000
0001
0000
1000
0000
0010
0000
,
0100
0010
0001
0020
0100
0000
1030
0000
,
0010
0000
0000
0010
0000
0000
1000
0000
0001
0000
1000
0000
0001
0000
0000
0000
,
0010
0100
0200
0020
0300
0230
0010
0000
,
0301
0000
0000
1000
0010
0000
1000
0000
0001
0000
0010
0000
0200
0000
0000
0000
,
0310
0100
1000
0002
0100
0000
1003
0000
,
0100
0020
0000
0032
0010
0000
1003
0001
,
0100
1000
0100
0002
0000
2003
0000
0000
,
3001
0000
0000
0001
0100
0000
0000
0000
0010
0000
1000
0000
0001
0000
0000
0000
,
0100
0000
0001
1000
0100
0000
0010
0000
,
0100
0000
1000
0000
0100
0001
1000
0000
,
0100
0001
1000
0000
0010
0100
0001
0000
,
1000
0000
0001
0000
0010
0100
1000
0000
,
0010
0100
1000
0000
0001
0000
0100
0001
,
1000
0000
0001
0000
0100
0001
0010
0000
,
0100
0001
0010
0000
0100
0000
1000
0000
,
0001
0100
1000
0100
0010
0100
0001
0000
,
0001
0010
0100
2000
0000
0002
0000
0003
,
3001
0100
0000
0100
0001
1000
0010
0000
,
1000
0010
1000
0001
0000
0000
0110
0000
,
0100
0000
0000
0001
0010
0000
0001
0000
1000
0000
0100
0000
0010
0000
0000
0000
,
0001
0000
0000
0100
0001
0000
1000
0000
0010
0000
0100
0000
0010
0000
0000
0000
,
1000
0000
0000
0001
0100
0000
0001
0000
0010
0000
0100
0000
1000
0000
0000
0000
,
0001
0000
0000
0100
0001
0000
1000
0000
0100
0000
1000
0000
0001
0000
0000
0000
,
0010
0000
0000
0100
0010
0000
0100
0000
1000
0000
0001
0000
0100
0000
0000
0000
,
0001
0000
0000
1000
0001
0000
1000
0000
0100
0000
1000
0000
0001
0000
0000
0000
,
0010
0000
0000
0100
0010
0000
0100
0000
1000
0000
0001
0000
1000
0000
0000
0000
,
0100
0000
1000
0010
0001
0010
1000
0000
,
0000
0001
0000
0000
0001
0000
0000
0000
,
0100
0000
0010
0100
0001
1000
0100
0000
,
0000
0010
0000
0000
0001
0000
0000
0000
,
1000
0000
0001
0010
1000
0010
0001
0000
,
0000
0020
0000
0000
0200
0000
0000
0000
,
0000
0000
0000
0330
;

//---------------dance-single - ----------------
#NOTEDATA:;
#CHARTNAME:X-Scale 12;
#STEPSTYPE:dance-single;
#DESCRIPTION:;
#CHARTSTYLE:;
#DIFFICULTY:Hard;
#METER:8;
#RADARVALUES:0.506074,0.567882,0.224647,0.250568,0.228967,410.000000,384.000000,26.000000,29.000000,0.000000,0.000000,0.000000,0.000000,0.000000,0.506074,0.567882,0.224647,0.250568,0.228967,410.000000,384.000000,26.000000,29.000000,0.000000,0.000000,0.000000,0.000000,0.000000;
#CREDIT:iamthek3n;
#NOTES:
0000
0000
0000
0000
,
0000
0000
0000
0000
,
0000
0000
0000
0000
,
0000
0000
0000
0000
,
1001
1000
0001
0100
0010
0000
0011
0001
,
0010
0000
0100
1000
0000
0000
0001
0000
1000
0000
0000
0000
0010
0000
1000
0000
,
0001
0000
0010
0001
0000
0000
1000
0000
0010
0000
0001
0000
0010
0000
1000
0000
,
0001
0000
0100
0001
0000
0000
1000
0000
0010
0000
0000
0000
1000
0000
0001
0000
,
0010
0000
0001
0100
0000
0000
0001
0000
0010
0000
1000
0000
0001
0000
0100
0000
,
1000
0000
0010
1000
0000
0000
0001
0000
0100
0000
0001
0000
2000
0000
0000
0000
,
3100
0020
0000
1030
0010
0001
2000
0000
,
0001
0000
0000
0010
3000
0000
0010
0000
1000
0000
0100
0000
1000
0000
0001
0100
,
0000
0010
0100
1000
0001
0010
0200
0000
,
0301
1000
0200
0000
0301
0100
1000
0001
,
0010
0000
0000
0001
0000
0000
0100
0000
0001
0000
0010
0000
0200
0000
0000
0000
,
1300
0001
0200
0000
0310
1000
0001
0000
,
0010
0000
0000
0100
0000
0000
1000
0000
0001
0000
0100
0000
1000
0000
0100
0000
,
0001
0000
1000
0000
0100
0000
0010
0000
0000
0000
0100
0010
0100
0000
1000
0001
,
0000
0000
0100
0010
0100
0000
1000
0000
0100
0000
0001
0000
0101
0000
0000
0000
,
1001
0000
0000
0100
0001
0000
1000
0000
0001
0000
0000
0000
0011
0000
0000
0000
,
1010
0000
0000
1000
0010
0000
0001
0000
0010
0000
1000
0000
1100
0000
0000
0000
,
1001
0000
0000
0100
1000
0000
0001
0000
0100
0000
0000
0000
0101
0000
0000
0000
,
1100
0000
0000
1000
0010
0000
0100
0000
0001
0000
0010
0000
0011
0000
0000
0000
,
0101
0000
0000
0001
0100
0000
0001
0000
1000
0000
0000
0000
1100
0000
0000
0000
,
0110
0000
0000
0100
0010
0000
0001
0000
1000
0000
0010
0000
1010
0000
0000
0000
,
0101
0000
0000
0001
1000
0000
0001
0000
0010
0000
0100
0000
1000
0000
0010
0000
,
1000
0000
0000
1000
0001
0000
0100
0000
0010
0000
0100
0000
0001
0000
0010
0000
,
1000
0010
0001
1000
0100
0000
1001
0000
,
0001
0000
1000
0100
1000
0000
0001
0000
0100
0000
0010
0000
1000
0000
0000
0000
,
0100
0010
0020
0000
0031
0010
0001
1000
,
0100
0000
0000
0100
1000
0000
0001
0000
0100
0000
0010
0000
0200
0000
0000
0000
,
1300
0100
0001
2000
0000
3010
1000
0001
,
0100
0000
0001
1000
0000
0000
1000
0000
0100
0000
1000
0000
0001
0000
0000
0000
,
0010
0000
0100
0010
0001
0000
1000
0000
0001
0000
0000
0000
0100
0000
0000
0000
,
1001
0000
0000
1000
0100
0000
0000
1000
0001
0000
0010
0000
0100
0000
1000
0000
,
0001
0000
0100
0000
0001
0000
1000
0000
0000
0000
0100
0000
1000
0000
0100
0010
,
0000
0000
0001
0010
0001
0000
0100
0000
1000
0000
0100
0000
0002
0000
0000
0000
,
0013
0000
0100
0000
2000
0000
0000
0000
3010
0000
1000
0000
0001
0000
0100
0001
,
0000
0000
0010
0100
0000
0000
1000
0000
0010
0000
0100
0000
0002
0000
0000
0000
,
0103
0000
0010
0000
2000
0000
0000
0000
3010
0000
1000
0010
1000
0000
0001
0010
,
0000
0000
1000
0010
0000
0000
0001
0010
0000
0000
0100
0010
0001
0000
0000
0000
,
1000
0000
0010
0000
0100
0000
0001
0000
0000
0000
0010
0001
0010
0000
0100
1000
,
0000
0000
0010
0100
0001
0000
1000
0000
0001
0000
0100
0000
0020
0000
0000
0000
,
0031
0000
0010
0000
0100
0000
0020
0000
0000
0000
1030
0010
1000
0000
0100
0010
,
0000
0000
0010
0100
0010
0000
0001
0200
0000
0000
0310
2000
0000
0000
3010
0000
,
0100
0001
0010
0200
0300
0000
1001
1000
,
0010
0000
0000
0100
0010
0000
1000
0000
0001
0000
0000
0000
0011
0000
0010
0000
,
0100
0000
0000
1000
0100
0000
1000
0000
0001
0000
0100
0010
0100
0000
0001
0000
,
0011
0000
0000
0010
0100
0000
1000
0000
1010
0000
0000
0000
0001
0000
0100
0000
,
0001
0000
0000
1000
0010
0000
1000
0000
0001
0000
0001
0000
0001
0000
1000
0000
,
1001
0000
0000
0100
0001
0000
1000
0000
1100
0000
0100
0010
0100
0000
1000
0000
,
1001
0000
0000
0001
0100
0000
0001
0000
1000
0000
0010
0000
1000
0000
0100
0000
,
0110
0000
0000
0010
0001
0000
1000
0000
0010
0000
0200
0000
0000
0000
0000
0000
,
0310
0000
0000
0010
1000
0000
0100
0000
0001
0000
0100
0000
2000
0000
0000
0000
,
0000
0000
3100
1000
0020
0000
1030
0200
,
0000
0000
0301
0100
1000
0001
0200
0000
,
0000
0302
0000
0000
0023
0000
0000
0000
,
0130
0010
0001
1000
0010
0100
0002
0000
,
0000
2003
0000
0000
0200
0000
0000
0000
,
0000
0000
0000
3300
;
