#TITLE:Just Dance feat. Colby O'Donis;
#SUBTITLE:;
#ARTIST:Lady Gaga;
#TITLETRANSLIT:;
#SUBTITLETRANSLIT:;
#ARTISTTRANSLIT:;
#GENRE:Dance;
#CREDIT:;
#BANNER:Just Dance-bn.png;
#BACKGROUND:Just Dance-bg.png;
#LYRICSPATH:;
#CDTITLE:cdtitle.png;
#MUSIC:just dance.ogg;
#OFFSET:-0.004000;
#SAMPLESTART:47.903000;
#SAMPLELENGTH:16.000000;
#SELECTABLE:YES;
#BPMS:0.000000=119.000000
;
#STOPS:
;
#BGCHANGES:-0.004=just dance.avi=1.000=1=0=0=StretchNoLoop==CrossFade==,
99999=-nosongbg-=1.000=0=0=0 // don't automatically add -songbackground-
;
#KEYSOUNDS:;
#ATTACKS:;

//---------------dance-single - ----------------
#NOTES:
     dance-single:
     X-Scale 10:
     Hard:
     8:
     0.439852,0.455847,0.119960,0.079973,0.043985,385.000000,370.000000,15.000000,10.000000,0.000000,0.000000,0.439852,0.455847,0.119960,0.079973,0.043985,385.000000,370.000000,15.000000,10.000000,0.000000,0.000000:
// measure 0
0000
0000
0000
0000
,  // measure 1
0000
0000
0000
0000
,  // measure 2
2000
0000
3002
0100
,  // measure 3
0203
0000
0010
0320
0000
0000
0100
0030
,  // measure 4
0110
0100
0001
0100
,  // measure 5
1000
0000
0100
0001
0010
0100
0010
0001
,  // measure 6
1000
0000
0001
1000
0001
0000
0010
0100
,  // measure 7
0010
0000
0100
1000
0100
0000
1000
0001
,  // measure 8
0101
0000
0001
0000
1000
0001
1000
0001
,  // measure 9
1000
0000
0010
0100
0000
0100
0000
0100
,  // measure 10
0001
0000
1000
0000
0100
0010
0100
1000
,  // measure 11
0100
0000
1000
0001
1000
0000
0001
0000
,  // measure 12
0011
0000
1000
0000
0001
0100
1000
0000
,  // measure 13
1000
0100
0001
0010
0100
0010
0001
1000
,  // measure 14
0001
0000
0010
0000
0001
0000
1000
0010
,  // measure 15
1000
0000
0100
0010
0000
0010
0000
0010
,  // measure 16
0110
0010
0001
0000
1000
0010
1000
0000
,  // measure 17
0001
0100
0001
0000
1000
0100
0010
0100
,  // measure 18
1000
0010
0100
0001
0010
1000
0010
0100
,  // measure 19
1000
0001
0100
0010
0100
0001
0010
0100
,  // measure 20
1000
0001
1000
0000
0100
0010
0100
0000
,  // measure 21
1000
0000
0001
0100
1000
0100
0001
0100
,  // measure 22
0010
1000
0001
1000
0100
0010
0001
0010
,  // measure 23
0100
0010
0100
0100
0010
0000
0001
0000
,  // measure 24
1001
0000
0000
0000
1000
0000
0001
1000
0001
0000
0100
0000
0001
0000
0000
0000
,  // measure 25
1000
0001
1000
0001
0100
0010
1000
0010
,  // measure 26
1000
0000
0001
0100
1000
0010
0001
0000
,  // measure 27
0100
0010
0001
0010
0100
0000
0001
0000
,  // measure 28
0101
0000
0000
0000
0001
0000
1000
0001
1000
0000
0010
0000
1000
0000
0000
0000
,  // measure 29
0001
0100
1000
0100
0001
0100
1000
0100
,  // measure 30
0001
0000
0100
0010
0100
0000
0001
1000
,  // measure 31
0001
0000
0010
0000
0100
0100
0100
0000
,  // measure 32
0110
0000
0100
0100
1000
0000
0100
0100
,  // measure 33
0010
0000
0100
1000
0100
0000
1000
0000
0001
0000
0100
0000
0001
0000
0000
0000
,  // measure 34
2001
3000
0001
0001
1000
0000
0001
0001
,  // measure 35
0100
0001
0100
0000
0001
0000
0100
0000
0010
0000
1000
0000
0100
0000
0000
0000
,  // measure 36
1010
0000
0100
0010
0100
0000
0001
0100
,  // measure 37
0001
0100
0010
0100
0001
0100
0010
0000
0100
0000
0001
0000
1000
0000
0000
0000
,  // measure 38
1020
0030
0100
0010
0100
0000
0001
1000
,  // measure 39
0001
0100
1000
0100
0001
0010
0100
0000
,  // measure 40
0110
0100
1000
0000
0001
0100
0001
0000
,  // measure 41
1000
0010
0001
0010
1000
0100
0010
0001
,  // measure 42
1000
0000
0001
0100
1000
0010
0001
0010
,  // measure 43
0100
1000
0100
0000
1000
0000
0010
0000
,  // measure 44
0110
0100
0001
0000
1000
0010
1000
0000
,  // measure 45
0001
0100
1000
0100
0001
0010
0100
1000
,  // measure 46
0001
0000
0010
0000
0100
0000
0010
0100
0010
0000
0100
0000
1000
0000
0001
0010
,  // measure 47
0001
0010
0100
1000
0001
0000
0010
0000
,  // measure 48
0002
0000
0000
0000
0023
0000
0000
0100
,  // measure 49
0230
0000
0000
2300
0100
0000
0010
0000
,  // measure 50
3100
0000
1000
0100
0001
0010
1000
0010
,  // measure 51
1000
0100
0010
0100
0010
0000
0001
0100
,  // measure 52
0101
0000
0000
0000
1000
0000
0001
1000
0001
0000
0100
0000
0001
0000
0000
0000
,  // measure 53
1000
0100
1000
0100
0010
0000
0001
0000
,  // measure 54
1000
0000
0001
0010
1000
0100
0001
0000
,  // measure 55
0001
0100
0010
0100
0001
0000
1000
0000
,  // measure 56
1001
0000
0000
0000
0001
0000
0010
0100
0010
0000
0001
0000
1000
0000
0000
0000
,  // measure 57
0001
0010
1000
0010
0001
0100
0010
1000
,  // measure 58
0001
0000
0100
0010
0100
0000
0001
1000
,  // measure 59
0001
0000
1000
0000
0100
0100
0100
0000
,  // measure 60
1100
0000
0000
0000
;

//---------------dance-single - ----------------
#NOTES:
     dance-single:
     X-Scale 8:
     Medium:
     6:
     0.339315,0.335887,0.079973,0.175941,0.000000,297.000000,287.000000,10.000000,22.000000,0.000000,0.000000,0.339315,0.335887,0.079973,0.175941,0.000000,297.000000,287.000000,10.000000,22.000000,0.000000,0.000000:
0000
0000
0000
0000
,
0000
0000
0000
0000
,
0002
0000
0203
0000
,
0320
0000
0000
2030
0000
0000
0000
0000
,
3010
0100
0001
1000
,
0020
0000
0130
0020
0000
0001
0030
0010
,
1000
0000
1000
0100
1000
0000
0001
0010
,
0001
0000
1000
0100
1000
0000
0010
0000
,
1010
0000
0100
0000
1000
0000
0001
1000
,
0100
0000
0100
0010
0000
0010
0000
0010
,
0100
0000
1000
0000
0001
0000
0100
0010
,
0100
0000
0100
0010
0100
0000
0001
0000
,
1000
0000
0010
0000
1000
0100
0010
0000
,
0001
0000
0010
0000
0100
0010
0100
1000
,
0100
0000
1000
0000
0001
0000
0100
0010
,
0100
0000
0001
0010
0000
0010
0000
0010
,
0011
0000
0001
0000
0001
0010
0001
0000
,
0100
0000
0001
0000
0010
0000
0100
0010
,
0001
0000
1000
0000
0100
0010
0100
0000
,
1000
0000
0010
0100
0010
0000
1000
0100
,
1100
0000
1000
0000
1000
0010
1000
0000
,
0010
0000
0100
0000
0001
0010
0100
0000
,
1000
0000
0100
0000
0010
0100
1000
0000
,
0001
0010
0001
0001
0010
0000
0100
0000
,
0110
0000
1000
0000
0001
0100
0001
0000
,
1000
0001
0000
0001
0100
0000
0010
0000
,
0010
0000
1000
0000
0010
0100
0001
0000
,
1000
0100
1000
0100
1000
0000
0010
0000
,
0010
0000
0100
0000
0001
0010
0001
0000
,
1000
0200
0300
0200
0301
0200
0300
0200
,
1300
0100
1000
0001
,
0010
0000
0100
0000
0010
0100
0010
0000
,
0110
0000
0000
0100
0001
0000
1000
0010
,
1000
0000
0000
0010
1000
0010
1000
0001
,
1000
0000
0000
0100
0010
0000
0100
0010
,
0001
0000
0000
0100
0010
0100
1000
0100
,
0010
0000
0000
0100
0001
0000
0001
0100
,
0001
0000
0000
0100
0010
1000
0100
0010
,
0100
0000
0000
0100
0010
0000
0010
0001
,
0100
0000
0001
0100
0001
0010
0100
0000
,
0110
0000
0100
0000
0010
0100
0010
0000
,
0001
0000
1000
0000
0100
0010
0001
0010
,
0100
0000
1000
0100
1000
0000
0001
0100
,
0001
0100
0100
0010
,
0010
0000
1000
0000
0001
0010
0001
0000
,
1000
0000
0010
0000
0100
1000
0100
0010
,
0100
0001
0100
0010
,
1000
1000
0100
0100
0010
0000
0010
0000
,
0020
0000
0230
0000
,
2300
0000
0000
3020
0000
0000
0000
0000
,
0230
0000
0000
0001
0302
0000
0000
0010
,
0023
0000
0000
0031
0000
1000
0000
0001
,
1001
1000
2000
0001
,
0010
0000
0100
0000
0010
0000
0001
3000
,
1001
0000
1000
0000
0001
0010
0100
0000
,
1000
0000
0010
0100
0001
0000
0010
0000
,
0011
0000
0001
0000
0100
0010
0100
0000
,
0001
0020
0030
0020
1030
0020
0030
0020
,
0031
0000
0100
0010
0100
0000
0010
1000
,
0010
0000
1000
0000
1000
0100
1000
0000
,
1100
0000
0000
0000
;

//---------------dance-single - ----------------
#NOTES:
     dance-single:
     X-Scale 4:
     Easy:
     3:
     0.213642,0.263911,0.039987,0.087970,0.000000,187.000000,182.000000,5.000000,11.000000,0.000000,0.000000,0.213642,0.263911,0.039987,0.087970,0.000000,187.000000,182.000000,5.000000,11.000000,0.000000,0.000000:
0000
0000
0000
0000
,
0000
0000
0000
0000
,
2000
0000
0010
0000
,
3020
0000
0000
0001
0000
0000
0000
0000
,
0130
0000
0010
0000
,
1000
0000
0000
0000
0001
0010
0000
0010
,
0100
0000
1000
0000
,
0010
0000
0100
0000
,
0101
0000
0001
0000
,
0100
0000
0000
0001
0000
0001
0000
0001
,
1000
0000
0100
0000
,
0010
0000
0010
0100
,
1000
0000
0100
0010
,
0001
0000
0010
0100
,
1000
0000
0001
0000
,
0100
0000
0000
0010
0000
0010
0000
0010
,
0110
0200
0300
0002
,
0003
0020
0031
1000
,
0010
0000
1000
0000
,
0001
0000
0000
0100
0000
0100
0000
0100
,
0010
2000
3000
0010
,
0020
0030
0001
0010
,
1000
0000
0010
1000
,
0001
0000
0000
0010
0000
0010
0000
0010
,
0011
0000
0001
0100
,
0010
0000
1000
0010
,
1000
0000
0000
0000
0100
0010
0100
0000
,
1000
0001
0000
0001
1000
0000
0010
0000
,
1000
0000
1000
0010
,
1000
0010
0000
0100
0000
0010
0000
0100
,
0001
0000
0000
0010
0100
0000
0000
1000
,
0010
0000
0100
0000
0100
0001
0100
0000
,
0101
0000
0001
0000
,
1000
0000
0001
0010
0000
0010
0000
0010
,
0100
0000
0010
0000
,
0001
0000
0000
0100
0000
0100
0000
0100
,
0010
0000
1000
0000
,
0001
0000
0000
0010
0000
0010
0000
0010
,
0100
0000
0010
0000
,
0001
0000
0000
0100
0000
0100
0000
0100
,
1000
0000
0100
0000
,
0001
1000
0001
0010
,
0100
0000
0010
0000
,
1000
0010
0001
0010
,
0100
0000
1000
0000
,
0001
0000
0010
1000
,
0010
0000
0001
0000
,
1000
0000
0001
0010
0000
0010
0000
0010
,
0002
0000
0100
0000
,
0203
0000
0000
0010
0000
0000
0000
0000
,
0320
0000
1000
0000
,
2030
0000
0000
0001
0000
0000
0000
0000
,
3001
0000
1000
0100
,
0010
0000
0010
0100
,
1000
0000
0000
0000
0100
0010
0100
0000
,
0010
0000
0001
0100
,
0001
0000
1000
0100
,
1000
0100
0000
0010
0000
0100
0000
0010
,
0001
0000
0000
0001
0100
0000
0000
0100
,
0010
0000
1000
0000
1000
0001
1000
0000
,
1001
0000
0000
0000
;

//---------------dance-single - ----------------
#NOTES:
     dance-single:
     X-Scale 2:
     Beginner:
     1:
     0.149664,0.167944,0.071976,0.119960,0.000000,131.000000,122.000000,9.000000,15.000000,0.000000,0.000000,0.149664,0.167944,0.071976,0.119960,0.000000,131.000000,122.000000,9.000000,15.000000,0.000000,0.000000:
0000
0000
0000
0000
,
0000
0000
0000
0000
,
0001
0000
0000
0000
,
1000
0000
0000
0000
,
1001
0000
1000
0000
,
1000
0000
0001
0000
,
0001
0000
0010
0000
,
0100
0000
0010
0000
,
0110
0000
0001
0000
,
0100
0000
0001
0000
,
1000
0000
0100
0000
,
0010
0000
0100
0000
,
1000
0000
0001
0000
,
0100
0000
0010
0000
,
1000
0000
0100
0000
,
0010
0000
0001
0000
,
0011
0002
0003
0020
,
0030
0002
1003
0000
,
0001
0000
0010
0000
,
0100
0000
1000
0000
,
1100
2000
3000
0010
,
2000
3000
0001
0000
,
1000
0000
0010
0000
,
0100
0000
0001
0000
,
0101
0000
0001
0000
,
1000
0000
0100
0000
,
1000
0000
0010
0000
,
1000
0000
0100
0010
,
0100
0000
1000
0000
,
0000
0010
0000
0100
0000
0010
0000
0200
,
0000
0300
0000
0002
0000
0003
0000
0020
,
0000
0030
0100
0000
1000
0000
0100
0000
,
1100
0000
0001
0000
,
1000
0000
0010
0000
,
0100
0000
0001
0000
,
1000
0000
0100
0000
,
0010
0000
0100
0000
,
1000
0000
0001
0000
,
0100
0000
0010
0000
,
0100
0000
0001
0000
,
0101
0000
0100
0000
,
0001
0000
1000
0000
,
0100
0000
0010
0000
,
0001
0000
2000
3000
0002
0003
2000
3000
,
0002
0003
0000
0000
1000
0000
0000
0000
,
0010
0000
0100
0000
,
0001
0000
0100
0000
,
0010
0000
0100
0000
,
0100
0000
0000
0000
,
0010
0000
0000
0000
,
1000
0000
0000
0000
,
0001
0000
0000
0000
,
1001
0000
1000
0000
,
0010
0000
0100
0000
,
0001
0000
1000
0000
,
0010
0000
1000
0000
,
0001
0000
0010
0000
,
0000
0010
0000
0100
0000
0010
0000
0200
,
0000
0300
0000
0002
0000
0003
0000
2000
,
0000
3000
0010
0000
0100
0000
0001
0000
,
0101
0000
0000
0000
;
