#TITLE:Jao Tee Rang;
#SUBTITLE:;
#ARTIST:Blueberry R-siam;
#TITLETRANSLIT:;
#SUBTITLETRANSLIT:;
#ARTISTTRANSLIT:;
#GENRE:T-Pop;
#CREDIT:;
#BANNER:Jao Tee Rang-bn.png;
#BACKGROUND:Jao Tee Rang-bg.png;
#LYRICSPATH:;
#CDTITLE:cdtitle.png;
#MUSIC:Jao Tee Rang.ogg;
#OFFSET:-0.003000;
#SAMPLESTART:57.276001;
#SAMPLELENGTH:14.545000;
#SELECTABLE:YES;
#DISPLAYBPM:132.000000;
#BPMS:0.000000=132.000000
,129.000000=264.000000
,129.500000=132.000000
,129.750000=66.000000
,130.000000=132.000000
,133.000000=264.000000
,133.500000=132.000000
,133.750000=66.000000
,134.000000=132.000000
,137.000000=264.000000
,137.500000=132.000000
,137.750000=66.000000
,138.000000=132.000000
,141.000000=264.000000
,141.500000=132.000000
,141.750000=66.000000
,142.000000=132.000000
,229.000000=264.000000
,229.500000=132.000000
,229.750000=66.000000
,230.000000=132.000000
,233.000000=264.000000
,233.500000=132.000000
,233.750000=66.000000
,234.000000=132.000000
,237.000000=264.000000
,237.500000=132.000000
,237.750000=66.000000
,238.000000=132.000000
,241.000000=264.000000
,241.500000=132.000000
,241.750000=66.000000
,242.000000=132.000000
;
#STOPS:
;
#BGCHANGES:0.000=Jao Tee Rang.avi=1.000=1=0=0=StretchNoLoop==CrossFade==,
99999=-nosongbg-=1.000=0=0=0 // don't automatically add -songbackground-
;
#KEYSOUNDS:;
#ATTACKS:;

//---------------dance-single - ----------------
#NOTES:
     dance-single:
     X-Scale 3:
     Beginner:
     2:
     0.135875,0.188382,0.022119,0.000000,0.000000,129.000000,126.000000,3.000000,0.000000,0.000000,0.000000,0.135875,0.188382,0.022119,0.000000,0.000000,129.000000,126.000000,3.000000,0.000000,0.000000,0.000000:
// measure 0
0000
0000
0000
0000
,  // measure 1
0000
0000
0000
0000
,  // measure 2
0000
0000
0000
0000
,  // measure 3
0000
0000
0000
0000
,  // measure 4
1000
0000
0001
0000
,  // measure 5
1000
0000
0001
0000
,  // measure 6
0010
0000
0100
0000
,  // measure 7
0010
0000
0100
0000
,  // measure 8
1000
0000
0001
0000
,  // measure 9
1000
0000
0100
0000
,  // measure 10
1000
0000
0001
0000
,  // measure 11
0100
0000
0001
0000
,  // measure 12
1000
0000
0010
0000
,  // measure 13
1000
0000
0001
0000
,  // measure 14
0010
0000
0100
0000
,  // measure 15
0010
0000
0001
0000
,  // measure 16
1000
0000
0001
0000
,  // measure 17
0100
0000
0001
0000
,  // measure 18
1000
0000
0100
0000
,  // measure 19
1000
0000
0001
0000
,  // measure 20
0100
0000
0010
0000
,  // measure 21
0100
0000
0001
0000
,  // measure 22
1000
0000
0100
0000
,  // measure 23
0010
0000
0001
0000
,  // measure 24
1000
0000
0001
0000
,  // measure 25
0100
0000
0001
0000
,  // measure 26
1000
0000
0001
0000
,  // measure 27
0010
0000
0100
0000
,  // measure 28
1000
0000
0100
0000
,  // measure 29
0010
0000
0001
0000
,  // measure 30
1000
0000
0001
0000
,  // measure 31
0100
0000
0000
0000
,  // measure 32
0000
0001
0000
0000
,  // measure 33
0000
1000
0000
0000
,  // measure 34
0000
0001
0000
0000
,  // measure 35
0000
1000
0000
0000
,  // measure 36
0100
0000
1000
0000
,  // measure 37
0001
1000
0001
0000
,  // measure 38
0100
0000
0010
1000
,  // measure 39
0010
0000
0000
0000
,  // measure 40
0100
0000
0000
0000
,  // measure 41
0001
0000
1000
0000
,  // measure 42
0001
0000
0000
0000
,  // measure 43
0100
0000
0010
0000
,  // measure 44
0100
0000
0000
0000
,  // measure 45
0001
0000
1000
0000
,  // measure 46
0001
0000
0000
0000
,  // measure 47
0010
0000
0000
0000
,  // measure 48
1001
0000
0100
0000
,  // measure 49
1000
0000
0001
0000
,  // measure 50
0100
0000
0010
0000
,  // measure 51
0100
0000
0001
0000
,  // measure 52
1000
0000
0100
0000
,  // measure 53
0010
0000
0100
0000
,  // measure 54
1000
0000
0001
0000
,  // measure 55
0100
0000
0001
0000
,  // measure 56
1000
0000
0000
0000
,  // measure 57
0000
0001
0000
0000
,  // measure 58
0000
1000
0000
0000
,  // measure 59
0000
0001
0000
0000
,  // measure 60
0000
1000
0000
0000
,  // measure 61
0100
0000
1000
0000
,  // measure 62
0001
1000
0001
0000
,  // measure 63
0100
0000
0001
1000
,  // measure 64
0001
0000
0000
0000
,  // measure 65
1001
0000
0001
0000
,  // measure 66
1000
0000
0001
0000
,  // measure 67
0010
0000
0100
0000
,  // measure 68
0010
0000
0001
0000
,  // measure 69
1000
0000
0001
0000
,  // measure 70
1000
0000
0010
0000
,  // measure 71
1000
0000
0001
0000
,  // measure 72
0010
0000
0001
0000
,  // measure 73
1001
0000
0000
0000
;

//---------------dance-single - ----------------
#NOTES:
     dance-single:
     X-Scale 7:
     Easy:
     5:
     0.315988,0.349851,0.103223,0.058984,0.000000,300.000000,286.000000,14.000000,8.000000,0.000000,0.000000,0.315988,0.349851,0.103223,0.058984,0.000000,300.000000,286.000000,14.000000,8.000000,0.000000,0.000000:
// measure 0
0000
0000
0000
0000
,  // measure 1
0000
0000
0000
0000
,  // measure 2
0000
0000
0000
0000
,  // measure 3
0000
0000
0000
0000
,  // measure 4
0001
0000
0000
1000
0001
0000
0000
0010
,  // measure 5
0100
0000
0000
1000
0100
0000
1000
0000
,  // measure 6
0001
0000
0000
0100
0001
0000
0000
1000
,  // measure 7
0100
0000
1000
0000
,  // measure 8
1001
0001
0000
1000
,  // measure 9
0000
0000
0001
0000
0000
0100
0000
0100
,  // measure 10
0000
0001
0000
0010
,  // measure 11
0000
0000
0100
0000
0000
1000
0000
1000
,  // measure 12
0000
0001
0000
1000
,  // measure 13
0000
0000
0010
0000
0000
0100
0000
0100
,  // measure 14
0000
0001
0000
1000
,  // measure 15
0000
0000
0100
0000
0010
0100
0010
0000
,  // measure 16
0001
1000
0001
0100
,  // measure 17
0001
1000
0100
0000
,  // measure 18
0010
0100
1000
0001
,  // measure 19
1000
0000
0010
0000
0200
0001
0000
0301
,  // measure 20
0100
0001
1000
0001
,  // measure 21
0010
0100
1000
0000
,  // measure 22
0001
1000
0100
1000
,  // measure 23
0001
1000
0200
0010
,  // measure 24
1300
0000
0100
1000
0001
0000
1000
0000
,  // measure 25
0001
0000
0010
0100
1000
0000
0001
0000
,  // measure 26
0100
0000
0010
0100
0001
0000
1000
0000
,  // measure 27
0100
0000
0010
0100
1000
0000
0001
0000
,  // measure 28
1000
0000
0010
1000
0001
0000
0010
0000
,  // measure 29
0100
0000
0010
0100
1000
0000
0001
0000
,  // measure 30
1000
0000
0100
0010
0001
0000
1000
0000
,  // measure 31
1001
0000
1000
0001
,  // measure 32
1000
1001
0010
0100
,  // measure 33
0010
0110
1000
0001
,  // measure 34
1000
1001
0100
0010
,  // measure 35
0100
0110
0001
1000
,  // measure 36
0010
1000
0001
0010
,  // measure 37
0100
1000
0001
1000
,  // measure 38
0100
0010
0001
1000
,  // measure 39
0200
0000
0000
0320
0000
0000
0000
0030
,  // measure 40
0011
0000
0001
1000
0001
0000
0010
0000
,  // measure 41
0100
0000
1000
0100
1000
0000
0001
0000
,  // measure 42
1000
0000
0010
1000
0010
0000
0100
0000
,  // measure 43
0001
0000
1000
0001
1000
0000
0100
0000
,  // measure 44
0010
0000
0001
0010
0001
0000
1000
0000
,  // measure 45
0010
0000
1000
0001
1000
0000
0010
0000
,  // measure 46
0000
1000
0000
0001
,  // measure 47
0000
0000
1000
0000
1000
0002
1000
0000
,  // measure 48
0100
0000
1003
0001
0100
0000
0001
0010
,  // measure 49
0100
0000
1000
0100
1000
0000
0001
0000
,  // measure 50
1000
0000
0100
0010
0001
0000
1000
0001
,  // measure 51
0100
0000
0001
0010
0100
0000
1000
0000
,  // measure 52
0001
0000
0100
0001
1000
0000
0010
0100
,  // measure 53
0001
0000
0010
0100
1000
0000
0001
0000
,  // measure 54
1000
0000
0100
0010
0001
0000
1000
0001
,  // measure 55
0100
0000
0000
0100
0001
0000
0000
0000
,  // measure 56
2000
0000
0100
0000
,  // measure 57
3001
1001
0100
0010
,  // measure 58
0100
0110
0001
1000
,  // measure 59
0001
1001
0100
0010
,  // measure 60
0100
0110
0001
1000
,  // measure 61
0001
0010
0100
0010
,  // measure 62
0001
1000
0100
0010
,  // measure 63
0100
1000
0001
0100
,  // measure 64
0102
0000
0000
2003
0000
0001
0000
3001
,  // measure 65
1001
0000
0100
0000
1000
0001
0000
0001
,  // measure 66
0100
0000
0010
0000
1000
0100
0000
0100
,  // measure 67
0010
0000
0100
0000
1000
0001
0000
0001
,  // measure 68
0100
0000
0001
0000
0010
0100
0000
0100
,  // measure 69
1000
0000
0001
0000
1000
0100
0000
0100
,  // measure 70
0010
0000
0100
0000
1000
0001
0000
0001
,  // measure 71
0100
0000
0001
0000
1000
0100
0000
0100
,  // measure 72
0010
0000
0000
0100
1000
0000
0000
0000
,  // measure 73
1100
0000
0000
0000
;

//---------------dance-single - ----------------
#NOTES:
     dance-single:
     X-Scale 11:
     Medium:
     8:
     0.467662,0.592056,0.265430,0.405518,0.154834,444.000000,408.000000,36.000000,55.000000,0.000000,0.000000,0.467662,0.592056,0.265430,0.405518,0.154834,444.000000,408.000000,36.000000,55.000000,0.000000,0.000000:
// measure 0
0000
0000
0000
0000
,  // measure 1
0000
0000
0000
0000
,  // measure 2
0000
0000
0000
0000
,  // measure 3
0000
0000
0000
0000
,  // measure 4
1001
0000
1000
0000
0001
0010
0100
0000
,  // measure 5
1000
0000
0010
0000
1000
0100
0010
0000
,  // measure 6
0001
0000
1000
0000
0001
1000
0010
0000
,  // measure 7
1010
0000
0000
0110
0000
0000
0011
0000
1001
0000
0000
0000
0000
0000
0000
0000
,  // measure 8
1001
0000
1000
0000
0001
0000
1000
0100
,  // measure 9
0100
0000
0010
0100
2000
0000
3001
0000
,  // measure 10
0100
0000
0001
0000
0010
0100
1000
0000
,  // measure 11
0001
0000
1000
0001
0200
0000
0301
0000
,  // measure 12
0100
0000
0001
0000
0010
0100
1000
0000
,  // measure 13
0001
0000
1000
0100
0020
0000
1030
0010
,  // measure 14
0001
1000
0001
0010
0100
0000
1000
0001
,  // measure 15
0100
0000
0001
0010
0200
0000
0300
0000
,  // measure 16
1100
0000
0000
0000
1000
0000
0001
0000
1000
0000
0000
0100
0010
0000
0100
0000
,  // measure 17
1000
0000
0000
0000
0001
0000
0000
0000
1000
0000
0001
0100
0000
0001
0100
0000
,  // measure 18
0001
0000
0000
0000
1000
0000
0100
0000
1000
0000
0000
0010
0100
0000
0010
0000
,  // measure 19
1000
0000
0100
0010
0002
0000
0103
0001
,  // measure 20
1000
0000
0000
0000
0001
0000
0010
0000
0100
0000
0000
0010
0100
0000
0010
0000
,  // measure 21
0001
0000
0000
0000
1000
0000
0000
0000
0001
0000
1000
0100
0000
1000
0100
0000
,  // measure 22
0010
0000
0000
0000
0100
0000
0010
0000
0001
0000
0000
0001
1000
0000
0010
0000
,  // measure 23
1000
0000
0010
0100
0002
0000
1003
0000
,  // measure 24
1001
0000
0001
0100
0001
0000
1000
0000
,  // measure 25
0100
0000
1000
0001
1000
0000
0100
0000
,  // measure 26
0010
0000
0001
0100
0001
0000
0010
0000
,  // measure 27
0100
0000
1000
0100
1000
0000
0001
0000
,  // measure 28
0100
0000
0010
0100
0010
0000
1000
0000
,  // measure 29
0001
0000
0100
0001
0100
0000
0010
0000
,  // measure 30
1000
0000
0010
1000
0010
0000
0100
0000
,  // measure 31
2001
0000
3200
0302
,  // measure 32
0203
0000
0300
0000
2200
0000
0000
3300
0002
0000
0000
0000
0023
0000
0000
0000
,  // measure 33
0230
0000
0300
0000
2002
0000
0000
3003
0020
0000
0000
0000
0032
0000
0000
0000
,  // measure 34
0203
0000
0300
0000
2020
0000
0000
3030
0002
0000
0000
0000
1003
0010
0000
0000
,  // measure 35
2020
0000
3030
0000
0022
0000
0000
0033
0001
0000
0000
0000
0010
0000
0100
0000
,  // measure 36
1000
0000
0010
0000
1000
0001
0100
0001
,  // measure 37
1000
0000
0100
0100
0010
0000
0001
0010
,  // measure 38
0100
0000
1000
1000
0001
0000
0100
0000
,  // measure 39
0102
0000
0000
2003
0000
0010
0000
3010
,  // measure 40
1010
1000
0001
0000
0100
0001
1000
0000
,  // measure 41
0001
0000
0000
0010
0000
0000
1000
0000
0010
0000
0000
0100
0000
0000
1000
0000
,  // measure 42
0001
0000
0100
0001
1000
0000
0100
0010
,  // measure 43
0001
0000
0000
0100
0000
0000
1000
0000
0200
0000
0000
0000
0010
0000
0000
0000
,  // measure 44
0301
0100
0001
0000
1000
0100
1000
0000
,  // measure 45
0010
0100
0010
0000
1000
0100
1000
0000
,  // measure 46
0001
0101
1000
1100
,  // measure 47
0100
0000
0000
1000
0000
0000
0001
0000
0000
0000
2002
0000
0000
0000
3003
0000
,  // measure 48
0110
0000
0000
0100
0001
0000
1000
0000
0001
0000
0000
0010
0100
0000
1000
0000
,  // measure 49
0001
0000
0000
1000
0010
0000
1000
0000
0001
0000
0010
0000
1000
0000
0010
0000
,  // measure 50
0001
0000
0000
0100
0001
0000
1000
0000
0100
0000
0000
0010
0100
0000
1000
0000
,  // measure 51
0001
0000
0000
0100
0010
0000
0100
0000
0001
0000
0100
0000
1000
0000
0100
0000
,  // measure 52
0001
0000
0000
1000
0001
0000
1000
0000
0100
0000
0000
0010
0001
0000
1000
0000
,  // measure 53
0001
0000
0000
0100
0010
0000
1000
0000
0001
0000
0100
0000
1000
0000
0100
0000
,  // measure 54
0001
0000
0000
0010
0100
0000
1000
0000
0001
0000
0000
1000
0010
0000
1000
0000
,  // measure 55
1010
0000
0000
0011
0000
0000
0101
0000
1001
0000
0000
0000
0000
0000
0000
0000
,  // measure 56
2001
0000
3002
0023
,  // measure 57
0230
0000
0300
0000
2200
0000
0000
3300
0002
0000
0000
0000
2003
0000
0000
0000
,  // measure 58
3020
0000
0030
0000
2002
0000
0000
3003
0200
0000
0000
0000
2300
0000
0000
0000
,  // measure 59
3002
0000
0003
0000
0022
0000
0000
0033
2000
0000
0000
0000
3001
0100
0000
0000
,  // measure 60
0202
0000
0303
0000
2200
0000
0000
3300
1000
0000
0000
0000
0010
0000
0100
0000
,  // measure 61
0001
0000
0010
0000
0100
0010
0001
1000
,  // measure 62
0001
0000
0100
0100
0001
0000
0010
0100
,  // measure 63
1000
0000
0001
0001
1000
0001
0100
0010
,  // measure 64
2000
0000
0000
3002
0000
0010
0000
0013
,  // measure 65
0011
0000
0000
0001
0100
0000
0001
0000
1000
0000
0100
0000
0001
0000
0100
0000
,  // measure 66
1000
0000
0000
0001
0010
0000
0100
0000
1000
0000
0001
1000
0001
0000
1000
0010
,  // measure 67
1000
0000
0000
0100
0010
0000
0100
0000
1000
0000
0010
0000
0001
0000
0010
0000
,  // measure 68
1000
0000
0000
0001
0010
0000
0001
0000
1000
0000
0010
0100
0010
0000
1000
0100
,  // measure 69
1000
0000
0000
0001
0100
0000
0001
0000
1000
0000
0100
0000
0001
0000
0100
0000
,  // measure 70
1000
0000
0000
0100
0010
0000
0001
0000
1000
0000
0001
0100
0001
0000
0100
0010
,  // measure 71
0100
0000
0000
0001
1000
0000
0001
0000
0010
0000
0000
0100
1000
0000
0001
0000
,  // measure 72
1001
0000
0000
0110
0000
0000
1100
0000
0101
0000
0001
0000
1000
0000
0001
0000
,  // measure 73
1001
0000
0000
0000
;

//---------------dance-single - ----------------
#NOTES:
     dance-single:
     X-Scale 13:
     Hard:
     9:
     0.549819,0.672791,0.294922,0.280176,0.350220,522.000000,482.000000,40.000000,38.000000,0.000000,0.000000,0.549819,0.672791,0.294922,0.280176,0.350220,522.000000,482.000000,40.000000,38.000000,0.000000,0.000000:
// measure 0
0000
0000
0000
0000
,  // measure 1
0000
0000
0000
0000
,  // measure 2
0000
0000
0000
0000
,  // measure 3
0000
0000
0000
0000
,  // measure 4
1100
0000
0000
0100
0000
0000
1000
0000
0001
0000
0000
0100
0000
0000
0010
0000
,  // measure 5
0100
0000
0000
0001
0000
0000
0010
0000
0100
0000
1000
0000
0001
0000
1000
0000
,  // measure 6
0100
0000
0000
0010
0000
0000
0001
0000
1000
0000
0000
0010
0000
0000
1000
0000
,  // measure 7
1010
0000
0000
0110
0000
0000
0011
0000
0101
0000
0000
0000
0000
0000
0000
0000
,  // measure 8
1001
0000
0000
0000
1000
0000
0001
0000
0100
0000
0000
0100
0001
0000
1000
0000
,  // measure 9
1000
0001
0100
0001
0020
0000
1030
0010
,  // measure 10
0001
0000
0000
0000
1000
0000
0001
0000
0100
0000
0000
0100
0001
0000
1000
0000
,  // measure 11
0001
0100
0010
0100
0002
0000
1003
0001
,  // measure 12
1000
0000
0000
0000
0100
0000
1000
0000
0001
0000
0000
0010
0100
0000
0010
0000
,  // measure 13
0001
1000
0010
1000
0200
0000
0301
2000
,  // measure 14
0000
3010
0001
0100
1000
0100
0010
0001
,  // measure 15
0010
0000
1000
0000
0010
0000
0100
0000
0001
0100
0001
0100
0001
0000
1000
0100
,  // measure 16
1000
0000
0000
0000
1001
0000
0100
0000
0001
0000
0000
1000
0001
0000
1000
0000
,  // measure 17
0100
0000
0000
0000
1000
0000
0001
0000
0101
0000
1000
0001
0000
1000
0001
0000
,  // measure 18
1000
0000
0000
0000
1001
0000
0001
0000
0100
0000
0000
0001
0010
0000
1000
0000
,  // measure 19
0010
0100
1000
0010
1002
0000
0103
0010
,  // measure 20
1000
0000
0000
0000
0101
0000
0100
0000
0001
0000
0000
1000
0100
0000
0010
0000
,  // measure 21
0100
0000
1000
0001
0010
0000
0100
0000
1100
0000
0001
1000
0000
0001
1000
0000
,  // measure 22
1010
0000
1000
0001
1000
0000
0100
0000
1000
0000
0001
0000
0100
0000
0001
0000
,  // measure 23
0010
0000
0100
0010
0001
0000
1000
0000
0100
0000
1000
0000
1000
0000
0001
0000
,  // measure 24
1001
0000
0000
0100
0000
0000
0001
0000
1000
0000
0000
0001
0010
0000
0001
0000
,  // measure 25
1000
0000
0000
0100
0000
0000
0010
0000
0002
0000
0000
0000
1003
0000
0001
0000
,  // measure 26
0100
0000
0000
0010
0000
0000
0001
0000
0010
0000
0000
1000
0001
0000
1000
0000
,  // measure 27
0100
0000
0000
1000
0000
0000
0001
0000
0020
0000
0000
0000
1030
0000
0010
0000
,  // measure 28
0001
0000
0000
0100
0000
0000
0010
0000
0100
0000
0000
0001
1000
0000
0010
0000
,  // measure 29
1000
0000
0000
0100
0000
0000
0010
0000
0002
0000
0000
0000
1003
0000
0100
0000
,  // measure 30
0001
0000
1000
0010
0001
0100
1000
0100
,  // measure 31
0002
0000
0000
0000
0000
0000
0000
0000
0003
0000
0001
1000
0001
0000
0100
0000
,  // measure 32
0010
0000
0000
0000
2002
0000
0000
3003
0100
0000
0000
0000
0001
0000
1000
0000
,  // measure 33
0100
0000
0000
0000
2200
0000
0000
3300
0001
0000
0000
0000
1000
0000
0100
0000
,  // measure 34
0010
0000
0000
0000
0220
0000
0000
0330
0001
0000
0000
0000
1000
0001
0000
0000
,  // measure 35
0010
0000
0000
0000
0202
0000
0000
0303
1000
0000
0000
0000
2002
0000
3003
0000
,  // measure 36
0010
0000
0000
0001
1000
0000
0001
0000
0100
0000
0000
0100
0001
0000
1000
0000
,  // measure 37
1100
0000
0000
0000
0110
0000
0001
0000
0101
0000
0000
0001
1000
0000
0010
0000
,  // measure 38
0001
0010
1000
1000
0001
1000
0010
1000
,  // measure 39
1010
0000
0000
0000
0001
1000
0010
1000
0000
0100
0010
0001
1000
0000
0001
0000
,  // measure 40
1001
0000
1000
0010
0001
0000
1000
0100
,  // measure 41
0001
0000
0000
0100
0000
0000
0010
0000
1000
0000
0000
0100
0000
0000
0010
0000
,  // measure 42
0001
0000
0100
0010
0001
0000
1000
0100
,  // measure 43
0010
0000
0000
1000
0000
0000
0001
0000
0000
1000
0001
1000
0001
1000
0001
1000
,  // measure 44
0001
0000
0100
0001
1000
0000
0100
0010
,  // measure 45
0001
0000
1000
0001
0100
0000
0001
0010
,  // measure 46
0100
1100
0000
0101
,  // measure 47
0200
0000
0000
0302
0000
0000
2003
0000
0000
3000
0001
1000
0001
1000
0001
1000
,  // measure 48
0001
0000
0000
0010
0000
0000
0100
0000
0100
0000
0000
1000
0001
0000
1000
0000
,  // measure 49
0100
0000
0000
0010
0000
0000
0001
0000
0100
0000
0001
0000
2000
0000
0000
0000
,  // measure 50
3001
0000
0000
1000
0000
0000
0100
0000
0100
0000
0000
0010
0100
0000
1000
0000
,  // measure 51
0001
0000
0000
0010
0000
0000
1000
0000
0010
0000
0001
0000
0200
0000
0000
0000
,  // measure 52
0301
0000
0000
1000
0000
0000
0100
0000
0100
0000
0000
0010
0100
0000
0010
0000
,  // measure 53
0001
0000
0000
1000
0000
0000
0010
0000
0100
0000
0001
0000
0020
0000
0000
0000
,  // measure 54
0031
0000
0000
1000
0000
0000
0001
0000
0001
0000
0000
0010
0100
0000
1000
0000
,  // measure 55
1100
0000
0000
0110
0000
0000
0101
0000
1001
0000
0000
0000
0000
0000
0000
0000
,  // measure 56
0100
0001
0100
0001
0100
0001
0100
0001
1000
0100
1000
0100
1000
0100
1000
0100
,  // measure 57
1000
0000
0000
0000
2002
0000
0000
3003
0001
0000
0000
0000
1000
0000
0100
0000
,  // measure 58
0010
0000
0000
0000
0022
0000
0000
0033
0001
0000
0000
0000
0010
0000
0100
0000
,  // measure 59
1000
0000
0000
0000
2020
0000
0000
3030
0001
0000
0000
0000
1000
0001
0000
0000
,  // measure 60
0100
0000
0000
0000
0202
0000
0000
0303
0001
0000
1000
0000
2200
0000
3300
0000
,  // measure 61
0001
0000
0000
1000
0001
0000
0010
0000
0001
0000
0000
0000
1000
0000
0000
0000
,  // measure 62
0100
0000
0000
0000
0010
0000
0010
0000
0010
0000
0000
0100
1000
0000
0001
0000
,  // measure 63
1000
0100
0010
0010
0001
0010
0100
1000
,  // measure 64
1000
0001
1000
0010
0000
0100
0001
1000
0001
0000
0010
0100
1000
0000
0001
0000
,  // measure 65
1001
0000
0000
1000
0100
0000
1000
0000
0001
0000
0000
0010
0000
0000
0100
0000
,  // measure 66
1000
0000
0000
0100
0010
0000
0001
0000
1000
0000
0010
0000
0200
0000
0000
0000
,  // measure 67
1300
0000
0000
0100
0010
0000
1000
0000
0001
0000
0000
1000
0000
0000
0100
0000
,  // measure 68
0001
0000
0000
0100
0010
0000
0100
0000
1000
0000
0001
0000
0200
0000
0300
0000
,  // measure 69
0101
0000
0000
1000
0001
0000
1000
0000
0010
0000
0000
0100
0000
0000
0001
0000
,  // measure 70
0010
0000
0000
0100
0010
0000
0001
0000
0100
0000
0001
0000
0020
0000
0000
0000
,  // measure 71
0130
0000
0000
1000
0100
0000
1000
0000
0001
0000
0000
0010
0000
0000
0100
0000
,  // measure 72
0110
0000
0000
1001
0000
0000
1100
0000
1000
0100
0010
0001
0100
0010
1000
0001
,  // measure 73
1000
0000
0000
0000
;
