#VERSION:0.83;
#TITLE:J*zz from a Rose;
#SUBTITLE:;
#ARTIST:Funhaus;
#TITLETRANSLIT:;
#SUBTITLETRANSLIT:;
#ARTISTTRANSLIT:;
#GENRE:Parody and Blues;
#ORIGIN:;
#CREDIT:;
#BANNER:jfar-bn.png;
#BACKGROUND:jfar-bg.png;
#PREVIEWVID:;
#JACKET:jfar-jacket.png;
#CDIMAGE:;
#DISCIMAGE:;
#LYRICSPATH:;
#CDTITLE:cdtitle_fh.png;
#MUSIC:jfar.ogg;
#OFFSET:0.000000;
#SAMPLESTART:21.344000;
#SAMPLELENGTH:12.000000;
#SELECTABLE:YES;
#DISPLAYBPM:132.000000;
#BPMS:0.000=132.000,
91.500=66.000,
93.000=132.000;
#STOPS:;
#DELAYS:;
#WARPS:;
#TIMESIGNATURES:0.000=4=4;
#TICKCOUNTS:0.000=4;
#COMBOS:0.000=1;
#SPEEDS:0.000=1.000=0.000=0;
#SCROLLS:0.000=1.000,
89.500=2.000,
89.625=0.500,
90.500=2.000,
90.625=0.500,
91.500=2.000,
91.625=1.000,
92.500=1.200,
92.625=1.400,
92.750=1.600,
92.875=1.800,
93.000=1.000;
#FAKES:;
#LABELS:0.000=Song Start;
#BGCHANGES:0.000=jfar.mp4=1.000=1=0=1===CrossFade==,
133.500=jfar-bg.png=1.000=1=0=1===CrossFade==,
99999=-nosongbg-=1.000=0=0=0 // don't automatically add -songbackground-
;
#KEYSOUNDS:;
#ATTACKS:
;

//---------------dance-single - ----------------
#NOTEDATA:;
#CHARTNAME:;
#STEPSTYPE:dance-single;
#DESCRIPTION:;
#CHARTSTYLE:;
#DIFFICULTY:Medium;
#METER:5;
#RADARVALUES:0.294982,0.406979,0.113812,0.325177,0.048777,127.000000,120.000000,7.000000,20.000000,0.000000,0.000000,0.000000,0.000000,0.000000,0.294982,0.406979,0.113812,0.325177,0.048777,127.000000,120.000000,7.000000,20.000000,0.000000,0.000000,0.000000,0.000000,0.000000;
#CREDIT:;
#DISPLAYBPM:132.000000;
#NOTES:
// measure 0
0000
0000
0000
0000
,  // measure 1
0000
0000
0000
0000
,  // measure 2
0000
0000
0000
0000
,  // measure 3
0000
0000
1000
0100
,  // measure 4
0000
1000
0001
0001
,  // measure 5
1000
0020
0000
0000
,  // measure 6
0030
0000
0000
0000
0000
0000
1000
0001
,  // measure 7
1000
0000
0001
1000
,  // measure 8
0010
0000
0100
0000
0010
0000
1000
1000
,  // measure 9
0001
0000
0000
0001
0100
0000
0100
0000
,  // measure 10
0000
0000
0010
0100
0020
0000
0000
0000
,  // measure 11
0030
0100
0001
0000
0000
0000
0001
0000
,  // measure 12
0010
0000
0100
0000
1000
0010
0000
0000
,  // measure 13
0100
0000
0000
0000
0001
0000
0010
0002
0000
0000
0000
0000
0200
0000
0003
0000
,  // measure 14
0000
0000
0310
0000
0000
1000
0001
0000
,  // measure 15
0100
0000
0010
1000
0001
1000
0010
0000
,  // measure 16
0010
0100
0100
0010
,  // measure 17
0001
0010
0000
0000
0100
0000
0000
0001
,  // measure 18
0010
0100
0000
0000
0010
0100
1000
0000
,  // measure 19
0000
0000
0000
0000
0000
0100
0000
0010
0000
0100
0000
0000
0000
0000
0000
0000
,  // measure 20
1000
0000
1000
0001
0000
0010
0000
0100
,  // measure 21
0000
1000
0000
0200
0000
1000
0000
0310
,  // measure 22
0000
1000
0000
1001
0000
0110
0000
2002
,  // measure 23
0000
0000
0000
3003
1000
0000
0001
1000
0001
0000
0100
0000
0010
0000
0100
0000
,  // measure 24
0002
0000
2003
0000
3100
0010
0002
0000
,  // measure 25
2003
0000
0000
0000
3010
0000
0000
0100
0000
0000
0000
0000
0100
0000
0010
0000
,  // measure 26
1000
1001
0100
0001
,  // measure 27
0011
0020
0031
0002
,  // measure 28
1003
0000
0001
1000
2001
0000
3000
1000
,  // measure 29
0100
0000
1000
0000
0001
0000
0010
2000
,  // measure 30
0000
0000
3020
0000
0000
0031
0002
0000
,  // measure 31
0003
0000
0010
0001
0011
0000
0001
0000
,  // measure 32
0200
0000
0000
0301
0000
0020
0000
0000
,  // measure 33
0230
0000
0000
0300
0000
0000
0000
0000
;

//---------------dance-single - ----------------
#NOTEDATA:;
#CHARTNAME:;
#STEPSTYPE:dance-single;
#DESCRIPTION:;
#CHARTSTYLE:;
#DIFFICULTY:Easy;
#METER:2;
#RADARVALUES:0.190461,0.241444,0.178847,0.211365,0.016259,82.000000,71.000000,11.000000,13.000000,0.000000,0.000000,0.000000,0.000000,0.000000,0.190461,0.241444,0.178847,0.211365,0.016259,82.000000,71.000000,11.000000,13.000000,0.000000,0.000000,0.000000,0.000000,0.000000;
#CREDIT:;
#DISPLAYBPM:132.000000;
#NOTES:
// measure 0
0000
0000
0000
0000
,  // measure 1
0000
0000
0000
0000
,  // measure 2
0000
0000
0000
0000
,  // measure 3
0000
0000
0000
0200
,  // measure 4
0000
0000
0302
0000
,  // measure 5
0000
2003
0000
0000
,  // measure 6
3000
0000
0000
1000
,  // measure 7
0000
0000
0100
0000
,  // measure 8
0000
1000
0010
0100
,  // measure 9
0001
0000
0000
1000
,  // measure 10
0000
0000
0001
0010
0002
0000
0000
0000
,  // measure 11
0003
1000
0001
0000
0000
0000
0001
0000
,  // measure 12
0100
0010
1000
0000
,  // measure 13
0100
0000
0010
0020
,  // measure 14
0000
0000
0030
0000
0002
0000
0000
0003
,  // measure 15
0100
0020
0000
0030
0000
0000
1000
0000
,  // measure 16
0010
0001
0010
1000
,  // measure 17
0000
1000
0000
0000
0010
0000
0000
1000
,  // measure 18
0000
1000
0000
0000
0001
0000
0001
0000
,  // measure 19
0000
0000
0000
0000
0000
0100
0000
0000
0000
0100
0000
0000
0000
0000
0000
0000
,  // measure 20
0010
0000
0010
1000
0000
0100
0000
0010
,  // measure 21
0000
0001
0000
0200
0000
0000
0000
0300
,  // measure 22
0000
0000
0000
0110
0000
0110
0000
0220
,  // measure 23
0000
0330
0000
0010
,  // measure 24
1001
0000
0000
0110
,  // measure 25
0000
0000
1010
0000
,  // measure 26
0000
1001
1000
0001
,  // measure 27
1001
0000
0000
0010
,  // measure 28
0000
0000
0011
0000
,  // measure 29
0100
0000
0001
0000
0001
0000
1000
2000
,  // measure 30
0000
0000
3200
0000
0300
0100
0020
0000
,  // measure 31
0030
0010
0110
0100
,  // measure 32
0000
0010
0000
0000
,  // measure 33
0110
0000
0000
0000
;

//---------------dance-single - ----------------
#NOTEDATA:;
#CHARTNAME:;
#STEPSTYPE:dance-single;
#DESCRIPTION:;
#CHARTSTYLE:;
#DIFFICULTY:Hard;
#METER:7;
#RADARVALUES:0.371631,0.461243,0.146330,0.325177,0.121941,160.000000,151.000000,9.000000,20.000000,8.000000,0.000000,0.000000,0.000000,0.000000,0.371631,0.461243,0.146330,0.325177,0.121941,160.000000,151.000000,9.000000,20.000000,8.000000,0.000000,0.000000,0.000000,0.000000;
#CREDIT:;
#DISPLAYBPM:132.000000;
#NOTES:
// measure 0
0000
0000
0000
0000
,  // measure 1
0000
0000
0000
0000
,  // measure 2
0000
0000
0000
0000
,  // measure 3
0000
0000
0000
0000
1000
0100
1000
0000
,  // measure 4
0000
0001
0010
0000
0100
0000
0010
0000
,  // measure 5
0100
0020
0100
1000
,  // measure 6
0130
0000
0000
0000
0000
0000
0100
0010
,  // measure 7
0100
0000
0000
0000
1000
0010
1000
0100
,  // measure 8
0010
0001
0100
0000
0010
0000
1000
0001
,  // measure 9
1000
0000
0000
0001
0010
0000
0100
0000
,  // measure 10
0100
1000
1000
0010
0200
0000
0000
000M
,  // measure 11
0300
0M00
0010
0000
010M
0000
0000
M000
0000
0000
0M00
0000
0001
0000
0000
0000
,  // measure 12
0010
0000
0100
0000
1000
0010
1000
0000
,  // measure 13
0001
0000
0000
0000
0001
0000
0010
0002
0000
0000
0000
0000
0200
0000
0003
0000
,  // measure 14
0001
0000
0001
0000
0301
0000
0100
0000
0010
0000
1000
0000
0001
1000
0000
0000
,  // measure 15
0010
0100
0000
0000
0010
0000
0100
0000
0001
0000
1000
0000
1000
0000
0000
0000
,  // measure 16
0001
0000
0001
0010
0001
0000
0100
0000
,  // measure 17
0001
1000
0010
0000
0010
0000
0000
1000
,  // measure 18
0001
0000
0100
0000
0000
0000
0000
0000
0001
0000
1000
00M0
0010
0M00
0000
00M0
,  // measure 19
0000
0000
0000
0000
0000
0100
0000
0010
0000
0100
0000
0000
0000
0000
0000
0000
,  // measure 20
0001
0000
0001
1000
0000
0100
0000
0010
,  // measure 21
0000
0001
0000
2000
0000
0001
0010
3001
,  // measure 22
1000
0001
0000
1010
0000
0101
0000
0220
,  // measure 23
0000
0000
0000
0330
0100
0000
0001
1000
0001
0000
0100
0000
0010
0000
0100
0000
,  // measure 24
0002
0000
2003
0000
3100
0010
0002
0000
,  // measure 25
2003
0000
0000
0000
3010
0000
0000
0100
0200
0000
0300
0000
0100
0000
0010
0000
,  // measure 26
1000
0000
0000
0000
1001
0000
0001
0010
0001
0000
1000
0000
0100
0000
1000
0000
,  // measure 27
0101
0000
0002
0000
0013
0100
0020
0000
,  // measure 28
0130
0000
0001
1000
1010
0000
0100
0010
,  // measure 29
0100
0000
0010
0000
0100
0000
0001
2000
,  // measure 30
0001
0000
3020
0000
0000
0130
0102
0000
,  // measure 31
0003
0001
0100
0000
0110
0000
0010
1000
,  // measure 32
0200
0000
0000
0000
1000
0000
0300
0000
0000
0000
0100
0000
0000
0010
0000
0000
,  // measure 33
0220
0000
0000
0330
0000
0000
0000
0000
;
