#VERSION:0.83;
#TITLE:It's You;
#SUBTITLE:;
#ARTIST:Ninajirachi & daine;
#TITLETRANSLIT:;
#SUBTITLETRANSLIT:;
#ARTISTTRANSLIT:;
#GENRE:Electro House;
#ORIGIN:;
#CREDIT:;
#BANNER:It's You-bn.png;
#BACKGROUND:It's You-bg.png;
#PREVIEWVID:;
#JACKET:It's You-jacket.png;
#CDIMAGE:;
#DISCIMAGE:;
#LYRICSPATH:;
#CDTITLE:cdtitle.png;
#MUSIC:It's You.ogg;
#OFFSET:-0.002000;
#SAMPLESTART:44.310001;
#SAMPLELENGTH:14.769000;
#SELECTABLE:YES;
#BPMS:0.000=130.000;
#STOPS:;
#DELAYS:;
#WARPS:;
#TIMESIGNATURES:0.000=4=4;
#TICKCOUNTS:0.000=4;
#COMBOS:0.000=1;
#SPEEDS:0.000=1.000=0.000=0;
#SCROLLS:0.000=1.000;
#FAKES:;
#LABELS:0.000=Song Start;
#BGCHANGES:;
#KEYSOUNDS:;
#ATTACKS:
;

//---------------dance-single - ----------------
#NOTEDATA:;
#CHARTNAME:X-Scale 6;
#STEPSTYPE:dance-single;
#DESCRIPTION:;
#CHARTSTYLE:;
#DIFFICULTY:Easy;
#METER:4;
#RADARVALUES:0.258257,0.352003,0.071675,0.183169,0.000000,227.000000,218.000000,9.000000,23.000000,0.000000,0.000000,0.000000,0.000000,0.000000,0.258257,0.352003,0.071675,0.183169,0.000000,227.000000,218.000000,9.000000,23.000000,0.000000,0.000000,0.000000,0.000000,0.000000;
#CREDIT:iamthek3n;
#NOTES:
// measure 0
0000
0000
0000
0000
,  // measure 1
0000
0000
0000
0000
,  // measure 2
0000
0000
0000
0000
,  // measure 3
0000
0000
0000
0000
,  // measure 4
0000
0000
0000
0000
,  // measure 5
0000
0000
0000
0000
,  // measure 6
0000
0000
0000
0000
,  // measure 7
0000
0000
0000
0000
,  // measure 8
1100
0000
1000
0000
,  // measure 9
0100
0000
0000
2000
0000
3002
0000
0203
,  // measure 10
0001
0000
0010
0000
,  // measure 11
0001
0000
0310
0000
,  // measure 12
0100
0000
0001
0000
,  // measure 13
1000
0000
0000
0000
0001
0000
0000
0200
,  // measure 14
0000
0302
0000
0000
0100
0000
0000
0000
,  // measure 15
1000
0000
0000
0000
0100
0000
0000
0003
,  // measure 16
0101
0000
0001
0000
,  // measure 17
1000
0000
0100
0000
,  // measure 18
1000
0000
0001
0000
,  // measure 19
1000
0000
0000
0000
0100
0000
0000
0020
,  // measure 20
0000
0032
0010
0000
0000
0000
0010
0000
,  // measure 21
0000
1000
0000
1003
,  // measure 22
0000
0002
0000
2000
,  // measure 23
0000
0000
3003
0000
,  // measure 24
1001
1000
0100
1000
,  // measure 25
0001
0100
0001
1000
,  // measure 26
0100
0010
0100
1000
,  // measure 27
0001
0100
0001
1000
,  // measure 28
0001
0010
0100
0010
,  // measure 29
0001
1000
0100
0010
,  // measure 30
0100
1000
0001
0100
,  // measure 31
0010
1000
0000
1000
,  // measure 32
1001
0000
0001
0100
0001
0000
1000
0000
,  // measure 33
0100
0000
0010
0100
0010
0000
0001
0000
,  // measure 34
1000
0001
0100
0001
,  // measure 35
1000
0100
0010
0100
,  // measure 36
1000
0000
0001
0100
0001
0000
1000
0000
,  // measure 37
0001
0000
1000
0100
1000
0000
0001
0000
,  // measure 38
0100
0001
1000
0001
,  // measure 39
0010
0100
0010
0001
,  // measure 40
1000
0000
0010
1000
0001
0000
0010
0000
,  // measure 41
0100
0000
0010
0100
1000
0000
0001
0000
,  // measure 42
1000
0100
1000
0001
,  // measure 43
0100
0000
0001
0010
0100
0000
0010
0000
,  // measure 44
0020
0000
0001
0000
,  // measure 45
0032
0000
1000
0000
,  // measure 46
1003
0000
0001
0000
,  // measure 47
0100
0100
0010
0010
,  // measure 48
0110
0000
0100
0001
1000
0000
0100
0010
,  // measure 49
0001
1000
0001
0010
,  // measure 50
0100
0000
1000
0000
0001
0100
0010
0000
,  // measure 51
0100
0001
1000
0100
,  // measure 52
0010
0000
0100
0000
1000
0001
0100
0000
,  // measure 53
0001
0000
0010
0000
0100
0010
0001
0000
,  // measure 54
1000
0000
0001
0000
0010
0100
1000
0000
,  // measure 55
1100
0001
0000
0001
,  // measure 56
1001
0000
1000
0001
0100
0000
0010
0100
,  // measure 57
0001
0000
0010
0100
1000
0000
0001
0000
,  // measure 58
1000
0000
0010
0000
0100
0010
1000
0000
,  // measure 59
0001
0010
0100
0010
,  // measure 60
0001
0000
1000
0000
0001
0100
0001
0000
,  // measure 61
1000
0000
0100
0000
1000
0001
1000
0000
,  // measure 62
0001
0000
0100
0000
0010
0100
0010
0000
,  // measure 63
1000
1010
0000
0011
,  // measure 64
0002
2000
3000
2000
,  // measure 65
3003
2000
3200
0320
,  // measure 66
0032
2003
3000
2000
,  // measure 67
3002
0003
0200
0002
,  // measure 68
0303
0000
0000
0000
;

//---------------dance-single - ----------------
#NOTEDATA:;
#CHARTNAME:X-Scale 11;
#STEPSTYPE:dance-single;
#DESCRIPTION:;
#CHARTSTYLE:;
#DIFFICULTY:Medium;
#METER:8;
#RADARVALUES:0.438013,0.568621,0.151314,0.254844,0.139368,385.000000,366.000000,19.000000,32.000000,0.000000,0.000000,0.000000,0.000000,0.000000,0.438013,0.568621,0.151314,0.254844,0.139368,385.000000,366.000000,19.000000,32.000000,0.000000,0.000000,0.000000,0.000000,0.000000;
#CREDIT:iamthek3n;
#NOTES:
// measure 0
0000
0000
0000
0000
,  // measure 1
0000
0000
0000
0000
,  // measure 2
0000
0000
0000
0000
,  // measure 3
0000
0000
0000
0000
,  // measure 4
0000
0000
0000
0000
,  // measure 5
0000
0000
0000
0000
,  // measure 6
0000
0000
0000
0000
,  // measure 7
0000
0000
0000
0000
,  // measure 8
1001
0000
1000
0000
0001
0000
0100
0020
,  // measure 9
0000
0000
0000
2030
0000
3002
0000
0203
,  // measure 10
0001
1000
0001
0010
,  // measure 11
0001
0000
1000
0000
0301
0100
0001
0000
,  // measure 12
2000
0010
0001
3200
,  // measure 13
0320
0000
0100
0000
0001
0000
0130
0020
,  // measure 14
0000
0032
0010
0000
1000
0000
0100
0000
,  // measure 15
1000
0000
0010
0000
1000
0000
0200
0303
,  // measure 16
0101
0000
0001
0000
1000
0000
0100
0020
,  // measure 17
0001
0000
1000
0000
0100
0000
0031
2000
,  // measure 18
0000
3200
0010
0000
1000
0000
0310
0100
,  // measure 19
0001
0000
0101
0000
1000
0000
1001
0002
,  // measure 20
0000
2003
0001
0000
3200
0300
0200
0300
,  // measure 21
0020
0030
0020
0030
0002
0003
0001
0000
,  // measure 22
0010
1000
0001
0100
,  // measure 23
1000
0001
1000
0100
,  // measure 24
1100
0000
0100
1000
0001
0100
1000
0100
,  // measure 25
0001
0000
0000
0000
1000
0000
0010
0000
1000
0000
0000
0000
0100
0000
0010
0100
,  // measure 26
1000
0000
0000
0000
0001
0000
0000
0100
0001
0000
0100
0000
1000
0000
0000
0000
,  // measure 27
0001
0000
0000
0000
0010
0000
0000
0000
1000
0000
0000
0000
0001
0000
1000
0001
,  // measure 28
0200
0000
0000
0000
1300
0100
0000
0100
0001
0000
1000
0000
0100
0000
1000
0000
,  // measure 29
0001
0000
0000
0000
1001
0000
0000
1000
0100
0000
1000
0000
0001
0000
0100
0010
,  // measure 30
1000
0000
0000
0000
1001
0000
0000
0100
0001
0000
1000
0000
0100
0000
1000
0000
,  // measure 31
0001
0000
0011
0020
0000
0130
2000
3000
,  // measure 32
1001
0000
0000
0000
1000
0000
0100
0000
0010
0000
0000
0010
0001
0000
1000
0000
,  // measure 33
0010
0000
0000
0000
0100
0000
0001
0000
0010
0000
0000
0010
0100
0000
0010
0000
,  // measure 34
0001
0000
0000
0000
1000
0000
0000
1000
0000
0000
1000
0000
0100
0000
0001
0000
,  // measure 35
0100
0000
1000
0000
0001
0000
0100
0000
0010
0000
0100
0001
0000
1000
0010
0000
,  // measure 36
1000
0000
0000
0000
0001
0000
1000
0000
0010
0000
0000
0010
1000
0000
0100
0000
,  // measure 37
0010
0000
0000
0000
0001
0000
0010
0000
0100
0000
0000
1000
0100
0000
1000
0000
,  // measure 38
0001
0000
1000
0000
0100
0000
0000
0010
0000
0000
0010
0000
0001
0000
1000
0000
,  // measure 39
0010
0000
0100
0000
1000
0000
0100
0000
0001
0100
0001
0000
1000
0100
1000
0000
,  // measure 40
0100
0000
0000
0000
0010
0000
0100
0000
1000
0000
0001
0100
0001
0000
1000
0000
,  // measure 41
0100
0000
0001
0000
0100
0000
0010
0000
0001
0000
0000
0001
1000
0000
0100
0000
,  // measure 42
1000
0000
0001
0000
0010
0100
0000
0010
0100
0000
0010
0000
0001
0000
1000
0000
,  // measure 43
0100
0000
0001
0000
0100
0000
1000
0000
0001
1000
0001
0000
1000
0010
1000
0000
,  // measure 44
1010
1000
0001
1000
,  // measure 45
0100
0010
0100
1000
,  // measure 46
0001
0100
1000
0100
,  // measure 47
0101
0000
0001
1000
0001
1000
0001
0000
,  // measure 48
1001
0000
1000
0100
0001
0100
1000
0001
,  // measure 49
0100
0000
0000
0000
0101
0000
0000
0001
1000
0000
0100
0000
0001
0000
0100
0000
,  // measure 50
1000
0000
0000
0000
0001
1000
0000
0001
1000
0000
0010
0000
0001
0000
0010
0000
,  // measure 51
1000
0000
0000
0000
1001
0000
0000
1000
0010
0000
1000
0000
0100
0000
0010
0100
,  // measure 52
1000
0000
0000
0000
0001
0100
0000
0001
0100
0000
0010
0000
1000
0000
0001
0000
,  // measure 53
0100
0000
0000
0000
0101
0000
0000
0001
1000
0000
0100
0000
0001
0000
0100
0010
,  // measure 54
0001
0000
1000
0000
1001
0000
0000
0001
1000
0000
0000
0000
0010
0000
0100
0000
,  // measure 55
0001
0000
0010
0100
0000
1000
0100
0000
,  // measure 56
1001
0001
0100
1000
0100
0001
0100
0010
,  // measure 57
1000
0100
0010
1000
0001
0100
0010
0001
,  // measure 58
1000
0001
0100
1000
0001
0010
1000
0001
,  // measure 59
1000
0100
1100
0000
0001
0100
0101
0000
,  // measure 60
0001
0100
0010
1000
0100
0001
0100
0010
,  // measure 61
0001
1000
0010
0001
1000
0100
0001
1000
,  // measure 62
0010
0100
0010
1000
0001
0010
0100
1000
,  // measure 63
0200
0000
1300
0002
0000
0013
0200
0000
,  // measure 64
1300
0002
0003
0002
,  // measure 65
0003
1000
0100
0010
,  // measure 66
0001
2000
3000
2000
,  // measure 67
3000
0000
0000
0000
0001
0000
0000
0200
0000
0000
0000
0000
0002
0000
0000
0000
,  // measure 68
0303
0000
0000
0000
;

//---------------dance-single - ----------------
#NOTEDATA:;
#CHARTNAME:X-Scale 13;
#STEPSTYPE:dance-single;
#DESCRIPTION:;
#CHARTSTYLE:;
#DIFFICULTY:Hard;
#METER:9;
#RADARVALUES:0.525616,0.622775,0.071675,0.445977,0.354392,462.000000,453.000000,9.000000,56.000000,0.000000,0.000000,0.000000,0.000000,0.000000,0.525616,0.622775,0.071675,0.445977,0.354392,462.000000,453.000000,9.000000,56.000000,0.000000,0.000000,0.000000,0.000000,0.000000;
#CREDIT:iamthek3n;
#NOTES:
// measure 0
0000
0000
0000
0000
,  // measure 1
0000
0000
0000
0000
,  // measure 2
0000
0000
0000
0000
,  // measure 3
0000
0000
0000
0000
,  // measure 4
0000
0000
0000
0000
,  // measure 5
0000
0000
0000
0000
,  // measure 6
0000
0000
0000
0000
,  // measure 7
0000
0000
0000
0000
,  // measure 8
1100
0100
0000
0100
0000
1000
0000
2000
,  // measure 9
0100
0000
0001
3002
0003
0200
0300
0020
,  // measure 10
0100
0001
0100
1000
,  // measure 11
0001
0000
1000
0000
0130
0001
1000
0000
,  // measure 12
1002
0100
1000
0023
,  // measure 13
0130
0010
0001
0000
1000
0001
0100
0000
,  // measure 14
0001
0010
1000
0000
0001
0100
1000
0000
,  // measure 15
0010
1000
0001
0000
1000
0100
0010
0000
,  // measure 16
0011
0001
0000
0000
1000
0000
0000
0001
0100
0000
0001
0000
1000
0000
0200
0000
,  // measure 17
0001
0000
0010
0000
1000
0000
0310
0100
,  // measure 18
1000
0002
0100
0000
1000
0000
0013
0100
,  // measure 19
1000
0000
0100
0000
0001
0000
0100
0020
,  // measure 20
0030
0002
1000
0000
0003
0000
1000
0000
,  // measure 21
0000
0001
0000
2000
,  // measure 22
3020
0032
0203
2300
,  // measure 23
3002
0203
0320
0130
,  // measure 24
2001
0000
0000
0000
3100
0000
1000
0001
0100
0000
0010
0000
1000
0000
0100
0000
,  // measure 25
0020
0000
0000
0000
0031
0100
0000
0100
0002
0000
0000
0000
0013
0000
1000
0010
,  // measure 26
0001
0000
1000
0000
0001
0100
0000
0010
1000
0000
0010
0000
0001
0000
0100
0000
,  // measure 27
2000
0000
0000
0000
3001
0100
0000
0010
1000
0000
0100
0000
0010
0000
0001
1000
,  // measure 28
0001
0000
0000
0000
0001
0100
0000
0001
1000
0000
0100
0000
0001
0000
0100
0000
,  // measure 29
1000
0000
0001
0000
0010
0100
0000
0010
0002
0000
0000
0000
1003
0000
0001
0100
,  // measure 30
0020
0000
0000
0000
1030
0001
0000
0100
0001
0000
0100
0000
1000
0000
0100
0000
,  // measure 31
0001
0000
0000
0000
1000
0000
0010
0100
0000
0000
0010
0000
1000
0000
1000
0001
,  // measure 32
1000
0000
0100
0000
0001
0000
0100
0000
1000
0000
0100
0010
0001
0000
0100
0000
,  // measure 33
0010
0000
0100
0000
0001
0000
0010
0000
1000
0000
0010
0100
1000
0010
0100
0001
,  // measure 34
1000
0000
0100
0000
0001
0100
0000
1000
0100
0000
0100
0000
0010
0000
0001
0000
,  // measure 35
0100
0000
1000
0000
0001
0000
0010
0000
1000
0001
1000
0001
0000
0100
0001
0100
,  // measure 36
0001
0000
1000
0000
0001
0000
1000
0000
0010
0000
0010
1000
0001
0000
0100
0001
,  // measure 37
1000
0000
0100
0000
0001
0000
0100
0000
0010
0000
0001
0010
0100
1000
0010
0100
,  // measure 38
0001
0000
0001
0000
1000
0000
0100
0010
0000
0100
1000
0000
0010
0000
1000
0000
,  // measure 39
0001
0000
0010
0000
1000
0000
0010
0000
0100
1000
0100
1000
0000
0001
1000
0001
,  // measure 40
1000
0000
0100
0000
0010
0000
1000
0000
0010
0000
0001
0010
0001
0000
1000
0000
,  // measure 41
0100
0000
0001
0000
0100
0000
1000
0000
0010
0000
0001
0010
1000
0001
0100
0010
,  // measure 42
1000
0000
0001
0000
0100
1000
0000
0100
0010
0000
0010
0000
1000
0000
0001
0000
,  // measure 43
0100
0000
0010
0000
1000
0000
0001
0000
0010
0001
0010
0001
0000
1000
0010
1000
,  // measure 44
0020
0000
0000
0000
0130
0000
0001
0000
0010
0000
1000
0010
0001
0000
1000
0000
,  // measure 45
0100
0001
0010
1000
0002
0000
0023
0000
,  // measure 46
2030
3200
0302
2003
,  // measure 47
3001
0000
0000
0000
1001
0000
1000
0000
1010
0000
0010
0000
1000
0001
1000
0001
,  // measure 48
2000
0000
0000
0000
3100
0000
0001
0100
1000
0000
0010
0000
0001
0000
1000
0000
,  // measure 49
0100
0000
0001
0000
1000
0010
0000
1000
0001
0000
0100
0000
1000
0000
0100
0001
,  // measure 50
2000
0000
0000
0000
3100
0010
0000
0010
0001
0000
0100
0000
1000
0000
0010
0000
,  // measure 51
0002
0000
0000
0000
1003
0001
0000
0010
0100
0000
0001
0000
0100
0000
1000
0100
,  // measure 52
2000
0000
0000
3001
0100
0001
0000
1000
0100
0000
1000
0000
0010
0000
0100
0000
,  // measure 53
1000
0000
0100
0000
0001
1000
0000
0001
0010
0000
0001
0000
1000
0000
0100
0010
,  // measure 54
0002
0000
0000
0000
1003
0001
0000
0100
0010
0000
0100
0000
0001
0000
0010
0000
,  // measure 55
0200
0000
0300
0000
1100
0000
2000
0000
0000
0000
3002
0000
0103
0000
0100
0010
,  // measure 56
1000
0000
0100
0000
1000
0000
0001
0010
0100
0000
0001
0000
0100
0000
1000
0000
,  // measure 57
0001
0000
0100
0001
1000
0000
0100
0000
0001
0000
0100
0010
0001
0000
1000
0000
,  // measure 58
0001
0000
0010
0100
1000
0000
0001
0000
0100
0000
1000
0000
0010
0000
0001
0000
,  // measure 59
1000
0000
0100
1000
0001
0000
1000
0000
0100
0000
0010
0100
1000
0000
0001
0000
,  // measure 60
1001
0000
1000
0000
0010
0000
0100
0010
1000
0000
0010
0000
0001
0000
0010
0000
,  // measure 61
1000
0000
0010
1000
0001
0000
0010
0000
0001
0000
1000
0100
0010
0000
0100
0000
,  // measure 62
1000
0000
0001
0100
0001
0000
1000
0100
1000
0000
0010
0100
0010
0000
1000
0000
,  // measure 63
0002
0000
0013
0200
0000
1300
0002
0003
,  // measure 64
1001
0000
0000
0000
0002
0000
0003
2000
0000
0000
0000
0000
3200
0000
0000
0000
,  // measure 65
0320
0000
0000
0000
0032
0000
0003
0200
0000
0000
0000
0000
0310
0000
0010
0100
,  // measure 66
0002
0000
0000
0000
2003
0000
3000
0200
0000
0000
0000
0000
0320
0000
0000
0000
,  // measure 67
0032
0000
0000
0000
2003
0000
3000
0200
0000
0000
0000
0000
2000
0000
0000
0000
,  // measure 68
3300
0000
0000
0000
;
