#TITLE:It's Gonna Be Alright;
#SUBTITLE:;
#ARTIST:Remo-con;
#TITLETRANSLIT:;
#SUBTITLETRANSLIT:;
#ARTISTTRANSLIT:;
#GENRE:Tech Dance;
#CREDIT:;
#BANNER:It's Gonna Be Alright-bn.png;
#BACKGROUND:It's Gonna Be Alright-bg.png;
#LYRICSPATH:;
#CDTITLE:cdtitle.png;
#MUSIC:It's Gonna Be Alright.ogg;
#OFFSET:-0.002000;
#SAMPLESTART:38.875000;
#SAMPLELENGTH:13.521000;
#SELECTABLE:YES;
#DISPLAYBPM:142.000000;
#BPMS:0.000000=142.000000
,96.000000=284.000000
,96.500000=142.000000
,96.750000=71.000000
,97.000000=142.000000
,100.000000=284.000000
,100.500000=142.000000
,100.750000=71.000000
,101.000000=142.000000
,104.000000=284.000000
,104.500000=142.000000
,104.750000=71.000000
,105.000000=142.000000
,108.000000=284.000000
,108.500000=142.000000
,108.750000=71.000000
,109.000000=142.000000
,111.000000=284.000000
,111.500000=142.000000
,111.750000=71.000000
,112.000000=142.000000
,124.000000=284.000000
,124.500000=142.000000
,124.750000=71.000000
,125.000000=284.000000
,125.500000=142.000000
,125.750000=71.000000
,126.000000=284.000000
,126.500000=142.000000
,126.750000=71.000000
,127.000000=142.000000
,175.000000=284.000000
,176.000000=142.000000
,191.000000=284.000000
,192.000000=142.000000
,208.000000=284.000000
,208.500000=142.000000
,208.750000=71.000000
,209.000000=142.000000
,212.000000=284.000000
,212.500000=142.000000
,212.750000=71.000000
,213.000000=142.000000
,216.000000=284.000000
,216.500000=142.000000
,216.750000=71.000000
,217.000000=142.000000
;
#STOPS:175.000000=0.053000,
175.250000=0.053000,
175.500000=0.053000,
175.750000=0.053000,
191.000000=0.053000,
191.250000=0.053000,
191.500000=0.053000,
191.750000=0.053000
;
#BGCHANGES:;
#KEYSOUNDS:;
#ATTACKS:;

//---------------dance-single - ----------------
#NOTES:
     dance-single:
     X-Scale 15:
     Hard:
     10:
     0.666350,0.931127,0.370334,0.079357,0.551093,529.000000,487.000000,42.000000,9.000000,0.000000,0.000000,0.666350,0.931127,0.370334,0.079357,0.551093,529.000000,487.000000,42.000000,9.000000,0.000000,0.000000:
// measure 0
0000
0000
0000
0000
,  // measure 1
0000
0000
0000
0000
,  // measure 2
0000
0000
0000
0000
,  // measure 3
0000
0000
0000
0000
,  // measure 4
1000
0000
0100
0000
0000
1000
0000
0001
0100
0000
0001
0000
0000
0010
0000
0100
,  // measure 5
0010
0000
0001
0000
0000
1000
0000
0010
1000
0000
0001
0000
0000
0010
0000
0001
,  // measure 6
0100
0001
0100
0001
0100
0001
0100
0001
1000
0100
1000
0100
1000
0100
1000
0100
,  // measure 7
0010
0000
0110
0000
0000
1001
0000
0010
1000
0000
1001
0000
0000
0110
0000
0010
,  // measure 8
0200
1000
0010
0001
,  // measure 9
0301
0000
0100
0001
1000
0000
0010
1000
,  // measure 10
0001
0000
0010
0100
1000
0000
0100
0010
,  // measure 11
0001
0000
1000
0001
0100
0000
0010
0100
,  // measure 12
0001
0000
0000
0000
0010
0100
0000
1000
0001
0000
0010
0000
0000
0000
0010
0000
,  // measure 13
0000
0000
0001
0000
1000
0010
0000
1000
0001
0000
0100
0000
0000
0000
0100
0000
,  // measure 14
0000
0000
0010
0000
1000
0001
0000
0010
0100
0000
0010
0000
0000
0000
0010
0000
,  // measure 15
0000
0000
0001
0000
1000
0010
0000
0100
0001
0000
1000
0000
0001
0000
1000
0000
,  // measure 16
1001
0000
0001
0000
0010
0000
0100
0010
,  // measure 17
0011
0000
0001
0000
1000
0000
0010
1000
,  // measure 18
1010
0000
0001
0000
1000
0000
0100
0010
,  // measure 19
0110
0000
0010
0000
0001
0000
1000
0001
,  // measure 20
1000
0010
1000
0010
1000
0010
1000
0010
0100
0001
0100
0001
0100
0001
0100
0001
,  // measure 21
0010
0100
0010
0100
0010
0100
0010
0100
1000
0001
1000
0001
1000
0001
1000
0001
,  // measure 22
0010
0100
0010
0100
0010
0100
0010
0100
0010
0001
0010
0001
0010
0001
0010
0001
,  // measure 23
0020
0000
0031
1000
0100
0020
0030
0001
,  // measure 24
0011
0000
0000
0000
1001
0000
0000
1001
0000
0000
1000
0000
0010
0000
0100
0000
,  // measure 25
0101
0000
0000
0000
0110
0000
0000
0110
0000
0000
0010
0000
0100
0000
0001
0000
,  // measure 26
0011
0000
0000
0000
1010
0000
0000
1010
0000
0000
0010
0000
0100
0000
0001
0000
,  // measure 27
1001
0000
0000
0000
1100
0000
0000
1100
0000
0000
0001
0000
0001
0000
0000
0000
,  // measure 28
1000
0000
0010
1000
0001
0000
0000
0010
0100
0000
0010
0000
0001
0000
1000
0000
,  // measure 29
1010
0000
0010
1000
0001
0000
0000
0100
0010
0000
0100
0000
1000
0000
0100
0000
,  // measure 30
0101
0000
0001
0100
0001
0000
0000
0010
0100
0000
1000
0000
0001
0000
1000
0000
,  // measure 31
1100
0101
1100
0002
,  // measure 32
1003
0000
0000
0100
1000
0000
0000
1010
0000
0000
0010
0000
1000
0000
0001
0000
,  // measure 33
0100
0000
0000
0001
0010
0000
0000
0011
0000
0000
0001
0000
0001
0000
1000
0010
,  // measure 34
1000
0000
0000
1000
0001
0000
0000
0011
0000
0000
0010
0000
0100
0000
0010
0000
,  // measure 35
0001
0000
0000
1000
0010
0000
0000
1010
0000
0000
1000
0000
1000
0000
0001
0000
,  // measure 36
0002
0000
0003
0000
1001
0000
0000
0110
0000
0000
1000
0000
0010
0000
1000
0010
,  // measure 37
1000
0000
0000
0000
1010
0000
0000
0011
0000
0000
0010
0000
0010
0000
0001
0100
,  // measure 38
0001
0000
0000
0000
0101
0000
0000
1010
0000
0000
1000
0000
0010
0000
1000
0000
,  // measure 39
0001
0000
1000
0100
0010
0000
0001
0100
0010
0000
1000
0100
0010
0000
0001
0000
,  // measure 40
0011
0000
0000
0010
0100
0000
0010
0000
0001
0000
1000
0010
1000
0000
0001
0000
,  // measure 41
0010
0000
0000
0100
0010
0000
0100
0000
1000
0000
0010
1000
0010
0000
1000
0000
,  // measure 42
0001
0000
0000
0010
0100
0000
1000
0000
0010
0000
0100
0010
0100
0000
0001
0000
,  // measure 43
1000
0000
0000
0010
1000
0000
0001
0000
0100
0000
0001
1000
0001
0000
0010
0100
,  // measure 44
0010
0000
0000
0001
1000
0000
0010
0000
1000
0000
0010
0100
0010
0000
0100
0000
,  // measure 45
0001
0000
0000
0010
0001
0000
1000
0000
0010
0000
0100
0010
0100
0000
0001
0000
,  // measure 46
0010
0000
0000
0100
1000
0000
0001
0000
0010
0000
0001
1000
0001
0000
0100
0000
,  // measure 47
0001
0000
0000
0010
0100
0000
1000
0000
0100
0000
0010
0000
0100
1000
0001
0010
,  // measure 48
0001
0000
0001
0000
0010
0100
0000
0010
0001
0000
0010
0000
1000
0000
0010
0000
,  // measure 49
0100
0000
1000
0000
0100
1000
0000
0001
0100
0000
0010
0000
0001
0000
0010
0000
,  // measure 50
0100
0000
0001
0000
1000
0100
0000
1000
0001
0000
0010
0000
1000
0000
0010
0000
,  // measure 51
0001
0000
0010
0000
0100
0010
0000
0001
1000
0000
0010
0000
1000
0000
0001
0000
,  // measure 52
1001
0000
0000
0000
1100
0000
0000
0100
0010
0000
0100
0000
1000
0000
0001
1000
,  // measure 53
0001
0000
0000
0000
0101
0000
0000
0100
0010
0000
0100
0000
0001
0100
0001
0100
,  // measure 54
0001
0000
0000
0000
1001
0000
0000
1001
0000
0000
1100
0000
0100
0010
0100
0010
,  // measure 55
0200
0000
1300
0001
0100
0002
0003
2000
,  // measure 56
0010
0000
0000
0001
0000
0000
3001
0000
1000
0000
0000
0100
1000
0000
0001
0000
,  // measure 57
0100
0000
0010
0000
0100
0000
0001
0010
0000
0000
0010
0001
1000
0000
0010
0000
,  // measure 58
1000
0000
0001
0000
0010
0000
0100
1000
0000
0000
1000
0001
1000
0000
0001
0000
,  // measure 59
0010
0000
1000
0000
0010
0000
0001
0010
0000
0000
0100
0010
0001
0000
1000
0000
,  // measure 60
0010
0000
0100
0000
0010
0000
1000
0100
0000
0000
1000
0000
0001
0000
0100
0000
,  // measure 61
1000
0000
0001
0000
0010
0000
1000
0001
0000
0000
0100
0000
0001
0000
0010
0000
,  // measure 62
0100
0000
0001
0000
0100
0000
1000
0100
0000
0000
1000
0000
0100
0000
0001
0000
,  // measure 63
0100
0000
0010
0000
0001
0000
1000
0001
0000
0000
0010
0000
0200
0000
1000
0000
,  // measure 64
1300
0000
0000
0000
;

//---------------dance-single - ----------------
#NOTES:
     dance-single:
     X-Scale 12:
     Medium:
     8:
     0.522751,0.564319,0.282160,0.105810,0.251298,415.000000,383.000000,32.000000,12.000000,0.000000,0.000000,0.522751,0.564319,0.282160,0.105810,0.251298,415.000000,383.000000,32.000000,12.000000,0.000000,0.000000:
0000
0000
0000
0000
,
0000
0000
0000
0000
,
0000
0000
0000
0000
,
0000
0000
0000
0000
,
0001
0011
1000
1010
,
0010
0110
0100
1001
,
1000
0010
0100
0001
0010
0100
0010
0001
,
1000
0000
0100
0000
0000
0100
0000
1000
0001
0000
0010
0000
0000
0010
0000
0000
,
0021
0100
1000
0100
,
0001
0100
1000
0100
,
0031
0000
0010
0100
0010
0000
0001
0000
,
1000
0000
0010
1000
0010
0000
0100
0000
,
0001
0000
0010
0001
0010
0000
0100
0000
,
1000
0000
0100
0010
0100
0000
1000
0000
,
0001
0000
0100
0010
0100
0000
0001
0000
,
0010
0000
0100
0010
0100
0000
1000
1000
,
1001
0000
0000
0000
0001
0000
0000
0010
0001
0000
1000
0000
0010
0000
1000
0000
,
0001
0000
0000
0000
0010
0000
0000
0001
1000
0000
0010
0000
0001
0000
0010
0000
,
1000
0000
0000
0000
0100
0000
0000
0010
0100
0000
1000
0000
0001
0000
1000
0000
,
0010
0000
0000
0000
0100
0000
0000
0001
0010
0000
0001
0000
1000
0000
0010
0000
,
1000
0000
0000
0000
0000
0100
0000
0100
0010
0000
0001
0000
0000
0000
0001
0000
,
1000
0000
0000
0000
0000
0010
0000
0010
0100
0000
0001
0000
0000
0000
0001
0000
,
0010
0000
0000
0000
0000
0100
0000
0100
1000
0000
0001
0000
0000
0000
0001
0000
,
0020
0000
0000
0000
,
0130
0000
0000
0000
0100
0000
0000
0100
0000
0000
0100
0000
1000
0000
0100
0000
,
0010
0000
0000
0000
0010
0000
0000
0010
0000
0000
0010
0000
0001
0000
1000
0000
,
0010
0000
0000
0000
0010
0000
0000
0010
0000
0000
0010
0000
1000
0000
0001
0000
,
0100
0000
0000
0000
0100
0000
0000
0100
0000
0000
0100
0000
0100
0000
0000
0000
,
1001
0000
0000
1000
0100
0000
0000
1100
0000
0000
1000
0000
0001
0000
0010
0000
,
0100
0000
0000
0010
0001
0000
0000
0011
0000
0000
0001
0000
1000
0000
0010
0000
,
0100
0000
0000
0010
1000
0000
0000
1010
0000
0000
1000
0000
0100
0000
0010
0000
,
0002
0000
0000
0003
0002
0000
0000
0003
0002
0000
0000
0003
0002
0000
0000
0000
,
0103
0000
0001
0000
1000
0000
0010
1000
0000
0000
0001
0000
0100
0000
1000
0000
,
0001
0000
0010
0000
1000
0000
0000
0100
0010
0000
0100
0000
1000
0000
0000
0100
,
0010
0000
0100
0000
1000
0000
0000
0010
1000
0000
0001
0000
0010
0000
1000
0000
,
0010
0000
0100
0000
1000
0000
0000
0001
0010
0000
0001
0000
1000
0000
0010
0000
,
2000
0000
3000
0000
1010
0000
0000
1000
0001
0000
0100
0000
1000
0000
0100
0000
,
0001
0000
1000
0000
0100
0000
0000
0010
0001
0000
1000
0000
0001
0000
0000
0010
,
0100
0000
0010
0000
0001
0000
0000
0100
0001
0000
1000
0000
0010
0000
1000
0000
,
0002
0000
0013
0100
1000
0020
0030
1000
,
1010
0010
1000
0001
0100
0001
1000
0010
,
0100
0001
0010
0100
0010
0001
1000
0100
,
0010
0100
1000
0001
0100
0001
1000
0010
,
0001
0010
0100
0010
1000
0001
0010
0020
,
0130
0010
0001
1000
0010
0100
0010
0001
,
0010
0100
0010
1000
0001
0100
0001
1000
,
0100
0001
0100
0010
0001
0010
1000
0010
,
0100
0000
1000
0000
0001
0000
0100
0000
0001
0000
1000
0000
0100
0010
0100
0010
,
0100
0000
0000
0000
0110
0000
0000
1010
0000
0000
1000
0000
0001
0000
0100
0000
,
0101
0000
0000
0000
0110
0000
0000
1010
0000
0000
1000
0000
0001
0000
0100
0000
,
0110
0000
0000
0000
0011
0000
0000
0101
0000
0000
0001
0000
1000
0000
0100
0000
,
1100
0000
0000
0000
1001
0000
0000
0011
0000
0000
0010
0000
0100
0000
0010
0000
,
0101
0000
0000
0000
1001
0000
0000
0110
0000
0000
0010
0000
0100
0000
0001
0000
,
0101
0000
0000
0000
1010
0000
0000
1100
0000
0000
1000
0000
0001
0000
0100
0000
,
0101
0000
0000
0000
1001
0000
0000
1100
0000
0000
1000
0000
0001
0000
0010
0000
,
0200
0000
0000
0000
,
1300
0000
0000
0100
0000
0000
1000
0000
0001
0000
0000
0010
0001
0000
1000
0000
,
0010
0000
0000
0100
0000
0000
0010
0000
1000
0000
0000
0001
0100
0000
0001
0000
,
0010
0000
0000
0001
0000
0000
1000
0000
0100
0000
0000
1000
0001
0000
0100
0000
,
0001
0000
0000
0010
0000
0000
0100
0000
1000
0000
0000
0010
1000
0000
0001
0000
,
0100
0000
0000
0010
0000
0000
0100
0000
0001
0000
0000
0010
0001
0000
1000
0000
,
0100
0000
0000
0010
0000
0000
0100
0000
1000
0000
0000
0001
0100
0000
0001
0000
,
0010
0000
0000
0100
0000
0000
1000
0000
0001
0000
0000
1000
0100
0000
1000
0000
,
0010
0000
0000
0100
0000
0000
0001
0000
0010
0000
0000
0001
2000
0000
0000
0000
,
3100
0000
0000
0000
;

//---------------dance-single - ----------------
#NOTES:
     dance-single:
     X-Scale 8:
     Easy:
     6:
     0.360257,0.451455,0.158715,0.211620,0.000000,286.000000,268.000000,18.000000,24.000000,0.000000,0.000000,0.360257,0.451455,0.158715,0.211620,0.000000,286.000000,268.000000,18.000000,24.000000,0.000000,0.000000:
0000
0000
0000
0000
,
0000
0000
0000
0000
,
0000
0000
0000
0000
,
0000
0000
0000
0000
,
1000
0010
1000
0001
,
1000
0010
1000
0001
,
0010
0100
0010
0001
,
0010
0100
1000
0001
,
2001
0000
0010
0000
,
0001
0000
0100
0000
,
3010
1000
0001
1000
,
0010
0100
0010
1000
,
0100
0010
0100
1000
,
0001
0100
0001
1000
,
0001
0010
0100
0010
,
0001
0000
1000
0000
0010
0000
1000
0010
,
1000
0000
0001
0000
0010
0000
0100
0010
,
0100
0000
1000
0000
0001
0000
0100
0010
,
0100
0000
0001
0000
0010
0000
0100
1000
,
0100
0000
0010
0000
0001
0000
1000
0001
,
2000
0100
0010
0001
,
0010
0100
0010
0001
,
0020
0000
0000
0000
,
3030
0000
0000
0000
,
1001
0000
2002
0000
3003
0001
0100
0001
,
0101
0000
0202
0000
0303
0001
1000
0100
,
1100
0000
2200
0000
3300
0100
1000
0001
,
0101
0000
0202
0000
0303
1000
1000
0000
,
1001
0000
0001
0000
0100
0010
0100
0010
,
0100
0000
0001
0000
0010
0100
0010
0100
,
0010
0000
0001
0000
1000
0010
1000
0010
,
1000
0001
1000
0000
,
1001
0000
0001
0000
0100
0001
1000
0001
,
0100
0000
0010
0000
1000
0100
0010
0100
,
1000
0000
0001
0000
0010
0100
0010
0001
,
0010
0000
0100
0000
1000
0001
0100
0001
,
2000
3000
1100
0000
1000
0100
1000
0001
,
0100
0000
0010
0000
0100
0001
0010
0100
,
1000
0000
0001
0000
0100
0001
1000
0100
,
0010
0001
0000
0100
0000
0001
0000
0100
,
0102
1000
0010
1000
,
2003
0100
0001
0010
,
3020
0001
0100
1000
,
2030
0000
0100
0000
0010
0000
3001
0001
,
0102
1000
0010
0100
,
0203
1000
0001
0010
,
0320
0100
0001
1000
,
2030
0001
0100
3002
,
0013
0000
0001
0000
1000
0010
0100
0010
,
1000
0000
0001
0000
0100
0010
1000
0001
,
0100
0000
0001
0000
0010
0100
1000
0001
,
0010
0000
0001
0000
1000
0100
1000
0000
,
1100
0000
1000
0000
0001
0100
0001
0100
,
0101
0000
0001
0000
1000
0010
1000
0010
,
1010
0000
2020
0000
3030
1000
0001
0100
,
0002
0000
0000
0000
,
0013
0001
1000
0010
,
1000
0001
0010
0100
,
0010
0001
1000
0100
,
1000
0001
0100
0010
,
0100
0001
0010
0100
,
1000
0100
0010
0001
,
1000
0010
1000
0001
,
0100
0001
1000
0001
,
0100
0000
0000
0000
;

//---------------dance-single - ----------------
#NOTES:
     dance-single:
     X-Scale 3:
     Beginner:
     2:
     0.167532,0.282160,0.079357,0.044087,0.000000,133.000000,124.000000,9.000000,5.000000,0.000000,0.000000,0.167532,0.282160,0.079357,0.044087,0.000000,133.000000,124.000000,9.000000,5.000000,0.000000,0.000000:
0000
0000
0000
0000
,
0000
0000
0000
0000
,
0000
0000
0000
0000
,
0000
0000
0000
0000
,
0000
0001
0000
1000
,
0000
0001
0000
1000
,
0000
0010
0000
0100
,
0000
0010
0000
0100
,
0100
0000
0000
0000
,
0001
0000
0000
0000
,
1000
0000
0000
0000
,
0100
0000
0000
0000
,
1000
0000
0000
0000
,
0001
0000
0000
0000
,
1000
0000
0000
0000
,
0010
0000
0000
0000
,
1000
0000
0000
0000
,
0100
0000
0000
0000
,
0010
0000
0000
0000
,
0001
0000
0000
0000
,
0010
0000
0000
0000
,
0100
0000
0000
0000
,
1000
0000
0000
0000
,
0001
0000
0000
0000
,
1001
0000
0000
0000
,
0110
0000
0000
0000
,
1001
0000
0000
0000
,
0110
0000
0000
0000
,
1001
0000
0000
0000
,
0110
0000
0000
0000
,
1001
0000
0000
0000
,
0002
0000
0000
2003
,
3010
0000
0000
0000
1000
0001
1000
0000
,
0010
0000
0000
0000
0100
0010
0100
0000
,
0001
0000
0000
0000
0010
0100
0010
0000
,
0001
0000
0000
0000
1000
0010
1000
0000
,
0002
0000
0003
0000
1000
0100
1000
0000
,
0100
0000
0000
0000
0010
0100
0010
0000
,
0001
0000
0000
0000
1000
0010
1000
0000
,
0020
0000
0000
0000
,
0130
0000
0010
0000
,
1000
0000
0001
0000
,
0100
0000
0001
0000
,
1000
0000
0010
0000
,
1000
0000
0001
0000
,
0010
0000
0001
0000
,
1000
0000
0100
0000
,
1000
0000
0001
0000
,
1001
0000
0000
0000
1000
0010
1000
0000
,
0100
0000
0000
0000
0010
0100
0010
0000
,
0001
0000
0000
0000
0010
0100
0010
0000
,
0001
0000
0000
0000
0100
0001
0100
0000
,
0010
0000
0000
0000
1000
0100
1000
0000
,
0001
0000
0000
0000
0100
0010
0100
0000
,
0110
0000
0000
0000
0000
1000
0100
1000
,
0200
0000
0000
0000
,
0310
0000
0100
0000
,
1000
0000
0001
0000
,
0100
0000
0001
0000
,
1000
0000
0010
0000
,
0100
0000
0010
0000
,
1000
0000
0001
0000
,
0010
0000
0001
0000
,
1000
0000
0010
0000
,
1000
0000
0000
0000
;
