#VERSION:0.83;
#TITLE:It's Crazy, It's Party;
#SUBTITLE:;
#ARTIST:Käärijä feat. Tommy Cash;
#TITLETRANSLIT:;
#SUBTITLETRANSLIT:;
#ARTISTTRANSLIT:Kaarija feat. Tommy Cash;
#GENRE:Hard Dance;
#ORIGIN:;
#CREDIT:;
#BANNER:It's Crazy, It's Party-bn.png;
#BACKGROUND:It's Crazy, It's Party-bg.png;
#PREVIEWVID:;
#JACKET:It's Crazy, It's Party-jacket.png;
#CDIMAGE:;
#DISCIMAGE:;
#LYRICSPATH:;
#CDTITLE:cdtitle.png;
#MUSIC:It's Crazy, It's Party.ogg;
#OFFSET:-0.004000;
#SAMPLESTART:60.004002;
#SAMPLELENGTH:12.000000;
#SELECTABLE:YES;
#BPMS:0.000=160.000;
#STOPS:280.000=0.375,
281.000=0.375,
282.000=0.375,
283.000=0.375;
#DELAYS:;
#WARPS:;
#TIMESIGNATURES:0.000=4=4;
#TICKCOUNTS:0.000=4;
#COMBOS:0.000=1;
#SPEEDS:0.000=1.000=0.000=0;
#SCROLLS:0.000=1.000;
#FAKES:;
#LABELS:0.000=Song Start;
#BGCHANGES:0.000=It's Crazy, It's Party.avi=1.000=1=0=0=StretchNoLoop==CrossFade==,
99999=-nosongbg-=1.000=0=0=0 // don't automatically add -songbackground-
;
#KEYSOUNDS:;
#ATTACKS:
;

//---------------dance-single - ----------------
#NOTEDATA:;
#CHARTNAME:X-Scale 2;
#STEPSTYPE:dance-single;
#DESCRIPTION:;
#CHARTSTYLE:;
#DIFFICULTY:Beginner;
#METER:2;
#RADARVALUES:0.113843,0.162255,0.000000,0.000000,0.000000,97.000000,97.000000,0.000000,0.000000,0.000000,0.000000,0.000000,0.000000,0.000000,0.113843,0.162255,0.000000,0.000000,0.000000,97.000000,97.000000,0.000000,0.000000,0.000000,0.000000,0.000000,0.000000,0.000000;
#CREDIT:iamthek3n;
#NOTES:
// measure 0
0000
0000
0000
0000
,  // measure 1
0000
0000
0000
0000
,  // measure 2
0000
0000
0000
0000
,  // measure 3
0000
0000
0000
0000
,  // measure 4
0001
0000
0000
0000
,  // measure 5
1000
0000
0000
0000
,  // measure 6
0001
0000
0000
0000
,  // measure 7
0000
0000
0000
0000
,  // measure 8
0100
0000
0000
0000
,  // measure 9
0010
0000
0000
0000
,  // measure 10
1000
0000
0000
0000
,  // measure 11
0001
0000
0000
0000
,  // measure 12
0010
0000
0000
0000
,  // measure 13
0100
0000
0000
0000
,  // measure 14
1000
0000
0000
0000
,  // measure 15
0001
0000
0000
0000
,  // measure 16
0000
1000
0000
0001
,  // measure 17
0000
1000
0000
0001
,  // measure 18
0000
0100
0000
0010
,  // measure 19
0000
0100
0000
0010
,  // measure 20
0000
1000
0000
0001
,  // measure 21
0000
1000
0000
0001
,  // measure 22
0000
0000
0000
0000
,  // measure 23
0000
0000
0000
0000
,  // measure 24
1000
0000
0000
0000
,  // measure 25
0001
0000
0000
0000
,  // measure 26
0010
0000
0000
0000
,  // measure 27
0001
0000
0000
0000
,  // measure 28
1000
0000
0000
0000
,  // measure 29
0010
0000
0000
0000
,  // measure 30
1000
0000
0000
0000
,  // measure 31
0001
0000
0000
0000
,  // measure 32
0010
0000
0000
0000
,  // measure 33
0100
0000
0000
0000
,  // measure 34
1000
0000
0000
0000
,  // measure 35
0001
0000
0000
0000
,  // measure 36
1000
0000
0000
0000
,  // measure 37
0010
0000
0000
0000
,  // measure 38
1000
0000
0000
0000
,  // measure 39
0000
0000
0000
0000
,  // measure 40
0000
0001
0000
0100
,  // measure 41
0000
0001
0000
1000
,  // measure 42
0000
0001
0000
0100
,  // measure 43
0000
0001
0000
1000
,  // measure 44
0000
0100
0000
0010
,  // measure 45
0000
0100
0000
1000
,  // measure 46
0000
0100
0000
0010
,  // measure 47
0000
0100
0000
1000
,  // measure 48
0000
0001
0000
0100
,  // measure 49
0000
0001
0000
0010
,  // measure 50
0000
0100
0000
1000
,  // measure 51
0000
0001
0000
0000
,  // measure 52
1000
0000
0000
0000
,  // measure 53
0001
0000
0000
0000
,  // measure 54
1000
0000
0000
0000
,  // measure 55
0000
0000
0000
0000
,  // measure 56
0001
0000
0000
0000
,  // measure 57
0010
0000
0000
0000
,  // measure 58
0100
0000
0000
0000
,  // measure 59
1000
0000
0000
0000
,  // measure 60
0010
0000
0000
0000
,  // measure 61
0100
0000
0000
0000
,  // measure 62
0001
0000
0000
0000
,  // measure 63
0000
0000
0000
0000
,  // measure 64
1000
0000
0100
0000
,  // measure 65
1000
0000
0001
0000
,  // measure 66
1000
0000
0100
0000
,  // measure 67
0010
0000
0001
0000
,  // measure 68
1000
0000
0001
0000
,  // measure 69
0100
0000
0001
0000
,  // measure 70
1000
0000
0000
0000
,  // measure 71
1000
0000
0001
0000
,  // measure 72
0000
1000
0000
0000
,  // measure 73
0010
0000
0100
0000
,  // measure 74
0000
0010
0000
0000
,  // measure 75
1000
0000
0100
0000
,  // measure 76
0000
1000
0000
0000
,  // measure 77
0001
0000
0010
0000
,  // measure 78
0000
0001
0000
0000
,  // measure 79
1000
0000
0000
0000
;

//---------------dance-single - ----------------
#NOTEDATA:;
#CHARTNAME:X-Scale 6;
#STEPSTYPE:dance-single;
#DESCRIPTION:;
#CHARTSTYLE:;
#DIFFICULTY:Easy;
#METER:4;
#RADARVALUES:0.289888,0.356961,0.057508,0.049293,0.000000,247.000000,240.000000,7.000000,6.000000,0.000000,0.000000,0.000000,0.000000,0.000000,0.289888,0.356961,0.057508,0.049293,0.000000,247.000000,240.000000,7.000000,6.000000,0.000000,0.000000,0.000000,0.000000,0.000000;
#CREDIT:iamthek3n;
#NOTES:
// measure 0
0000
0000
0000
0000
,  // measure 1
0000
0000
0000
0000
,  // measure 2
0000
0000
0000
0000
,  // measure 3
0000
0000
0000
0000
,  // measure 4
1000
0000
0000
0000
,  // measure 5
0001
0000
0000
0000
,  // measure 6
2002
0000
0000
0000
,  // measure 7
3003
0000
0000
0000
,  // measure 8
0100
0001
1000
0001
,  // measure 9
0100
0001
1000
0001
,  // measure 10
0010
0000
0010
0000
0000
0100
0000
0100
,  // measure 11
1000
1000
0010
0100
,  // measure 12
0001
1000
0001
0100
,  // measure 13
0001
1000
0001
0100
,  // measure 14
0001
0000
0001
0000
0000
1000
0000
1000
,  // measure 15
0100
0100
0010
0001
,  // measure 16
0100
0000
0001
0000
0010
0000
0100
0010
,  // measure 17
0001
0000
1000
0000
0010
0000
1000
0001
,  // measure 18
0100
0000
0001
0000
0010
0000
0001
1000
,  // measure 19
0010
0000
1000
0000
0001
0000
0100
0001
,  // measure 20
1000
0100
0000
0100
0000
0010
0000
0010
,  // measure 21
0000
0001
0000
0001
0000
1000
0000
1000
,  // measure 22
0001
0000
0001
0000
0000
0100
0000
0100
,  // measure 23
0010
0010
0220
0000
,  // measure 24
0330
0000
1000
0001
,  // measure 25
1000
0001
0000
0000
,  // measure 26
0000
0000
0010
0100
,  // measure 27
0010
0100
0000
0000
,  // measure 28
0000
0000
1000
0010
,  // measure 29
1000
0000
0010
0000
0000
0000
0100
0010
,  // measure 30
0100
0000
0001
0010
,  // measure 31
0100
0000
1000
0100
,  // measure 32
0010
0000
0001
1000
,  // measure 33
0001
0000
0100
0010
,  // measure 34
0100
0000
0001
0010
,  // measure 35
0001
0000
1000
0010
,  // measure 36
1000
0000
0100
0010
,  // measure 37
0100
0000
1000
0001
,  // measure 38
1000
0000
0000
0000
,  // measure 39
0000
0000
1001
0000
,  // measure 40
0101
0100
0001
1000
,  // measure 41
0001
0010
0001
0100
,  // measure 42
0010
1000
0100
1000
,  // measure 43
0001
0100
0010
0100
,  // measure 44
0001
1000
0100
0010
,  // measure 45
0100
1000
0001
0010
,  // measure 46
0100
0010
0001
1000
,  // measure 47
0001
0100
0001
1000
,  // measure 48
0010
1000
0001
0010
,  // measure 49
0100
0010
0001
1000
,  // measure 50
0100
0010
0100
1000
,  // measure 51
0001
0100
0010
1000
,  // measure 52
0002
0000
0100
1000
,  // measure 53
0203
0000
0010
0001
,  // measure 54
0310
0000
0100
0000
,  // measure 55
0001
0000
1000
0000
,  // measure 56
1001
0000
0000
0000
0000
1000
0000
0000
,  // measure 57
0100
0000
0100
0000
0000
0010
0000
0000
,  // measure 58
0001
0000
0000
0000
0000
1000
0000
0000
,  // measure 59
0010
0000
0010
0000
0000
0100
0000
0000
,  // measure 60
0001
0000
0000
0000
0000
0010
0000
0000
,  // measure 61
0100
0000
0100
0000
0000
0010
0000
0000
,  // measure 62
0001
0000
0000
0000
0000
1000
0000
0000
,  // measure 63
0000
0000
0000
0000
,  // measure 64
0001
0100
0010
1000
,  // measure 65
0100
0010
0001
0100
,  // measure 66
0010
1000
0001
0010
,  // measure 67
0100
1000
0010
0100
,  // measure 68
0001
1000
0100
0010
,  // measure 69
0001
1000
0001
0100
,  // measure 70
0001
0000
0000
0000
,  // measure 71
1001
0000
0000
0000
1000
0000
0000
1000
,  // measure 72
0000
1000
0010
0000
0100
0000
0001
0000
,  // measure 73
1000
0000
0000
0000
0010
0000
0000
0100
,  // measure 74
0000
0100
0001
0000
1000
0000
0001
0000
,  // measure 75
0100
0000
0000
0000
0001
0000
0000
1000
,  // measure 76
0000
1000
0001
0000
0100
0000
0001
0000
,  // measure 77
1000
0000
0000
0000
0100
0000
0000
0010
,  // measure 78
0000
0010
0100
0000
1000
0000
0001
0000
,  // measure 79
1001
0000
0000
0000
;

//---------------dance-single - ----------------
#NOTEDATA:;
#CHARTNAME:X-Scale 10;
#STEPSTYPE:dance-single;
#DESCRIPTION:;
#CHARTSTYLE:;
#DIFFICULTY:Medium;
#METER:7;
#RADARVALUES:0.413119,0.584118,0.180740,0.139663,0.028754,352.000000,330.000000,22.000000,17.000000,0.000000,0.000000,0.000000,0.000000,0.000000,0.413119,0.584118,0.180740,0.139663,0.028754,352.000000,330.000000,22.000000,17.000000,0.000000,0.000000,0.000000,0.000000,0.000000;
#CREDIT:iamthek3n;
#NOTES:
// measure 0
0000
0000
0000
0000
,  // measure 1
0000
0000
0000
0000
,  // measure 2
0000
0000
0000
0000
,  // measure 3
0000
0000
0000
0000
,  // measure 4
0000
0001
0001
0001
,  // measure 5
0100
0100
0100
0001
,  // measure 6
0002
0000
0000
0000
,  // measure 7
0003
0000
0000
0000
,  // measure 8
1100
0000
0100
0000
1000
0000
0100
0010
,  // measure 9
0001
0000
1000
0000
0001
0000
0100
0001
,  // measure 10
1000
0000
1000
0000
0000
0010
0000
0010
,  // measure 11
0100
0000
0100
0000
0001
1000
0001
0000
,  // measure 12
0100
0010
1000
0001
,  // measure 13
0010
0000
0100
0000
1000
0001
0100
0000
,  // measure 14
0001
0000
0001
0000
0000
1000
0000
1000
,  // measure 15
0100
0000
0100
0000
0010
0100
1000
0000
,  // measure 16
1100
0000
0100
0000
1000
0001
0100
0010
,  // measure 17
0000
0000
1000
0000
0001
0010
0100
1000
,  // measure 18
0000
0000
0010
1000
0001
0000
0100
0001
,  // measure 19
1000
0000
0100
0000
0010
0100
1000
0001
,  // measure 20
0100
0000
0001
0000
0010
0010
0010
0000
,  // measure 21
0100
0000
1000
0000
0010
0000
1000
0001
,  // measure 22
0100
0000
0100
0000
0000
0001
0000
0001
,  // measure 23
1000
1000
1001
0000
,  // measure 24
0110
0000
0200
0302
,  // measure 25
2003
3200
0300
0000
,  // measure 26
0000
0000
0000
0000
0002
0000
0103
0001
,  // measure 27
2000
3020
0030
0000
,  // measure 28
0000
0000
0000
0100
0010
1000
0002
0000
,  // measure 29
0023
0000
0230
0000
0000
0000
0310
0100
,  // measure 30
1000
0000
0000
0010
2000
0000
0002
0000
,  // measure 31
3003
0000
0000
1000
0200
0000
0000
0000
,  // measure 32
0310
0000
0001
0000
0001
0000
0001
0010
,  // measure 33
0100
0000
1000
0000
1000
0000
0010
1000
,  // measure 34
0001
0000
0100
0000
0100
0000
0001
0010
,  // measure 35
0100
0010
0010
0000
,  // measure 36
0000
0000
1000
0000
1000
0000
0010
0100
,  // measure 37
0001
0000
0010
0000
0010
0000
0100
0010
,  // measure 38
0002
0000
0000
0000
,  // measure 39
0003
0000
1001
0000
,  // measure 40
0110
0000
1000
0000
1000
0000
0001
0010
,  // measure 41
0100
0000
0010
0000
0010
0000
0100
0010
,  // measure 42
0001
0000
1000
0000
1000
0000
0010
1000
,  // measure 43
0001
0000
0100
0000
0100
0000
0001
0010
,  // measure 44
0100
0000
0010
0000
0010
0000
0001
1000
,  // measure 45
0010
0000
0100
0000
0100
0000
0010
1000
,  // measure 46
0001
0000
0100
0010
1000
0000
0001
0000
,  // measure 47
0010
0000
0100
1000
0002
0000
0100
0000
,  // measure 48
1003
0000
0100
0000
0100
0000
0010
0100
,  // measure 49
1000
0000
0001
0000
0001
0000
0100
0001
,  // measure 50
1000
0000
0010
0000
0010
0000
0100
0010
,  // measure 51
1000
0000
0001
0000
0001
0000
0010
0100
,  // measure 52
1000
0100
0001
0100
,  // measure 53
0010
0100
1000
0100
,  // measure 54
0000
0001
0000
0100
0000
1000
0000
0001
,  // measure 55
0000
1000
0000
0100
0000
0001
0000
0000
,  // measure 56
2001
0000
0001
0000
0000
0010
0000
3010
,  // measure 57
1000
0000
0000
0000
1000
0000
0000
0000
0000
0000
0100
0000
0000
0000
0100
0010
,  // measure 58
0100
0000
0100
0000
0000
1000
0000
1000
,  // measure 59
0001
0000
0000
0000
0001
0000
0000
0000
0000
0000
0100
0000
0000
0000
0100
0010
,  // measure 60
0100
0000
0100
0000
0000
0001
0000
0001
,  // measure 61
0010
0000
0000
0000
0010
0000
0000
0000
0000
0000
0100
0000
0000
0000
0100
0010
,  // measure 62
0100
0000
0100
0000
0000
1000
0000
1000
,  // measure 63
0000
0000
0000
0000
0001
0100
0001
0000
,  // measure 64
0101
0000
1000
0000
0001
0100
0000
0100
,  // measure 65
1000
0000
0100
0000
0001
1000
0010
1000
,  // measure 66
0001
0000
0001
0000
1000
0100
0000
0100
,  // measure 67
0001
0000
0100
0000
1000
0010
0100
0001
,  // measure 68
1000
0000
1000
0000
0001
0010
0000
0010
,  // measure 69
1000
0000
0010
0000
0001
0000
0100
0001
,  // measure 70
1000
0010
0100
0001
,  // measure 71
1001
0000
0100
0000
1100
0000
0000
0110
,  // measure 72
0000
0000
0001
0000
1000
0000
0001
0000
1000
0001
1000
0000
0010
0000
0010
0000
,  // measure 73
1010
0000
0001
0000
0011
0000
0000
0101
,  // measure 74
0000
0000
0100
0000
0001
0000
1000
0000
0001
0100
0001
0000
0010
0000
0100
0000
,  // measure 75
0110
0000
1000
0000
1001
0000
0000
0110
,  // measure 76
0000
0000
1000
0000
0001
0000
0100
0000
0001
1000
0001
0000
0010
0000
0100
0000
,  // measure 77
0110
0000
0001
0000
1001
0000
0000
1100
,  // measure 78
0000
0000
0101
0000
0001
0000
1000
0001
1000
0000
0010
0000
1000
0000
0000
0000
,  // measure 79
1010
0000
0000
0000
;

//---------------dance-single - ----------------
#NOTEDATA:;
#CHARTNAME:X-Scale 13;
#STEPSTYPE:dance-single;
#DESCRIPTION:;
#CHARTSTYLE:;
#DIFFICULTY:Hard;
#METER:9;
#RADARVALUES:0.535177,0.681471,0.410772,0.854406,0.102693,456.000000,406.000000,50.000000,104.000000,0.000000,0.000000,0.000000,0.000000,0.000000,0.535177,0.681471,0.410772,0.854406,0.102693,456.000000,406.000000,50.000000,104.000000,0.000000,0.000000,0.000000,0.000000,0.000000;
#CREDIT:iamthek3n;
#NOTES:
// measure 0
0000
0000
0000
0000
,  // measure 1
0000
0000
0000
0000
,  // measure 2
0000
0000
0000
0000
,  // measure 3
0000
0000
0000
0000
,  // measure 4
0000
0000
1000
0000
1000
0000
1000
0001
,  // measure 5
0010
0000
0100
0000
0100
0000
0010
0100
,  // measure 6
1100
2000
3002
0203
,  // measure 7
0300
0002
0023
0230
,  // measure 8
0300
0000
1000
0100
0001
1000
0010
0100
,  // measure 9
1000
0000
0000
0000
0001
0100
0000
0000
0001
0000
1000
0000
0010
0000
0100
0000
,  // measure 10
0002
0003
0002
0003
1000
0200
0300
0200
,  // measure 11
0302
0000
0003
0000
0002
0000
0103
0001
1000
0000
0001
0000
1001
0000
0000
0000
,  // measure 12
0100
0000
0000
0000
0001
1000
0000
0000
0010
0000
0100
0000
1000
0100
0000
0000
,  // measure 13
0001
1000
0000
0000
0010
0000
1000
0000
0001
0100
0000
0000
1000
0000
0100
0000
,  // measure 14
0002
0003
0002
0003
1000
0200
0300
0200
,  // measure 15
0302
0000
0003
0000
0002
0000
0103
0001
1000
0000
0001
0000
0101
0000
0000
0000
,  // measure 16
1000
0001
0100
1000
0001
0010
1000
0001
,  // measure 17
1000
0000
0001
0100
0010
1000
0001
0200
,  // measure 18
0300
0100
1000
0100
0020
0030
0010
1000
,  // measure 19
0001
0100
0010
1000
0001
0010
0100
1000
,  // measure 20
0001
0010
1000
0010
0001
0001
0001
0100
,  // measure 21
0010
1000
0001
0100
0010
0001
0010
0100
,  // measure 22
0002
0003
0002
0003
0000
0020
0030
0020
,  // measure 23
2030
3000
2000
3000
1001
0000
0000
0000
,  // measure 24
0110
0010
2000
3002
,  // measure 25
0203
0320
0130
0001
,  // measure 26
1000
0000
0100
0000
2000
0000
3100
0010
,  // measure 27
0002
0203
1300
0100
,  // measure 28
0001
0000
0000
0001
0010
1000
0002
0000
,  // measure 29
0203
0000
2300
0000
0010
0000
3001
1000
,  // measure 30
0010
0000
0000
1000
0200
0000
0320
0000
,  // measure 31
0031
0000
0000
0001
0200
0000
1000
0000
,  // measure 32
0301
0000
1000
0000
1000
0000
0010
0100
,  // measure 33
0001
0000
0010
0000
0010
0000
0100
0010
,  // measure 34
0001
0000
1000
0000
1000
0000
0010
1000
,  // measure 35
0001
0100
0100
0001
,  // measure 36
1000
0000
0100
0000
0100
0000
0010
0100
,  // measure 37
1000
0000
0001
0000
0001
0000
0100
0001
,  // measure 38
0101
0000
0000
0001
2000
0000
0002
0000
,  // measure 39
3003
0000
0000
0100
0202
0000
0000
0303
,  // measure 40
1100
0000
0100
1000
0001
0000
0100
0001
,  // measure 41
1000
0000
2200
3300
0202
0303
0001
1000
,  // measure 42
0010
0000
2020
3030
0220
0330
0001
1000
,  // measure 43
0100
0000
2200
3300
2002
3003
0100
0001
,  // measure 44
1000
0000
0010
0100
0001
0000
0001
0010
,  // measure 45
0100
0000
0220
0330
2002
3003
0100
1000
,  // measure 46
0001
0000
0100
0010
2000
0000
3002
0000
,  // measure 47
0103
0000
0001
0010
0200
0000
0001
0000
,  // measure 48
1300
0000
0010
1000
0001
0000
1000
0100
,  // measure 49
0010
0000
0220
0330
0022
0033
0001
0010
,  // measure 50
0100
0000
0220
0330
2020
3030
0010
1000
,  // measure 51
0001
0000
2002
3003
0202
0303
0001
0010
,  // measure 52
0100
0000
1000
0100
0020
0000
0230
0000
,  // measure 53
1300
0000
0000
0000
0001
0000
0100
0000
0010
0000
0000
1000
0001
0000
0000
0100
,  // measure 54
0000
0001
0000
1000
0000
0010
0000
1000
,  // measure 55
0000
0001
0000
1000
0000
0100
1000
0001
,  // measure 56
2000
3000
2000
3000
0000
0020
0030
0020
,  // measure 57
0032
0000
0003
0000
0002
0000
0003
0000
0000
0000
1000
0000
0000
0000
0001
0100
,  // measure 58
0020
0030
0020
0030
0000
0002
0003
0002
,  // measure 59
2003
0000
3000
0000
2000
0000
3000
0000
0000
0000
0010
0000
0000
0000
0100
0010
,  // measure 60
2000
3000
2000
3000
0000
0200
0300
0200
,  // measure 61
0302
0000
0003
0000
0002
0000
0003
0000
0000
0000
1000
0000
0000
0000
1000
0001
,  // measure 62
0200
0000
0300
0000
0200
0000
0300
0000
0002
0000
0003
0020
0000
0000
0030
0002
,  // measure 63
0000
0003
2000
0000
0010
0100
3010
0000
,  // measure 64
1010
0000
0110
0000
0011
1000
0001
0100
,  // measure 65
0101
0000
0000
0000
1001
0000
0000
0000
1100
0000
0100
0000
0010
0000
0001
0010
,  // measure 66
0001
1000
1001
0000
1010
0010
0100
0001
,  // measure 67
0101
0000
0000
0000
1100
0000
0000
1000
0001
0000
1000
0000
1001
0000
0000
0000
,  // measure 68
0110
0000
1001
0000
1010
1000
0001
0100
,  // measure 69
0101
0000
0000
0000
1100
0000
0000
1000
0100
0000
1000
0000
0001
0000
0010
0100
,  // measure 70
2000
3000
0200
0300
0002
0003
0020
0030
,  // measure 71
1001
0000
0110
0000
1001
0000
0000
1000
,  // measure 72
0000
0000
1000
0000
0001
0000
0010
0100
0010
0000
0001
0000
1000
0000
0010
1000
,  // measure 73
0010
0000
0010
0000
0110
0000
0000
1000
,  // measure 74
0000
0000
0001
0000
1001
0000
0001
1000
0010
0000
1000
0000
0100
0000
0010
0100
,  // measure 75
1000
0000
0001
0000
0101
1000
0000
1001
,  // measure 76
0000
0000
0100
0000
1100
0000
1000
0000
0001
0100
0001
0000
0010
0000
0100
0010
,  // measure 77
0001
0000
1000
0001
1001
0000
0000
0110
,  // measure 78
0000
0000
1000
0000
1001
0000
0000
0001
0010
0000
0001
0000
1000
0000
0000
0000
,  // measure 79
1100
0000
0000
0000
;

//---------------dance-single - ----------------
#NOTEDATA:;
#CHARTNAME:X-Scale 15 (DANCERUSH Special);
#STEPSTYPE:dance-single;
#DESCRIPTION:;
#CHARTSTYLE:;
#DIFFICULTY:Challenge;
#METER:10;
#RADARVALUES:0.442460,0.584118,0.427203,0.312187,0.012323,377.000000,325.000000,52.000000,38.000000,216.000000,0.000000,0.000000,14.000000,0.000000,0.442460,0.584118,0.427203,0.312187,0.012323,377.000000,325.000000,52.000000,38.000000,216.000000,0.000000,0.000000,14.000000,0.000000;
#CREDIT:k3n -SYNTI-;
#NOTES:
// measure 0
0000
0000
0000
0000
,  // measure 1
0000
0000
0000
0000
,  // measure 2
0000
0000
0000
0000
,  // measure 3
0000
0000
0000
0000
,  // measure 4
0001
0000
0010
0000
,  // measure 5
0100
0000
1000
0000
,  // measure 6
1001
0000
0000
0000
,  // measure 7
0000
0000
0000
0000
,  // measure 8
1000
MMMM
1000
MMMM
,  // measure 9
1000
0000
0001
0100
0010
0000
1000
0001
,  // measure 10
2002
3003
2002
3003
MMMM
0200
0300
0100
,  // measure 11
2200
3300
2200
3300
1000
0010
L0L0
0000
,  // measure 12
0001
MMMM
0001
MMMM
,  // measure 13
0001
0000
1000
0100
0010
0000
0001
0010
,  // measure 14
0022
0033
0022
0033
MMMM
0200
0300
0100
,  // measure 15
0220
0330
0220
0330
0001
0010
00LL
0000
,  // measure 16
1000
MMMM
1000
MMMM
1000
0000
0010
0100
,  // measure 17
0001
MMMM
0001
MMMM
0001
0000
1000
0010
,  // measure 18
1000
MMMM
1000
MMMM
1000
0000
0001
0100
,  // measure 19
0001
MMMM
0001
MMMM
0001
0010
0100
0000
,  // measure 20
1000
0100
0001
0100
1000
1000
1000
0010
,  // measure 21
0100
0001
1000
0010
0100
1000
0100
0001
,  // measure 22
2002
3003
2002
3003
MMMM
0200
0300
0100
,  // measure 23
0220
0330
0220
0330
0LL0
0000
0000
0000
,  // measure 24
1000
MMMM
1000
MMMM
,  // measure 25
1000
0100
0010
0000
,  // measure 26
0001
MMMM
0001
MMMM
,  // measure 27
0001
1000
0010
0000
,  // measure 28
1000
MMMM
1000
MMMM
,  // measure 29
1000
0000
0020
0000
0100
0000
0031
0010
,  // measure 30
1000
0000
0000
1000
0010
0000
2020
3030
,  // measure 31
L0L0
0000
0000
0001
0020
0000
0001
0000
,  // measure 32
0130
0000
1000
MMMM
1000
MMMM
1000
0001
,  // measure 33
0100
0000
0001
MMMM
0001
MMMM
0001
0010
,  // measure 34
0100
0000
1000
MMMM
1000
MMMM
1000
0001
,  // measure 35
0100
0010
1000
0100
,  // measure 36
1001
0000
1000
MMMM
1000
MMMM
1000
0001
,  // measure 37
0100
0000
0001
MMMM
0001
MMMM
0001
0010
,  // measure 38
0200
0000
0000
0000
,  // measure 39
2000
0000
0000
3300
LL00
0000
0000
0000
,  // measure 40
1001
0000
0001
MMMM
0001
MMMM
0001
0010
,  // measure 41
0100
0000
1100
0000
0101
0000
1000
0001
,  // measure 42
0100
0000
0110
0000
1001
0000
0100
0001
,  // measure 43
1000
1100
0101
0001
,  // measure 44
1001
0000
1000
MMMM
1000
MMMM
1000
0100
,  // measure 45
0010
0000
0110
0000
0011
0000
1000
0001
,  // measure 46
0100
0000
0001
0010
0100
0000
0010
0000
,  // measure 47
0001
0000
1000
0010
0200
0000
1000
0000
,  // measure 48
0301
0000
1000
MMMM
1000
MMMM
1000
0001
,  // measure 49
0100
0000
0101
0000
0110
0000
1000
0010
,  // measure 50
0100
0000
0101
0000
1001
0000
0100
1000
,  // measure 51
0010
1010
0011
0001
,  // measure 52
0100
00M0
0100
1000
0002
0000
0203
0000
,  // measure 53
0310
0000
0100
0010
2000
0000
3002
0000
,  // measure 54
0003
1000
0000
1000
0000
0001
0000
0001
,  // measure 55
0000
1000
0000
1000
0000
0000
0001
0001
,  // measure 56
1001
0000
1000
0000
0000
0001
0000
0001
,  // measure 57
0100
0000
0100
0000
0001
0100
00M0
0100
,  // measure 58
1000
0000
1000
0000
0000
0010
0000
0010
,  // measure 59
0100
0000
0100
0000
0001
0100
00M0
0100
,  // measure 60
1000
0000
1000
0000
0000
0100
0000
0100
,  // measure 61
1000
0000
1000
0000
0010
0100
000M
0100
,  // measure 62
1000
0000
1000
0000
0000
0001
0000
0001
,  // measure 63
0000
0000
0000
0000
1000
0001
L00L
0000
,  // measure 64
0001
MMMM
0001
MMMM
0001
MMMM
0001
MMMM
,  // measure 65
0001
0000
0011
0000
0001
0100
00M0
0100
,  // measure 66
1000
MMMM
1000
MMMM
1000
MMMM
1000
MMMM
,  // measure 67
1000
0000
1010
0000
1000
0010
L0L0
0000
,  // measure 68
0001
MMMM
0001
MMMM
0001
MMMM
0001
MMMM
,  // measure 69
0001
0000
1001
0000
0001
0100
00M0
0100
,  // measure 70
1MMM
0MM0
0M00
MMMM
,  // measure 71
1100
0000
0110
0000
1001
0000
1000
0100
,  // measure 72
00M0
0000
0100
0000
0001
0000
0000
0000
1000
0000
0001
0000
0100
0000
0001
0100
,  // measure 73
0001
0000
1001
0000
1010
0000
0010
0100
,  // measure 74
000M
0000
0100
0000
1000
0000
0000
0000
0001
0000
1000
0000
0010
0000
0100
0010
,  // measure 75
0100
0000
1001
0000
0011
0000
0010
0100
,  // measure 76
M000
0000
0100
0000
0001
0000
0000
0000
1000
0000
0001
0000
0100
0000
0001
0100
,  // measure 77
0001
0000
0101
0000
1100
0000
1000
0100
,  // measure 78
00M0
0100
0001
1000
0010
0100
0001
0000
,  // measure 79
0101
0000
0000
0000
;
