#TITLE:It Just Don’t Feel Like Christmas Without You;
#SUBTITLE:;
#ARTIST:Rihanna;
#TITLETRANSLIT:;
#SUBTITLETRANSLIT:;
#ARTISTTRANSLIT:;
#GENRE:R&B;
#CREDIT:;
#BANNER:It Just Don't Feel Like Christmas Without You-bn.png;
#BACKGROUND:It Just Don't Feel Like Christmas Without You-bg.png;
#LYRICSPATH:;
#CDTITLE:cdtitle.png;
#MUSIC:It Just Don't Feel Like Christmas Without You.ogg;
#OFFSET:-0.469000;
#SAMPLESTART:37.606998;
#SAMPLELENGTH:15.236000;
#SELECTABLE:YES;
#BPMS:0.000000=126.018005
;
#STOPS:
;
#BGCHANGES:;
#KEYSOUNDS:;
#ATTACKS:;

//---------------dance-single - ----------------
#NOTES:
     dance-single:
     X-Scale 10:
     Hard:
     7:
     0.316082,0.376444,0.061460,0.409735,0.040974,216.000000,210.000000,6.000000,40.000000,0.000000,0.000000,0.316082,0.376444,0.061460,0.409735,0.040974,216.000000,210.000000,6.000000,40.000000,0.000000,0.000000:
0000
0000
0000
0000
,
0000
0000
0000
0000
,
0000
0000
0000
0000
,
0000
0000
0000
0000
0000
0000
0000
0100
,
0001
1000
0020
0000
0000
0030
0100
0010
,
2000
3002
0023
0030
,
0100
0000
0000
1000
0000
0000
0002
0000
0000
0000
0000
0000
0023
0000
0000
0000
,
0230
0000
0000
0000
0300
0000
0000
1000
,
0010
0100
0002
0000
2003
3100
1000
0010
,
1000
0100
0020
0000
1030
0010
0002
0000
,
0013
0200
0000
2300
0000
0000
3002
0000
,
0000
0003
0000
1001
,
0100
2000
0000
0000
0000
0001
3002
0000
,
0100
0000
0103
0001
0010
1000
0020
0000
,
0031
0200
0000
0310
2000
0000
0100
0000
,
0000
0010
3010
0000
1000
0000
0100
0010
,
1000
0010
0100
0000
1000
0001
0100
0000
,
0010
0000
0100
0000
0001
0000
0000
0000
0010
0000
0100
0000
1000
0000
0000
0100
,
0000
0001
0000
0010
0200
0000
0001
0000
,
0000
0000
0310
0100
0001
1000
1001
0000
,
1000
0001
0100
0000
0010
0100
0001
0000
,
0010
0100
1000
0001
0100
0001
1000
0000
,
0100
0010
0001
0000
1000
0100
1000
0000
,
0001
0010
0100
0000
1000
0010
1000
0000
,
0001
0010
0001
0000
0100
0010
1000
0000
,
0001
0010
1000
0000
0100
0001
1000
0000
,
0010
0100
0001
0000
1000
0001
1000
0000
,
0100
0010
0001
0100
1000
0100
0001
0000
,
0100
0010
1000
0001
0000
0010
0010
0000
,
0100
0010
0001
0000
1000
0010
0000
1000
,
0001
0000
0100
0000
0000
0001
0000
0000
0010
0000
0100
0000
0010
0000
0000
0000
,
0001
1000
0001
0000
0100
0010
2000
0000
,
3200
0302
0023
2030
,
3002
0100
0000
1003
,
0000
0000
0010
0000
0100
0001
0201
0000
,
0302
0023
2030
3200
,
0302
0000
0000
0100
0000
0000
0000
0000
0000
1003
0001
1000
,
0002
0010
0003
0101
,
0001
0010
0100
2000
0000
0001
3002
0000
,
0000
0000
0100
0000
0013
0001
2000
0000
,
3100
0020
0001
0000
0030
0000
0011
0000
,
0000
0000
1001
0000
1000
0010
0100
0000
,
0000
0000
0001
0100
1000
0100
0001
0000
,
0000
0000
0000
1000
0000
0000
0010
0010
,
0000
0000
0000
0000
0000
0000
0000
0000
0000
0100
0000
0000
0000
0000
0000
0000
0010
0000
0100
0000
0010
0000
0100
0000
,
0020
0000
0000
0000
1030
1000
0000
0100
,
0000
0000
0010
0002
0000
0000
2000
0000
,
0000
0000
0000
0000
,
0000
0000
0000
0000
,
3003
0000
0000
0000
;

//---------------dance-single - ----------------
#NOTES:
     dance-single:
     X-Scale 7:
     Medium:
     5:
     0.283888,0.326252,0.061460,0.317545,0.040974,194.000000,188.000000,6.000000,31.000000,0.000000,0.000000,0.283888,0.326252,0.061460,0.317545,0.040974,194.000000,188.000000,6.000000,31.000000,0.000000,0.000000:
0000
0000
0000
0000
,
0000
0000
0000
0000
,
0000
0000
0000
0000
,
0000
0000
0000
1000
,
0000
0001
0000
0100
0001
0000
0010
0000
,
0000
0100
0000
1000
0100
0000
1000
0000
,
0000
0001
0000
0100
0001
0000
0010
0000
,
0000
0100
0000
1000
0100
0000
1000
0000
,
0000
0001
0000
0100
0001
0000
0010
0000
,
0000
0100
0000
1000
0010
0000
1000
0000
,
0000
0001
0000
0010
0001
0000
0100
0000
,
0000
0010
0100
0001
0010
0000
0001
0000
,
1000
0010
0000
1000
0000
0100
0100
0000
,
0000
0010
0001
1000
0010
0000
1000
0000
,
0001
0000
1000
0000
0100
0010
0001
0000
,
0100
0010
1000
0000
0001
0000
0100
0000
,
0001
0010
0000
0001
1000
0000
0100
0000
,
1000
0010
0000
1000
0001
0000
0010
0000
,
0100
1000
0000
0001
0100
0001
1000
0000
,
0000
0000
0100
0010
0100
0000
2001
0000
,
3001
0020
0000
0000
0130
2000
0010
0000
,
0000
0000
3001
1000
0100
1000
0001
0000
,
0010
0002
0000
2003
0000
0010
3020
0000
,
0001
0000
0130
0000
0010
1000
0200
0000
,
0310
0002
0000
0000
1003
0200
1000
0000
,
0310
0002
0000
0000
0013
0100
2000
0000
,
0000
0000
3020
0000
0000
0000
0130
0000
0000
0010
0000
0000
2001
0000
0000
0000
,
0000
0000
3100
1000
0001
0100
0002
0000
,
0013
0200
0000
0000
1300
0020
0000
0000
,
0130
0002
0000
0013
0001
1000
1000
0010
,
0000
1000
0000
0001
0000
0010
0000
0000
0002
0000
0000
0000
0013
0000
0000
0000
,
0100
1000
0100
0000
1000
0000
0001
0000
,
0100
1000
0001
0010
,
2000
0010
0000
0001
,
3000
1000
0000
1100
,
0100
1000
0001
0100
,
0002
1000
0000
0013
,
0000
0001
0000
0011
,
0001
0000
0010
0200
0000
0000
2300
0000
,
0000
0000
0010
0000
3010
1002
0000
0000
,
0023
1000
0031
0011
,
0000
0000
0001
0000
1000
0010
1000
0000
,
0000
0000
0000
0000
0000
0100
1000
0002
,
0000
0000
0000
0000
0003
0100
0001
0000
2000
0000
0000
0000
3010
0000
0100
0000
,
0002
0000
0000
0000
0000
0000
0000
0000
0000
0023
0000
0000
0000
0000
0000
0030
0100
0000
1000
0000
0100
0000
1000
0000
,
0200
0000
0000
0000
0310
0100
0000
1000
,
0000
0001
0000
0200
0000
0000
0002
0000
,
0000
0000
0000
0000
,
0000
0000
0000
0000
,
0303
0000
0000
0000
;

//---------------dance-single - ----------------
#NOTES:
     dance-single:
     X-Scale 4:
     Easy:
     2:
     0.158041,0.191551,0.030730,0.000000,0.000000,108.000000,105.000000,3.000000,0.000000,0.000000,0.000000,0.158041,0.191551,0.030730,0.000000,0.000000,108.000000,105.000000,3.000000,0.000000,0.000000,0.000000:
0000
0000
0000
0000
,
0000
0000
0000
0000
,
0000
0000
0000
0000
,
0000
0000
0000
0001
,
0000
0001
0000
0000
0010
0000
0100
0000
,
0000
0100
0000
0000
1000
0000
0001
0000
,
0000
0001
0000
0000
0100
0000
0010
0000
,
0000
0010
0000
0000
1000
0000
0001
0000
,
0000
0001
0000
0000
0010
0000
0100
0000
,
0000
0100
0000
0000
0010
0000
0001
0000
,
0000
0001
0000
0000
1000
0000
0010
0000
,
0000
0010
0000
0000
1000
0000
0100
0000
,
0000
0010
0000
0001
,
0000
0010
0000
0100
,
0000
1000
0000
0001
,
0000
0100
0000
0001
,
0000
1000
0000
0100
,
0000
0010
0000
0001
,
0000
1000
0000
0001
,
0000
0010
0000
0011
,
0000
0000
0001
0000
0000
1000
0010
0000
,
0000
0000
1000
0001
0000
0000
0010
0000
,
0000
0000
0100
0000
0000
1000
0100
0000
,
0000
0010
0000
0001
,
0000
0000
0100
0000
0000
0010
0100
0000
,
0000
0000
0001
0000
0000
0010
0001
0000
,
0000
1000
0000
0010
,
0000
0000
1000
0001
0000
0000
0010
0000
,
0000
0000
0100
0000
0000
1000
0100
0000
,
0000
0000
1000
0000
0000
0001
0100
0000
,
0000
0001
0000
0010
,
0000
0000
0100
0010
0000
0000
0001
0000
,
0000
1000
0000
0010
,
0000
0100
0000
0001
,
0000
0010
0000
0100
,
0000
0000
0010
0000
0000
0010
0001
0000
,
0000
0100
0000
0001
,
0000
1000
0000
1001
,
0000
0000
0001
0000
0000
0001
1000
0000
,
0000
0000
0100
0000
0000
0100
0010
0000
,
0000
0001
0000
1000
,
0000
0000
0001
1000
0000
0000
0100
0000
,
0000
0000
0000
1000
,
0000
0000
0000
0001
,
0000
0000
0000
0000
,
1000
0000
0000
0000
0000
0100
0000
1000
,
0000
0001
0000
0000
0000
0000
1001
0000
;

//---------------dance-single - ----------------
#NOTES:
     dance-single:
     X-Scale 1:
     Beginner:
     1:
     0.090727,0.143663,0.030730,0.000000,0.000000,62.000000,59.000000,3.000000,0.000000,0.000000,0.000000,0.090727,0.143663,0.030730,0.000000,0.000000,62.000000,59.000000,3.000000,0.000000,0.000000,0.000000:
// measure 0
0000
0000
0000
0000
,  // measure 1
0000
0000
0000
0000
,  // measure 2
0000
0000
0000
0000
,  // measure 3
0000
0000
0000
1000
,  // measure 4
0000
0000
0000
0001
,  // measure 5
0000
0000
0000
1000
,  // measure 6
0000
0000
0000
0001
,  // measure 7
0000
0000
0000
0010
,  // measure 8
0000
0000
0000
0100
,  // measure 9
0000
0000
0000
0010
,  // measure 10
0000
0000
0000
0100
,  // measure 11
0000
0000
0000
1000
,  // measure 12
0000
0000
0000
0001
,  // measure 13
0000
0000
0000
0100
,  // measure 14
0000
0000
0000
0001
,  // measure 15
0000
0000
0000
1000
,  // measure 16
0000
0000
0000
0100
,  // measure 17
0000
0000
0000
0010
,  // measure 18
0000
0000
0000
0001
,  // measure 19
0000
0000
0000
1001
,  // measure 20
0000
1000
0000
0001
,  // measure 21
0000
0100
0000
0001
,  // measure 22
0000
1000
0000
0100
,  // measure 23
0000
0010
0000
0100
,  // measure 24
0000
1000
0000
0001
,  // measure 25
0000
0010
0000
0100
,  // measure 26
0000
0010
0000
0001
,  // measure 27
0000
0100
0000
0010
,  // measure 28
0000
0100
0000
0001
,  // measure 29
0000
1000
0000
0001
,  // measure 30
0000
0100
0000
0001
,  // measure 31
0000
1000
0000
0100
,  // measure 32
0000
1000
0000
0010
,  // measure 33
0000
0000
0000
0000
,  // measure 34
0000
0000
0000
1001
,  // measure 35
0000
0001
0000
0100
,  // measure 36
0000
0000
0000
0000
,  // measure 37
0000
0000
0000
1001
,  // measure 38
0000
1000
0000
0100
,  // measure 39
0000
0010
0000
0001
,  // measure 40
0000
0100
0000
0010
,  // measure 41
0000
1000
0000
0001
,  // measure 42
0000
0000
0000
1000
,  // measure 43
0000
0000
0000
0000
0000
0000
0000
0100
,  // measure 44
0000
0000
0000
0000
,  // measure 45
1000
0000
0000
0000
,  // measure 46
0000
0000
0000
0001
;
